This file was generated by Ched 2.7.0.0.
#TITLE ""
#ARTIST ""
#DESIGNER ""
#DIFFICULTY 0
#PLAYLEVEL
#SONGID ""
#WAVE ""
#WAVEOFFSET 0
#JACKET ""
#REQUEST "ticks_per_beat 480"
#00002: 4
#BPM01: 200
#00008: 01
#TIL00: "100'0:10000.0, 100'1680:1.0"
#VOLUME: ""
#HISPEED 00
#MEASUREHS 00
#00514:14
#0061a:14
#00912:14
#0111a:14
#01110:41
#01412:14
#01518:14
#0191a:14
#0211a:14
#02212:14
#05114:14
#06118:0014
#06114:14
#06218:0016
#06212:26
#0621f:21
#08414:14
#08410:41
#08518:14
#08812:14
#0881a:0014
#08614:14
#08718:14
#01018:14
#01014:0014
#01814:14
#00418:14
#00314:14
#00712:14
#0081a:14
#0121a:14
#01312:14
#01618:14
#01714:14
#02012:14
#02318:14
#02310:41
#02518:14
#02614:14
#02414:14
#03518:2616
#03510:41
#03612:1616
#03718:16
#03712:0016
#04018:0016
#04012:16
#03918:0016
#03912:16
#04312:2616
#04418:1616
#04512:16
#04518:0016
#04812:0016
#04818:16
#04712:0016
#04718:16
#04710:41
#06018:14
#06418:16
#06412:0016
#06518:16
#06512:0016
#06818:2616
#06912:1616
#07018:16
#07012:0016
#07212:16
#07218:0016
#07312:16
#07318:0016
#08018:14
#08014:0014
#08118:14
#08114:0014
#0891a:0014
#08912:14
#09218:14
#09314:14
#0961a:14
#09612:0014
#09418:14
#09514:14
#09712:0014
#0971a:14
#09812:0014
#0981a:14
#0521f:11
#00118:24
#00114:0024
#00218:24
#06712:26
#04218:26
#06310:41
#0273a0:14
#0283a0:24
#029320:14
#030320:24
#031380:14
#032380:24
#033340:14343434
#034340:24
#038380:1626
#041320:1626
#042380:1626
#046320:1626
#049380:16
#050380:26
#052380:14
#0533a0:24
#054340:14
#055320:24
#0563a0:14
#057380:24
#058320:14343434
#059320:24
#063320:1626
#066380:1626
#067320:1626
#071380:1626
#074320:16
#075320:26
#0763a0:14
#077380:24
#078320:14
#079340:24
#082380:14
#0833a0:24
#090320:14
#091320:24
#0993a0:14
#1003a0:24
#1009d0:000000000000000000000000000000000000000000000000000000000000000000000000000000000000000000000000000000000000000000000000000000000000000000000000000000000000000000000000000000000000000000000000000000000000000000000000000000000000000000000000000000000000000000000000000000000000000000000000000000000000000000000000000000000000000000000000000000000000000000000000000000000000000000000000000000000000000000000000000000000000000000000000000000000000000000000000000000000000000000000000000000000000000000000000000000000000000000000000000000000000000000000000000000000000000000000000000000000000000000000000000000000000000000000000000000000000000000000000000000000000000000000000000000000000000000000000000000000000000000000000000000000000000000000000000000000000000000000000000000000000000000000000000000000000000000000000000000000000000000000000000000000000000000000000000000000000000000000000000000000000000000000000000000000000000000000000000000000000000000000000000000000000000000000000000000000000000000000000000000000000000000000000000000000000000000000000000000000000000000000000000000000000000000000000000000000000000000000000000000000000000000000000000000000000000000000000000000000000000000000000000000000000000000000000000000000000000000000000000000000000000000000000000000000000000000000000000000000000000000000000000000000000000000000000000000000000000000000000000000000000000000000000000000000000000000000000000000000000000000000000000000000000000000000000000000000000000000000000000000000000000000000000000000000000000000000000000000000000000000000000000000000000000000000000000000000000000000000000000000000000000000000000000000000000000000000000000000000000000000000000000000000000000000000000000000000000000000000000000000000000000000000000000000000000000000000000000000000000000000000000000000000000000000000000000000000000000000000000000000000000000000000000000000000000000000000000000000000000000000000000000000000000000000000000000000000000000000000000000000000000000000000000000000000000000000000000000000000000000000000000000000000000000000000000000000000000000000000000000000000000000000000000000000000000000000000000000000000000000000000000000000000000000000000000000000000000000000000000000000000000000000000000000000000000000000000000000000000000000000000000000000000000000000000000000000000000000000000000000000000000000000000000000000000000000000000000000000000000000000000000000000000000000000000000000000000000000000000000000000000000000000000000000000000000000000000000000000000000000000000000000000000000000000000000000000000000000000000000000000000000000000000000000000000000000000000000000000000000000000000000000000000000000000000000000000000000000000000000000000000000000000000000000000000000000000000000000000000000000000000000000000000000000000000000000000000000000000000000000000000000000000000000000000000000000000000000000000000000000000000000000000000000000000000000000000000000000000000000000000000000000000000000000000000000000000000000000000000000000000000000000000000000000000000000000000000000000000000000000000000000000000000000000000000000000000000000000000000000000000000000000000000000000000000000000000000000000000000000000000000000000000000000000000000000000000000000000000000000000000000000000000000000000000000000000000000000000000000000000000000000000000000000000000000000000000000000000000000000000000112100000000000000000000000000000000000000000000000000000000000000000000000000000000000000000000000000000000000000000000000000000000000000000000000000000000000000000000000000000000000000000000000000000000000000000000000000000000000000000000000000000000000000000000000000000000000000000000000000000000000000000000000000000000000000000000000000000000000000000000000000000000000000000000000000000000000000000000000000000000000000000000000000000000000000000000000000000000000000000000000000
