This file was generated by Ched 2.7.0.0.
#TITLE ""
#ARTIST ""
#DESIGNER ""
#DIFFICULTY 0
#PLAYLEVEL
#SONGID ""
#WAVE ""
#WAVEOFFSET 0
#JACKET ""
#REQUEST "ticks_per_beat 480"
#00002: 4
#BPM01: 200
#00008: 01
#TIL00: ""
#VOLUME: ""
#HISPEED 00
#MEASUREHS 00
#0031a:14
#00414:14
#00518:14
#00612:14
#0071a:14
#0161a:14
#01718:14
#0181a:14
#02014:14
#02118:14
#02212:14
#0231a:14
#02414:14
#02514:14
#02618:14
#02718:14
#03212:14
#03314:14
#03416:14
#03518:14
#0361a:14
#03718:14
#04014:0016
#04012:26
#04010:41
#04312:0016
#04318:16
#04418:16
#04416:0016
#04718:0016
#04712:16
#04918:0016
#05212:14
#05218:0014
#05314:14
#0531a:0014
#05412:14
#05518:0014
#0601a:14
#06014:0014
#06118:14
#06112:0014
#06218:14
#06214:0014
#06412:14
#06418:0014
#06514:14
#0651a:0014
#06614:14
#06618:0014
#0661f:11
#0681a:14
#06918:14
#07016:14
#07114:14
#07212:14
#07314:14
#04118:0016
#04212:1616
#04512:0016
#04618:1616
#04812:16
#04814:0016
#08412:0016
#08418:26
#08518:1414
#08514:00140000
#07616:0016
#07618:26
#0761f:21
#07714:0014
#07710:41
#0781a:14
#07812:0014
#07918:1414
#07914:00140000
#08012:16
#08014:0016
#08118:0014
#08212:14
#0821a:0014
#08314:1414
#08318:00140000
#08818:0016
#08812:16
#08912:14
#08916:0014
#0901a:14
#09114:0014
#09418:14
#0951a:14
#09618:14
#00212:24
#00210:41
#00814:24
#01018:24
#05012:26
#05118:26
#05612:26
#05618:0026
#05610:41
#05714:24
#08612:26
#08718:26
#09218:26
#09212:0026
#09318:24
#01210:41
#02810:41
#0165a:64
#01758:64
#0185a:64
#0365a:64
#03758:24
#04052:66
#04054:0026
#04458:66
#04456:0026
#05452:64
#07252:54
#07354:24
#04852:56
#04854:0026
#07656:0026
#07658:66
#08052:66
#08054:0026
#0905a:64
#09458:64
#0955a:64
#09658:64
#008340:1400000000000034
#009340:0024
#010380:1400000000000034
#011380:0024
#012330:13
#013320:35
#014330:33
#015320:25
#0163a0:14
#017380:34
#0183a0:34
#019380:24
#028320:14
#029320:24
#0303a0:14
#0313a0:24
#0363a0:14
#037380:54
#0383a0:34
#039380:26
#040320:16
#040340:0056
#041320:26
#044380:16
#044360:0056
#045380:26
#048320:16
#048340:0056
#049320:26
#050320:1626
#051380:1626
#054320:14
#055340:24
#057340:14343434
#058340:34
#059320:24
#0633a0:1424
#067320:1424
#072320:14
#073340:54
#074320:34
#075320:26
#076380:16
#076360:0056
#077380:26
#080320:16
#080340:0056
#081320:26
#086320:1626
#087380:1626
#0903a0:14
#091380:24
#093380:14343434
#094380:34
#0953a0:34
#096380:34
#0973a0:0024
