This file was generated by Ched 2.7.0.0.
#TITLE ""
#ARTIST ""
#DESIGNER ""
#DIFFICULTY 0
#PLAYLEVEL
#SONGID ""
#WAVE ""
#WAVEOFFSET 0
#JACKET ""
#REQUEST "ticks_per_beat 480"
#00002: 4
#BPM01: 200
#00008: 01
#TIL00: ""
#VOLUME: ""
#HISPEED 00
#MEASUREHS 00
#0551a:00141400
#05512:00141400
#05518:00000013
#05515:0000000000000023
#00119:24000000141414141400000000000000
#0011a:0000000000000000001400000014000000000000000000001200000000000000
#00118:0000000000000000000000140000001400000000000000000000000000000000
#00218:00130013
#00215:0013
#00212:00230023
#0021b:0023
#00210:41
#00315:13000013
#0031b:2313
#00318:0000000000130000
#00312:0000000000000013
#00415:00000000130000000000005300000000
#00418:0000001300000000
#00412:0013
#0041b:0000000000000013
#0041a:24
#00413:00000000000000000053000000000000
#00414:0000000000530000
#00416:00000053
#00518:00140000
#0051a:00000014
#00512:24
#00514:0024
#00615:00130013
#00618:0013
#00612:2423
#0061b:00230023
#00718:13000013
#00712:2313
#00715:0000000000130000
#0071b:0000000000000013
#0081a:0000001400000000
#00812:14
#00815:0014
#00917:0014000014000000
#00912:0000001400000000
#0121b:0000333313003333
#01218:13
#01216:0014
#01210:41
#01312:0000333313003333
#01315:13
#01316:0014
#0141b:0000333313333333
#01418:13
#01416:0014
#01515:1300000000330000
#01518:1300000000330000
#0151b:0000331300000000
#01512:0000331300000000
#0161b:00231300
#0161a:24
#01612:24000023
#01616:0000002300000000
#01617:0000000000000023
#01712:13000023
#01718:0000000013000023
#0171b:00230000
#01715:0000002300000000
#01815:13
#01812:0000000000000024
#0181b:00230000
#01816:0000002300000000
#01819:0023
#01814:0000000000230000
#01817:00000023
#01916:00000000001400000000000000000000
#02015:0000131300001300
#0201b:0013
#02018:0000000000130000
#02012:0000000000000013
#0201a:24
#0211b:0000331300000000
#02118:13
#02218:0000131300001300
#02212:2413
#02215:0000000000130000
#0221b:0000000000000013
#02418:0013
#02412:2600002300002300
#0241b:0000230000000023
#02515:13000000000000000014000000000000
#02518:0000130000000013
#02512:0000002400000000
#02618:13
#02615:0000001313000000
#02612:0000000000000024
#02714:0000002414000000
#0271b:00000000000000000033333313333333
#02712:00000000000000000033333313333333
#0271a:0024000000000000
#02718:0024
#0281b:00130000
#02816:0000001300000000
#02819:0013
#02814:0000000000130000
#02812:0000000000000013
#02817:00000013
#02810:41
#02917:0000341400000000
#0291a:24
#03012:00130000
#03017:0000001300000000
#03014:0013
#03019:0000000000130000
#0301b:0000000000000013
#03016:00000013
#0311b:00000013
#03118:0000000000000013
#03112:24
#03115:00340000
#03215:1300000000130013
#03212:0013000000000000
#03217:00130000
#03218:00000013
#03318:1300000000130000
#0331b:0013000000000013
#03316:00130000
#03315:00000013
#03412:0013000000001300
#03418:00130000
#03415:0000001300000000
#0341b:0013
#03417:0000000000000023
#03515:0000130000000023
#03518:0000001300001300
#03512:0013
#03612:00000000000000000000001300000000
#03718:00000013
#04015:0000150000000013
#04018:00000013
#04012:25
#04010:41
#04118:0013001300000000
#04115:0000130000000023
#04315:0000000000130013
#04318:24000013
#04412:0000001300000000
#0441a:24
#04417:0024
#04415:0000000000000024
#04518:0000130000000013
#04816:00150000
#04815:00000013
#04818:0000000000000013
#04819:25
#04915:0013001300000000
#04918:0000130000000013
#04912:00000000000000000013000000000000
#04718:0000000000130000
#04715:00000013
#04712:0000000000000013
#04714:24
#05018:0013000000130000
#05015:00130013
#0501b:0000001300000013
#05012:2424
#05115:00000014000000000000000000000000
#05112:24
#05119:00000024
#05113:0000000000000024
#05215:0000001300000023
#05218:00001313
#05212:0000000000130000
#0521a:00240000
#05318:0000001300000000
#05315:0013
#0531b:0000000000130000
#05418:13
#0541b:0013
#05412:0013
#05415:23
#05615:0000130000000023
#05618:0000002300001300
#05619:25
#05612:0025
#05610:41
#05812:1454
#05813:005400000054005400000054
#05814:005454005454
#05815:00540054
#06218:00001300130000000000001400000000
#06212:2300001300000000
#06215:00000013000000000000000000000000
#06214:0000000000141400
#0621a:0000000024000014
#06615:0013000000000000
#06618:00130014
#06612:0000001300000014
#06614:0000000000140000
#0661f:11
#0661b:23
#0661a:0024
#06716:000000000000000000000000143333333333333333333333
#0671a:240000000000000000000000003434343434343434343434
#06712:0023
#06817:00130013
#06816:0013
#06812:00230023
#0681b:0023
#06916:1300000024000024
#0691b:23
#0691a:0000002400000000
#06918:0000000000240000
#06914:00000024
#07015:00140000
#07012:24
#0701a:0000000000002424
#07212:00000000000000000000000000130000
#09112:00140000
#09116:0000001400001400
#09114:0014
#09118:0000000000140000
#0911a:0000000000000024
#07612:00130013
#07618:0000000000000013
#07616:00140000
#07614:24
#07619:25
#0761f:21
#07714:0013000000000000
#0771b:0000130000000023
#07716:0000001300000000
#07710:41
#0791b:0000000000130000
#07915:24000013
#07918:0000000000000013
#0801b:0000001300000000
#08012:25
#08015:0025
#08016:0000000000000025
#08112:0000130000000013
#08315:0000000000130013
#08318:00000013
#08317:24
#08612:0013000025000000
#08615:0000130000000013
#08618:0000001300001300
#0861b:0000000000130000
#08619:25
#08716:00000015000000000000000000000000
#08719:25
#08712:00000026
#08718:0000000000000026
#08818:0000001400000024
#08814:00001414
#0881a:0000000000140000
#08812:00260000
#08915:0000001300000000
#08918:0013
#08912:0000000000140000
#0891a:00140000000000000000000000000000
#09015:13
#09012:0014
#0901a:0014
#09018:23
#0841b:00130013
#08415:0000000000000013
#08416:00140000
#08418:24
#08412:25
#08519:0013000000000000
#08512:00130000
#08517:0000001300000000
#08515:0000000000000013
#0921a:0000140000000024
#09212:0000002400001400
#09214:26
#09216:0026
#09515:13
#09518:23
#09612:13
#0961b:13
#09718:00000014
#09714:00000014
#0101a:24
#01012:0000002400000000
#01017:0024
#01115:0024000024000000
#0111a:0000002400000000
#02312:26260000
#02318:00002626
#03812:24
#0381a:0000002400000000
#03815:0024
#03917:0024000024000000
#03912:0000002400000000
#04218:2323
#04212:0023000000230000
#0421b:00230023
#04215:0000002300000023
#04612:2323
#0461b:0023000000000023
#04615:00230023
#04618:0000002300230000
#05719:2525
#05712:00250000
#06012:23000023
#0601b:0000002300000000
#06013:00630000000000000000000000630000
#06014:0063000000000063
#06015:00000063000000000000000000000063
#06016:00630000
#0601a:00000000000000630000000000000000
#06019:0063
#06018:00000000000000000063000000000000
#06017:0000000000630000
#0611b:00230063
#0611a:00000000006300000000006300000000
#06119:0000006300630000
#06118:00000000000000630063000000000000
#06117:0063
#06116:63
#0641b:23000023
#06412:0000002300000000
#0641a:00630000000000000000000000630000
#06419:0063000000000063
#06418:00000063000000000000000000000063
#06417:00630000
#06413:00000000000000630000000000000000
#06414:0063
#06415:00000000000000000063000000000000
#06416:0000000000630000
#06512:00230063
#06513:00000000006300000000006300000000
#06514:0000006300630000
#06515:00000000000000630063000000000000
#06516:0063
#06517:63
#07112:0000002300000000
#07115:0000000023000024
#07118:0000000000230000
#0711b:00000023
#07419:25
#07412:0000002500000000
#07416:0025
#07512:0025000000000000
#07519:0000002500000000
#07515:0025
#07818:2323
#07815:0023000000230000
#07812:00230023
#0781b:0000002300000000
#07819:0000000000000023
#0821b:2323
#08218:0023000000002300
#08215:0000230000230000
#08212:0000002300000023
#09318:00260000
#09314:26
#09312:0026
#09316:00000026
#09412:23
#06312:2424
#0631a:00240000
#06313:00640000000000000000000000000000
#06314:0064000000000000
#06315:00000064000000000000000000000000
#06316:00646400
#06319:00000000006400000000000000000000
#06318:0000006400000000
#06317:00000000000000640000000000000000
#05912:54
#09816:62
#09818:62
#01852:0000000000000064
#0205a:14
#02252:14
#02452:16
#00258:16
#00159:00000000646464646400000000000000
#0015a:0000000000000000002400000024000000000000000000002200000000000000
#00158:0000000000000000000000240000002400000000000000000000000000000000
#0035b:63
#00355:63
#0045a:14
#00552:14
#00558:00140000
#0055a:00000014
#00554:0014
#00652:14
#00758:53
#00752:53
#00852:6400000000000014
#00855:0064
#00957:0014000064000000
#0105a:6400000000000014
#01057:0064
#01155:0014000064000000
#0125b:0023
#01258:63
#01352:0023
#01355:53
#0145b:0023
#01458:63
#01555:63
#01558:63
#0155b:0000002300000000
#01552:0000002300000000
#01956:00000000002400000000000000000000
#0215b:0000006300000000
#02158:63
#02555:13000000000000000024000000000000
#02552:0000006400000000
#02658:53
#02655:0063
#02652:0000000000000014
#0275a:0014000000000000
#02754:0064
#0275b:00000023
#02758:0064
#02752:00000023
#02854:14
#02858:14
#0295a:64
#02957:0000006400000000
#0305a:14
#03152:54
#03155:0000001400000000
#03257:00630000
#03356:00530000
#0335b:0000000000000013
#0345b:0013
#03457:0000000000000063
#03552:0013
#03555:0000000000000063
#03652:00000000000000000000002300000000
#03852:5400000000000014
#03855:0054
#03957:0014000054000000
#04055:0000250000000013
#04052:65
#04158:0000006300000000
#0435a:0000001400000000
#0445a:64
#04457:0054
#04455:0000000000000064
#04752:0000001400000000
#04856:00250000
#04858:0000000000000013
#04859:55
#04955:0000005300000000
#04952:00000000000000000023000000000000
#05155:00000054000000000000000000000000
#05152:5400001400000000
#0525a:00140000
#05255:0000000000000063
#05352:00140000
#0535b:0000000000630000
#05458:63
#0545b:0023
#05452:0023
#05455:63
#05759:15000015
#05752:00150000
#05659:15
#05652:0015
#05952:14
#0595a:00000014
#06156:13
#06557:13
#0675a:64
#06756:0064
#06752:0063
#06856:13
#0685a:14
#06956:63
#0695b:63
#07052:64
#07055:00240000
#0705a:0000000000000064
#07155:0000000000000064
#07252:00000000000000000000000000230000
#07459:6500000000000015
#07456:0065
#07552:0015000000000000
#07555:0065
#07652:00230000
#07658:0000000000000013
#07654:54
#07656:00240000
#07659:55
#07756:0000005300000000
#08756:00000065000000000000000000000000
#08759:6500001500000000
#08952:0000000000540000
#08958:00160000
#0895a:00240000000000000000000000000000
#09055:53
#09052:0024
#0905a:0024
#09058:53
#08052:55
#08055:0065
#08056:0000000000000055
#08852:00160000
#08858:0000000000000054
#09254:16
#09256:0016
#09358:00160000
#09354:16
#09352:0016
#09356:00000016
#07952:0000001400000000
#0835a:0000001400000000
#08455:0000000000000013
#0845b:00230000
#08456:00240000
#08458:64
#08452:65
#08557:0000006300000000
#09555:63
#09558:63
#09452:63
#09652:63
#0965b:63
#09758:00000064
#09754:00000054
#06352:0054
#06355:00000014
#001390:14000000545454545400000000000000
#001380:0054005400540054000000540000005400000000000000000000000000000000
#0013a0:0000540054005400005400000054000000000000000000005200000000000000
#002380:26
#0033b0:13
#003380:00230000
#003351:13
#003321:00230000
#007321:13
#007351:00230000
#007380:13
#0073b0:00230000
#008320:14
#008350:00240000
#008350:0014
#008320:0000000000003424
#009370:0014
#0093a0:00000024
#0103a0:14
#010370:00240000
#010370:0014
#0103a0:0000000000003424
#011350:0014
#011320:00000024
#012380:13
#0123b0:0000333353003333
#013380:23
#013351:13
#013321:0000333353003333
#014351:23
#014380:13
#0143b0:0000333333333333
#015380:3300000000332300
#0153b0:0000333300000000
#015351:1300000000332300
#015321:0000333300000000
#018321:0000000000000014
#019361:00000000005400000000000000000000
#019321:00000024
#021381:13000023
#0213b1:0000333300000000
#025321:0000001400002400
#025351:00000000000000000054000000000000
#026381:13
#0263b1:00230000
#026351:0013
#026321:0000000000003424
#027341:0000001434000000
#027321:00000000000000000033333333333333
#028341:24
#027380:0014
#0273b0:00000000000000000033333333333333
#028380:24
#0293a0:14000034
#029370:0000343400000000
#0303a0:24
#031320:14
#031350:0000342400000000
#032370:00130000
#0323b0:0023
#033360:00130000
#033320:0023
#034370:0000000000000013
#0353b0:0023000000000000
#035350:0000000000000013
#036320:00000000000000000000005300000000
#037350:0023
#038320:14
#038350:00240000
#038350:0014
#038320:0000000000003424
#039370:0014
#0393a0:00000024
#040320:1525
#040350:00550000
#041380:0000001300000000
#0413b0:00000023
#043380:14340000
#0433a0:0034002400000000
#0443a0:14
#044370:00240000
#044370:0014
#0443a0:00000024
#044350:0000000000000014
#045320:0024000000000000
#045350:0000001300002300
#047340:14340000
#047320:0034002400000000
#048390:1525
#048360:00550000
#049350:0000001300002300
#049320:00000000000000000053000000000000
#051320:1400002400000000
#051350:00000034000000000000000000000000
#052350:0000000000000013
#053320:00240000
#0533b0:0000000000130000
#053380:0000000000000033
#054380:33
#0543b0:0053
#055380:23
#054351:13
#054321:0053
#055351:23
#057391:00001525
#0593a1:00001424
#063321:0014
#063351:00000024
#0673a1:140000000000000000000000003434343434343434343434
#067361:0034
#0683a1:24
#067320:0013
#067360:000000000000000000000000003333333333333333333333
#068360:23
#0693b0:13
#069370:00230000
#069361:13
#069321:00230000
#070321:1424
#070351:00540000
#0703a1:0000000000000014
#071361:00240000
#071351:0000000000000014
#072321:00000000000000000000000000530000
#073351:00000024
#074391:15
#074361:00250000
#074361:0015
#074391:0000000000003525
#075351:0015
#075321:00000025
#076341:1424
#076321:00530000
#076390:1525
#076360:00540000
#077360:0000001300000000
#077320:00000023
#079350:14340000
#079320:0034002400000000
#080320:15
#080350:00250000
#080350:0015
#080320:00000025
#080360:0000000000000015
#081390:0025000000000000
#081370:0000001300002300
#083370:14340000
#0833a0:0034002400000000
#084380:1424
#0843b0:00530000
#084321:1525
#084361:00540000
#085371:0000001300000000
#0853b1:00000023
#087391:1500002500000000
#087361:00000035000000000000000000000000
#088381:0000000000000014
#0893a1:00540000000000000000000000000000
#089381:00260000
#089321:0000000000140000
#089351:0000000000000033
#090351:33
#090321:0054
#091351:23
#090380:13
#0903a0:0054
#091380:23
#094320:13
#095350:33
#096320:33
#097360:00000000000000003252525200000000
#097340:0000000000000000000000000000000000540054005400543400000000000000
#098360:22
#095381:13
#0963b1:33
#097381:0000000000000000000000000000000032545254525452543400000000000000
#098381:22
#004920:0013
#004960:000000000000000000000000000000000000000000000000000000000000000000000000000000000000000000000000000000000000000000000000000000000000000000000000000000000000000000000000000000000000000000000000000000000000000000000000000000000000000000000000000000000000000000000000000000000000000000000000000000000000000000000000000000000000000000000000000000000000000000000000000000000000000000000000000000000000000000000000000000000000000000000000000000000000000000000000000000000000000000000000000000000000000000000000000000000000000000000000000000000000000000000000000000000000000000000000000000000000000000000000000000000000000000000000000000000000000000000000000000000000000000000000000000000000000000000000000000000000000000000000000000000000000000000000000000000000000000000000000000000000000000000000000000000000000000000000000000000000000000000000000000000000000000000000000000000000000000000000000000000000000000000000000000000000000000000000000000000000000000000000000000000000000000000000000000000000000000000000000000000000000000000000000000000000000000000000000000000000000000000000000000000000000000000000000000000000000000000000000000000000000000000000000000000000000000000000000000000000000000000000000000000000000000000000000000000000000000000000000000000000000000000000000000000000000000000000000000000000000000000000000000000000000000000000000000000000000000000000000000000000000000000000000000000000000000000000000000000000000000000000000000000000000000000000000000000000000000000000000000000000000000000000000000000000000000000000000000000000000000000000000000000000000000000000000000000000000000000000000000000000000000000000000000000000000000000000000000000000000000000000000000000000000000000000000000000000000000000000000000000000000000000000000000000000000000000000000000000000000000000000000000000000000000000000000000000000000000000000000000000000000000000000000000000000000000000000000000000000000000000000000000000000000000000000000000000000000000000000000000000000000000000000000000000000000000000000000000000000000000000000000000000000000000000000000000000000000000000000000000000000000000000000000000000000000000000000000000000000000000000000000000000000000000000000000000000000000000000000000000000000000000000000000000000000000000000000000000000000000000000000000000000000000000000000000000000000000000000000000000000000000000000000000000000000000000000000000000000000000000000000000000000000000000000000000000000000000000000000000000000000000000000000000000000000000000000000000000000000000000000000000000000000000000000000000000000000000000000000000000000000000000000000000000000000000000000000000000000000000000000000000000000000000000000000000000000000000000000000000000000000000000000000000000000000000000000000000000000000000000000000000000000000000000000000000000000000000000000000000000000000000000000000000000000000000000000000000000000000000000005353230000000000000000000000000000000000000000000000000000000000000000000000000000000000000000000000000000000000000000000000000000000000000000000000000000000000000000000000000000000000000000000000000000000000000000000000000000000000000000000000000000000000000000000000000000000000000000000000000000000000000000000000000000000000000000000000000000000000000000000000000000000000000000000000000000000000000000000000000000000000000000000000000000000000000000000000000000000000000000000000000000000000000000000000000000000000000000000000000000000000000000000000000000000000000000000000000000000000000000000000000000000000000000000000000000000000000000000000000000000000000000000000000000000000000000000000000000000000000000000000000000000000000000000000000000000000000000000000000000000000000000000000000000000000000000000000000000000000000000000000000000000000000000000000000000000000000000000000000000000000000000000000000000000000000000000000000000000000000000000000
#058920:140000000000000000000000000000000000000000000000000000000000000000000000000000000000000000000000000000000000000000000000000000000000000000000000000000000000000000000000000000000000000000000000000000000000000000000000000000000000000000000000000000000000000000000000000000000000000000000000000000000000000000000000000000000000000000000000000000000000000000000000000000000000000000000000000000000000000000000000000000000000000000000000000000000000000000000000000000000000000000000000000000000000000000000000000000000000000000000000000000000000000000000000000000000000000000000000000000000000000000000000000000000000000000000000000000000000000000000000000000000000000000000000000000000000000000000000000000000000000000000000000000000000000000000000000000000000000000000000000000000000000000000000000000000000000000000000000000000000000000000000000000000000000000000000000000000000000000000000000000000000000000000000000000000000000000000000000000000000000000000000000000000000000000000000000000000000000000000000000000000000000000000000000000000000000000000000000000000000000000000000000000000000000000000000000000000000000000000000000000000000000000000000000000000000000000000000000000000000000000000000000000000000000000000000000000000000000000000000000000000000000000000000000000000000000000000000000000000000000000000000000000000000000000000000000000000000000000000000000000000000000000000000000000000000000000000000000000000000000000000000000000000000000000000000000000000000000000000000000000000000000000000000000000000000000000000000000000000000000000000000000000000000000000000000000000000000000000000000000000000000000000000000000000000000000000000000000000000000000000000000000000000000000000000000000000000000000000000000000000000000000000000000000000000000000000000000000000000000000000000000000000000000000000000000000000000000000000000000000000000000000000000000000000000000000000000000000000000000000000000000540000000000000000000000000000000000000000000000000000000000000000000000000000000000000000000000000000000000000000000000000000000000000000000000000000000000000000000000000000000000000000000000000000000000000000000000000000000000000000000000000000000000000000000000000000000000000000000000000000000000000000000000000000000000000000000000000000000000000000000000000000000000000000000000000000000000000000000000000000000000000000000000000000000000000000000000000000000000000000000000000000000000000000000000000000000000000000000000000000000000000000000000000000000000000000000000000000000000000000000000000000000000000000000000000000000000000000000000000000000000000000000000000000000000000000000000000000000000000000000000000000000000000000000000000000000000000000000000000000000000000000000000000000000000000000000000000000000000000000000000000000000000000000000000000000000000000000000000000000000000000000000000000000000000000000000000000000000000000000000000000000000000000000000000000000000000000000000000000000000000000000000000000000000000000000000000000000000000000000000000000000000000000000000000000000000000000000000000000000000000000000000000000000000000000000000000000000000000000000000000000000000000000000000000000000000000000000000000000000000000000000000000000000000000000000000000000000000000000000000000000000000000000000000000000000000000000000000000000000000000000000000000000000000000000000000000000000000000000000000000000000000000000000000000000000000000000000000000000000000000000000000000000000000000000000000000000000000000000000000000000000000000000000000000000000000000000000000000000000000000000000000000000000000000000000000000000000000000000000000000000000000000000000000000000000000000000000000000000000000000000000000000000000000000000000000000000000000000000000000000000000000000000000000000000000000000000000000000000000000000000000000000000000000000000000000000000000000000545454545454
#058950:00540054
#059920:24
#060920:13
#060960:000000000000000000000000000000000000000000000000000000000000000000000000000000000000000000000000000000000000000000000000000000000000000000000000000000000000000000000000000000000000000000000000000000000000000000000000000000000000000000000000000000000000000000000000000000000000000000000000000000000000000000000000000000000000000000000000000000000000000000000000000000000000000000000000000000000000000000000000000000000000000000000000000000000000000000000000000000000000000000000000000000000000000000000000000000000000000000000000000000000000000000000000000000000000000000000000000000000000000000000000000000000000000000000000000000000000000000000000000000000000000000000000000000000000000000000000000000000000000000000000000000000000000000000000000000000000000000000000000000000000000000000000000000000000000000000000000000000000000000000000000000000000000000000000000000000000000000000000000000000000000000000000000000000000000000000000000000000000000000005353230000000000000000000000000000000000000000000000000000000000000000000000000000000000000000000000000000000000000000000000000000000000000000000000000000000000000000000000000000000000000000000000000000000000000000000000000000000000000000000000000000000000000000000000000000000000000000000000000000000000000000000000000000000000000000000000000000000000000000000000000000000000000000000000000000000000000000000000000000000000000000000000000000000000000000000000000000000000000000000000000000000000000000000000000000000000000000000000000000000000000000000000000000000000000000000000000000000000000000000000000000000000000000000000000000000000000000000000000000000000000000000000000000000000000000000000000000000000000000000000000000000000000000000000000000000000000000000000000000000000000000000000000000000000000000000000000000000000000000000000000000000000000000000000000000000000000000000000000000000000000000000000000000000000000000000000000000000000000000000000000000000000000000000000000000000000000000000000000000000000000000000000000000000000000000000000000000000000000000000000000000000000000000000000000000000000000000000000000000000000000000000000000000000000000000000000000000000000000000000000000000000000000000000000000000000000000000000000000000000000000000000000000000000000000000000000000000000000000000000000000000000000000000000000000000000000000000000000000000000000000000000000000000000000000000000000000000000000000000000000000000000000000000000000000000000000000000000000000000000000000000000000000000000000000000000000000000000000000000000000000000000000000000000000000000000000000000000000000000000000000000000000000000000000000000000000000000000000000000000000000000000000000000000000000000000000000000000000000000000000000000000000000000000000000000000000000000000000000000000000000000000000000000000000000000000000000000000000000000000000000000000000000000000000000000000000000000000000000000000000000000000000000000000000000000000000000000000000000000000000000000000000000000000000000000000000000000000000000000000000000000000000000000000000000000000000000000000000000000000000000000000000000000000000000000000000000000000000000000000000000000000000000000000000000000000000000000000000000000000000000000000000000000000000000000000000000000000000000000000000000000000000000000000000000000000000000000000000000000000000000000000000000000000000000000000000000000000000000000000000000000000000000000000000000000000000000000000000000000000000000000000000000000000000000000000000000000000000000000000000000000000000000000000000000000000000000000000000000000000000000000000000000000000000000000000000000000000000000000000000000000000000000000000000000000000000000000000000000000000000000000000000000000000000000000000000000000000000000000000000000000000000000000000000000000000000000000000000000000000000000000000000000000000000000000000000000000000000000000000000
#0609b0:0000001300000000
#060970:000000000000000000000000000000000000000000000000000000000000000000000000000000000000000000000000000000000000000000000000000000000000000000000000000000000000000000000000000000000000000000000000000000000000000000000000000000000000000000000000000000000000000000000000000000000000000000000000000000000000000000000000000000000000000000000000000000000000000000000000000000000000000000000000000000000000000000000000000000000000000000000000000000000000000000000000000000000000000000000000000000000000000000000000000000000000000000000000000000000000000000000000000000000000000000000000000000000000000000000000000000000000000000000000000000000000000000000000000000000000000000000000000000000000000000000000000000000000000000000000000000000000000000000000000000000000000000000000000000000000000000000000000000000000000000000000000000000000000000000000000000000000000000000000000000000000000000000000000000000000000000000000000000000000000000000000000000000000000000000000000000000000000000000000000000000000000000000000000000000000000000000000000000000000000000000000000000000000000000000000000000000000000000000000000000000000000000000000000000000000000000000000000000000000000000000000000000000000000000000000000000000000000000000000000000000000000000000000000000000000000000000000000000000000000000000000000000000000000000000000000000000000000000000000000000000000000000000000000000000000000000000000000000000000000000000000000000000000000000000000000000000000000000000000000000000000000000000000000000000000000000000000000000000000000000000000000000000000000000000000000000000000000000000000000000000000000000000000000000000000000000000000000000000000000000000000000000000000000000000000000000000000000000000000000000000000000000000000000000000000000000000000000000000000000000000000000000000000000000000000000000000000000000000000000000000000000000000000000000000000000000000000000000000000000000000000000000000000000000000000000000000000000000000000000000000000000000000000000000000000000000000000000000000000000000000000000000000000000000000000000000000000000000000000000000000000000000000000000000000000000000000000000000000000000000000000000000000000000000000000000000000000000000000000000000000000000000000000000000000000000000000000000000000000000000000000000000000000000000000000000000000000000000000000000000000000000000000000000000000000000000000000000000000000000000000000000000000000000000005353230000000000000000000000000000000000000000000000000000000000000000000000000000000000000000000000000000000000000000000000000000000000000000000000000000000000000000000000000000000000000000000000000000000000000000000000000000000000000000000000000000000000000000000000000000000000000000000000000000000000000000000000000000000000000000000000000000000000000000000000000000000000000000000000000000000000000000000000000000000000000000000000000000000000000000000000000000000000000000000000000000000000000000000000000000000000000000000000000000000000000000000000000000000000000000000000000000000000000000000000000000000000000000000000000000000000000000000000000000000000000000000000000000000000000000000000000000000000000000000000000000000000000000000000000000000000000000000000000000000000000000000000000000000000000000000000000000000000000000000000000000000000000000000000000000000000000000000000000000000000000000000000000000000000000000000000000000000000000000000000000000000000000000000000000000000000000000000000000000000000000000000000000000000000000000000000000000000000000000000000000000000000000000000000000000000000000000000000000000000000000000000000000000000000000000000000000000000000000000000000000000000000000000000000000000000000000000000000000000000000000000000000000000000000000000000000000000000000000000000000000000000000000000000000000000000000000000000000000000000000000000000000000000000000000000000000000000000000000000000000
#060920:00000013
#060960:000000000000000000000000000000000000000000000000000000000000000000000000000000000000000000000000000000000000000000000000000000000000000000000000000000000000000000000000000000000000000000000000000000000000000000000000000000000000000000000000000000000000000000000000000000000000000000000000000000000000000000000000000000000000000000000000000000000000000000000000000000000000000000000000000000000000000000000000000000000000000000000000000000000000000000000000000000000000000000000000000000000000000000000000000000000000000000000000000000000000000000000000000000000000000000000000000000000000000000000000000000000000000000000000000000000000000000000000000000000000000000000000000000000000000000000000000000000000000000000000000000000000000000000000000000000000000000000000000000000000000000000000000000000000000000000000000000000000000000000000000000000000000000000000000000000000000000000000000000000000000000000000000000000000000000000000000000000000000000000000000000000000000000000000000000000000000000000000000000000000000000000000000000000000000000000000000000000000000000000000000000000000000000000000000000000000000000000000000000000000000000000000000000000000000000000000000000000000000000000000000000000000000000000000000000000000000000000000000000000000000000000000000000000000000000000000000000000000000000000000000000000000000000000000000000000000000000000000000000000000000000000000000000000000000000000000000000000000000000000000000000000000000000000000000000000000000000000000000000000000000000000000000000000000000000000000000000000000000000000000000000000000000000000000000000000000000000000000000000000000000000000000000000000000000000000000000000000000000000000000000000000000000000000000000000000000000000000000000000000000000000000000000000000000000000000000000000000000000000000000000000000000000000000000000000000000000000000000000000000000000000000000000000000000000000000000000000000000000000000000000000000000000000000000000000000000000000000000000000000000000000000000000000000000000000000000000000000000000000000000000000000000000000000000000000000000000000000000000000000000000000000000000000000000000000000000000000000000000000000000000000000000000000000000000000000000000000000000000000000000000000000000000000000000000000000000000000000000000000000000000000000000000000000000000000000000000000000000000000000000000000000000000000000000000000000000000000000000000000000000000000000000000000000000000000000000000000000000000000000000000000000000000000000000000000000000000000000000000000000000000000000000000000000000000000000000000000000000000000000000000000000000000000000000000000000000000000000000000000000000000000000000000000000000000000000000000000000000000000000000000000000000000000000000000000000000000000000000000000000000000000000000000000000000000000000000000000000000000000000000000000000000000000000000000000000000000000000000000000000000000000000000000000000000000000000000000000000000000000000000000000000000000000000000000000000000000000000000000000000000000000000000000000000000000000000000000000000000000000000000000000000000000000000000000000000000000000000000000000000000000000000000000000000000000000000000000000000000000000000000000000000000000000000000000000000000000000000000000000000000000000000000000000000000000000000000000000000000000000000000000000000000000000000000000000000000000000000000000000000000000000000000000000000000000000000000000000000000000000000000000000000000000000000000000000000000000000000000000000000000000000000000000000000000000000000000000000000000000000000000000000000000000000000000000000000000000000000000000000000000000000000000000000000000000000000000000000000000000000000000000000000000000000000000000000000000000000000000000000000000000000000000000000000000000000000000000000000000000000000000000000000000000000000000000000000000000000000000000000005353
#061960:23
#0619b0:000000000000000000000000000000000000000000000000000000000000000000000000000000000000000000000000000000000000000000000000000000000000000000000000000000000000000000000000000000000000000000000000000000000000000000000000000000000000000000000000000000000000000000000000000000000000000000000000000000000000000000000000000000000000000000000000000000000000000000000000000000000000000000000000000000000000000000000000000000000000000000000000000000000000000000000000000000000000000000000000000000000000000000000000000000000000000000000000000000000000000000000000000000000000000000000000000000000000000000000000000000000000000000000000000000000000000000000000000000000000000000000000000000000000000000000000000000000000000000000000000000000000000000000000000000000000000000000000000000000000000000000000000000000000000000000000000000000000000000000000000000000000000000000000000000000000000000000000000000000000000000000000000000000000000000000000000000000000000000000000130000000000000000000000000000000000000000000000000000000000000000000000000000000000000000000000000000000000000000000000000000000000000000000000000000000000000000000000000000000000000000000000000000000000000000000000000000000000000000000000000000000000000000000000000000000000000000000000000000000000000000000000000000000000000000000000000000000000000000000000000000000000000000000000000000000000000000000000000000000000000000000000000000000000000000000000000000000000000000000000000000000000000000000000000000000000000000000000000000000000000000000000000000000000000000000000000000000000000000000000000000000000000000000000000000000000000000000000000000000000000000000000000000000000000000000000000000000000000000000000000000000000000000000000000000000000000000000000000000000000000000000000000000000000000000000000000000000000000000000000000000000000000000000000000000000000000000000000000000000000000000000000000000000000000000000000000000000000000000000000000000000000000000000000000000000000000000000000000000000000000000000000000000000000000000000000000000000000000000000000000000000000000000000000000000000000000000000000000000000000000000000000000000000000000000000000000000000000000000000000000000000000000000000000000000000000000000000000000000000000000000000000000000000000000000000000000000000000000000000000000000000000000000000000000000000000000000000000000000000000000000000000000000000000000000000000000000000000000000000000000000000000000000000000000000000000000000000000000000000000000000000000000000000000000000000000000000000000000000000000000000000000000000000000000000000000000000000000000000000000000000000000000000000000000000000000000000000000000000000000000000000000000000000000000000000000000000000000000000000000000000000000000000000000000000000000000000000000000000000000000000000000000000000000000000000000000000000000000000000000000000000000000000000000000000000000000000000000000053535353230000000000000000000000000000000000000000000000000000000000000000000000000000000000000000000000000000000000000000000000000000000000000000000000000000000000000000000000000000000000000000000000000000000000000000000000000000000000000000000000000000000000000000000000000000000000000000000000000000000000000000000000000000000000000000000000000000000000000000000000000000000000000000000000000000000000000000000000000000000000000000000000000000000000000000000000000000000000000000000000000000000000000000000000000000000000000000000000000000000000000000000000000000000000000000000000000000000000000000000000000000000000000000000000000000000000000000000000000000000000000000000000000000000000000000000000000000000000000000000000000000000000000000000000000000000000000000000000000000000000000000000000000000000000000000000000000000000000000000000000000000000000000000000000000000000000000000000000000000000000000000000000000000000000000000000000000000000000000000000000
#061970:0053
#063920:14
#063960:000000000000000000000000000000000000000000000000000000000000000000000000000000000000000000000000000000000000000000000000000000000000000000000000000000000000000000000000000000000000000000000000000000000000000000000000000000000000000000000000000000000000000000000000000000000000000000000000000000000000000000000000000000000000000000000000000000000000000000000000000000000000000000000000000000000000000000000000000000000000000000000000000000000000000000000000000000000000000000000000000000000000000000000000000000000000000000000000000000000000000000000000000000000000000000000000000000000000000000000000000000000000000000000000000000000000000000000000000000000000000000000000000000000000000000000000000000000000000000000000000000000000000000000000000000000000000000000000000000000000000000000000000000000000000000000000000000000000000000000000000000000000000000000000000000000000000000000000000000000000000000000000000000000000000000000000000000000000000000545454240000000000000000000000000000000000000000000000000000000000000000000000000000000000000000000000000000000000000000000000000000000000000000000000000000000000000000000000000000000000000000000000000000000000000000000000000000000000000000000000000000000000000000000000000000000000000000000000000000000000000000000000000000000000000000000000000000000000000000000000000000000000000000000000000000000000000000000000000000000000000000000000000000000000000000000000000000000000000000000000000000000000000000000000000000000000000000000000000000000000000000000000000000000000000000000000000000000000000000000000000000000000000000000000000000000000000000000000000000000000000000000000000000000000000000000000000000000000000000000000000000000000000000000000000000000000000000000000000000000000000000000000000000000000000000000000000000000000000000000000000000000000000000000000000000000000000000000000000000000000000000000000000000000000000000000000000000000000000000000000000000000000000000000000000000000000000000000000000000000000000000000000000000000000000000000000000000000000000000000000000000000000000000000000000000000000000000000000000000000000000000000000000000000000000000000000000000000000000000000000000000000000000000000000000000000000000000000000000000000000000000000000000000000000000000000000000000000000000000000000000000000000000000000000000000000000000000000000000000000000000000000000000000000000000000000000000000000000000000000000000000000000000000000000000000000000000000000000000000000000000000000000000000000000000000000000000000000000000000000000000000000000000000000000000000000000000000000000000000000000000000000000000000000000000000000000000000000000000000000000000000000000000000000000000000000000000000000000000000000000000000000000000000000000000000000000000000000000000000000000000000000000000000000000000000000000000000000000000000000000000000000000000000000000000000000000000000000000000000000000000000000000000000000000000000000000000000000000000000000000000000000000000000000000000000000000000000000000000000000000000000000000000000000000000000000000000000000000000000000000000000000000000000000000000000000000000000000000000000000000000000000000000000000000000000000000000000000000000000000000000000000000000000000000000000000000000000000000000000000000000000000000000000000000000000000000000000000000000000000000000000000000000000000000000000000000000000000000000000000000000000000000000000000000000000000000000000000000000000000000000000000000000000000000000000000000000000000000000000000000000000000000000000000000000000000000000000000000000000000000000000000000000000000000000000000000000000000000000000000000000000000000000000000000000000000000000000000000000000000000000000000000000000000000000000000000000000000000000000000000000000000000000000000000000000000000000000000000000000000000000000000000000000000000000000000000000000000000000000000000
#0639a1:00140000
#063961:000000000000000000000000000000000000000000000000000000000000000000000000000000000000000000000000000000000000000000000000000000000000000000000000000000000000000000000000000000000000000000000000000000000000000000000000000000000000000000000000000000000000000000000000000000000000000000000000000000000000000000000000000000000000000000000000000000000000000000000000000000000000000000000000000000000000000000000000000000000000000000000000000000000000000000000000000000000000000000000000000000000000000000000000000000000000000000000000000000000000000000000000000000000000000000000000000000000000000000000000000000000000000000000000000000000000000000000000000000000000000000000000000000000000000000000000000000000000000000000000000000000000000000000000000000000000000000000000000000000000000000000000000000000000000000000000000000000000000000000000000000000000000000000000000000000000000000000000000000000000000000000000000000000000000000000000000000000000000000000000000000000000000000000000000000000000000000000000000000000000000000000000000000000000000000000000000000000000000000000000000000000000000000000000000000000000000000000000000000000000000000000000000000000000000000000000000000000000000000000000000000000000000000000000000000000000000000000000000000000000000000000000000000000000000000000000000000000000000000000000000000000000000000000000000000000000000000000000000000000000000000000000000000000000000000000000000000000000000000000000000000000000000000000000000000000000000000000000000000000000000000000000000000000000000000000000000000000000000000000000000000000000000000000000000000000000000000000000000000000000000000000000000000000000000000000000000000000000000000000000000000000000000000000000000000000000000000000000000000000000000000000000000000000000000000000000000000000000000000000000000000000000000000000000000000000000000000000000000000000000000000000000000000000000000000000000000000000000000000545454240000000000000000000000000000000000000000000000000000000000000000000000000000000000000000000000000000000000000000000000000000000000000000000000000000000000000000000000000000000000000000000000000000000000000000000000000000000000000000000000000000000000000000000000000000000000000000000000000000000000000000000000000000000000000000000000000000000000000000000000000000000000000000000000000000000000000000000000000000000000000000000000000000000000000000000000000000000000000000000000000000000000000000000000000000000000000000000000000000000000000000000000000000000000000000000000000000000000000000000000000000000000000000000000000000000000000000000000000000000000000000000000000000000000000000000000000000000000000000000000000000000000000000000000000000000000000000000000000000000000000000000000000000000000000000000000000000000000000000000000000000000000000000000000000000000000000000000000000000000000000000000000000000000000000000000000000000000000000000000000000000000000000000000000000000000000000000000000000000000000000000000000000000000000000000000000000000000000000000000000000000000000000000000000000000000000000000000000000000000000000000000000000000000000000000000000000000000000000000000000000000000000000000000000000000000000000000000000000000000000000000000000000000000000000000000000000000000000000000000000000000000000000000000000000000000000000000000000000000000000000000000000000000000000000000000000000000000000000000000000000000000000000000000000000000000000000000000000000000000000000000000000000000000000000000000000000000000000000000000000000000000000000000000000000000000000000000000000000000000000000000000000000000000000000000000000000000000000000000000000000000000000000000000000000000000000000000000000000000000000000000000000000000000000000000000000000000000000000000000000000000000000000000000000000000000000000000000000000000000000000000000000000000000000000000000000000000000000000000000000
#0649b1:13
#064971:000000000000000000000000000000000000000000000000000000000000000000000000000000000000000000000000000000000000000000000000000000000000000000000000000000000000000000000000000000000000000000000000000000000000000000000000000000000000000000000000000000000000000000000000000000000000000000000000000000000000000000000000000000000000000000000000000000000000000000000000000000000000000000000000000000000000000000000000000000000000000000000000000000000000000000000000000000000000000000000000000000000000000000000000000000000000000000000000000000000000000000000000000000000000000000000000000000000000000000000000000000000000000000000000000000000000000000000000000000000000000000000000000000000000000000000000000000000000000000000000000000000000000000000000000000000000000000000000000000000000000000000000000000000000000000000000000000000000000000000000000000000000000000000000000000000000000000000000000000000000000000000000000000000000000000000000000000000000000000005353230000000000000000000000000000000000000000000000000000000000000000000000000000000000000000000000000000000000000000000000000000000000000000000000000000000000000000000000000000000000000000000000000000000000000000000000000000000000000000000000000000000000000000000000000000000000000000000000000000000000000000000000000000000000000000000000000000000000000000000000000000000000000000000000000000000000000000000000000000000000000000000000000000000000000000000000000000000000000000000000000000000000000000000000000000000000000000000000000000000000000000000000000000000000000000000000000000000000000000000000000000000000000000000000000000000000000000000000000000000000000000000000000000000000000000000000000000000000000000000000000000000000000000000000000000000000000000000000000000000000000000000000000000000000000000000000000000000000000000000000000000000000000000000000000000000000000000000000000000000000000000000000000000000000000000000000000000000000000000000000000000000000000000000000000000000000000000000000000000000000000000000000000000000000000000000000000000000000000000000000000000000000000000000000000000000000000000000000000000000000000000000000000000000000000000000000000000000000000000000000000000000000000000000000000000000000000000000000000000000000000000000000000000000000000000000000000000000000000000000000000000000000000000000000000000000000000000000000000000000000000000000000000000000000000000000000000000000000000000000000000000000000000000000000000000000000000000000000000000000000000000000000000000000000000000000000000000000000000000000000000000000000000000000000000000000000000000000000000000000000000000000000000000000000000000000000000000000000000000000000000000000000000000000000000000000000000000000000000000000000000000000000000000000000000000000000000000000000000000000000000000000000000000000000000000000000000000000000000000000000000000000000000000000000000000000000000000000000000000000000000000000000000000000000000000000000000000000000000000000000000000000000000000000000000000000000000000000000000000000000000000000000000000000000000000000000000000000000000000000000000000000000000000000000000000000000000000000000000000000000000000000000000000000000000000000000000000000000000000000000000000000000000000000000000000000000000000000000000000000000000000000000000000000000000000000000000000000000000000000000000000000000000000000000000000000000000000000000000000000000000000000000000000000000000000000000000000000000000000000000000000000000000000000000000000000000000000000000000000000000000000000000000000000000000000000000000000000000000000000000000000000000000000000000000000000000000000000000000000000000000000000000000000000000000000000000000000000000000000000000000000000000000000000000000000000000000000000000000000000000000000000000000000000000000000000000000000000000000000000000000000000000000000000000000000000000000000000000000000000000
#064921:0000001300000000
#064961:000000000000000000000000000000000000000000000000000000000000000000000000000000000000000000000000000000000000000000000000000000000000000000000000000000000000000000000000000000000000000000000000000000000000000000000000000000000000000000000000000000000000000000000000000000000000000000000000000000000000000000000000000000000000000000000000000000000000000000000000000000000000000000000000000000000000000000000000000000000000000000000000000000000000000000000000000000000000000000000000000000000000000000000000000000000000000000000000000000000000000000000000000000000000000000000000000000000000000000000000000000000000000000000000000000000000000000000000000000000000000000000000000000000000000000000000000000000000000000000000000000000000000000000000000000000000000000000000000000000000000000000000000000000000000000000000000000000000000000000000000000000000000000000000000000000000000000000000000000000000000000000000000000000000000000000000000000000000000000000000000000000000000000000000000000000000000000000000000000000000000000000000000000000000000000000000000000000000000000000000000000000000000000000000000000000000000000000000000000000000000000000000000000000000000000000000000000000000000000000000000000000000000000000000000000000000000000000000000000000000000000000000000000000000000000000000000000000000000000000000000000000000000000000000000000000000000000000000000000000000000000000000000000000000000000000000000000000000000000000000000000000000000000000000000000000000000000000000000000000000000000000000000000000000000000000000000000000000000000000000000000000000000000000000000000000000000000000000000000000000000000000000000000000000000000000000000000000000000000000000000000000000000000000000000000000000000000000000000000000000000000000000000000000000000000000000000000000000000000000000000000000000000000000000000000000000000000000000000000000000000000000000000000000000000000000000000000000000000000000000000000000000000000000000000000000000000000000000000000000000000000000000000000000000000000000000000000000000000000000000000000000000000000000000000000000000000000000000000000000000000000000000000000000000000000000000000000000000000000000000000000000000000000000000000000000000000000000000000000000000000000000000000000000000000000000000000000000000000000000000000000000000000000000000000000000000000000000000000000000000000000000000000000000000000000000000000000000000000000005353230000000000000000000000000000000000000000000000000000000000000000000000000000000000000000000000000000000000000000000000000000000000000000000000000000000000000000000000000000000000000000000000000000000000000000000000000000000000000000000000000000000000000000000000000000000000000000000000000000000000000000000000000000000000000000000000000000000000000000000000000000000000000000000000000000000000000000000000000000000000000000000000000000000000000000000000000000000000000000000000000000000000000000000000000000000000000000000000000000000000000000000000000000000000000000000000000000000000000000000000000000000000000000000000000000000000000000000000000000000000000000000000000000000000000000000000000000000000000000000000000000000000000000000000000000000000000000000000000000000000000000000000000000000000000000000000000000000000000000000000000000000000000000000000000000000000000000000000000000000000000000000000000000000000000000000000000000000000000000000000000000000000000000000000000000000000000000000000000000000000000000000000000000000000000000000000000000000000000000000000000000000000000000000000000000000000000000000000000000000000000000000000000000000000000000000000000000000000000000000000000000000000000000000000000000000000000000000000000000000000000000000000000000000000000000000000000000000000000000000000000000000000000000000000000000000000000000000000000000000000000000000000000000000000000000000000000000000000000000000000
#0649b1:00000013
#064971:000000000000000000000000000000000000000000000000000000000000000000000000000000000000000000000000000000000000000000000000000000000000000000000000000000000000000000000000000000000000000000000000000000000000000000000000000000000000000000000000000000000000000000000000000000000000000000000000000000000000000000000000000000000000000000000000000000000000000000000000000000000000000000000000000000000000000000000000000000000000000000000000000000000000000000000000000000000000000000000000000000000000000000000000000000000000000000000000000000000000000000000000000000000000000000000000000000000000000000000000000000000000000000000000000000000000000000000000000000000000000000000000000000000000000000000000000000000000000000000000000000000000000000000000000000000000000000000000000000000000000000000000000000000000000000000000000000000000000000000000000000000000000000000000000000000000000000000000000000000000000000000000000000000000000000000000000000000000000000000000000000000000000000000000000000000000000000000000000000000000000000000000000000000000000000000000000000000000000000000000000000000000000000000000000000000000000000000000000000000000000000000000000000000000000000000000000000000000000000000000000000000000000000000000000000000000000000000000000000000000000000000000000000000000000000000000000000000000000000000000000000000000000000000000000000000000000000000000000000000000000000000000000000000000000000000000000000000000000000000000000000000000000000000000000000000000000000000000000000000000000000000000000000000000000000000000000000000000000000000000000000000000000000000000000000000000000000000000000000000000000000000000000000000000000000000000000000000000000000000000000000000000000000000000000000000000000000000000000000000000000000000000000000000000000000000000000000000000000000000000000000000000000000000000000000000000000000000000000000000000000000000000000000000000000000000000000000000000000000000000000000000000000000000000000000000000000000000000000000000000000000000000000000000000000000000000000000000000000000000000000000000000000000000000000000000000000000000000000000000000000000000000000000000000000000000000000000000000000000000000000000000000000000000000000000000000000000000000000000000000000000000000000000000000000000000000000000000000000000000000000000000000000000000000000000000000000000000000000000000000000000000000000000000000000000000000000000000000000000000000000000000000000000000000000000000000000000000000000000000000000000000000000000000000000000000000000000000000000000000000000000000000000000000000000000000000000000000000000000000000000000000000000000000000000000000000000000000000000000000000000000000000000000000000000000000000000000000000000000000000000000000000000000000000000000000000000000000000000000000000000000000000000000000000000000000000000000000000000000000000000000000000000000000000000000000000000000000000000000000000000000000000000000000000000000000000000000000000000000000000000000000000000000000000000000000000000000000000000000000000000000000000000000000000000000000000000000000000000000000000000000000000000000000000000000000000000000000000000000000000000000000000000000000000000000000000000000000000000000000000000000000000000000000000000000000000000000000000000000000000000000000000000000000000000000000000000000000000000000000000000000000000000000000000000000000000000000000000000000000000000000000000000000000000000000000000000000000000000000000000000000000000000000000000000000000000000000000000000000000000000000000000000000000000000000000000000000000000000000000000000000000000000000000000000000000000000000000000000000000000000000000000000000000000000000000000000000000000000000000000000000000000000000000000000000000000000000000000000000000000000000000000000000000000000000000000000000000000000000000000000000000000000000000000000000000000000000000000000000005353
#065971:23
#065921:000000000000000000000000000000000000000000000000000000000000000000000000000000000000000000000000000000000000000000000000000000000000000000000000000000000000000000000000000000000000000000000000000000000000000000000000000000000000000000000000000000000000000000000000000000000000000000000000000000000000000000000000000000000000000000000000000000000000000000000000000000000000000000000000000000000000000000000000000000000000000000000000000000000000000000000000000000000000000000000000000000000000000000000000000000000000000000000000000000000000000000000000000000000000000000000000000000000000000000000000000000000000000000000000000000000000000000000000000000000000000000000000000000000000000000000000000000000000000000000000000000000000000000000000000000000000000000000000000000000000000000000000000000000000000000000000000000000000000000000000000000000000000000000000000000000000000000000000000000000000000000000000000000000000000000000000000000000000000000000000130000000000000000000000000000000000000000000000000000000000000000000000000000000000000000000000000000000000000000000000000000000000000000000000000000000000000000000000000000000000000000000000000000000000000000000000000000000000000000000000000000000000000000000000000000000000000000000000000000000000000000000000000000000000000000000000000000000000000000000000000000000000000000000000000000000000000000000000000000000000000000000000000000000000000000000000000000000000000000000000000000000000000000000000000000000000000000000000000000000000000000000000000000000000000000000000000000000000000000000000000000000000000000000000000000000000000000000000000000000000000000000000000000000000000000000000000000000000000000000000000000000000000000000000000000000000000000000000000000000000000000000000000000000000000000000000000000000000000000000000000000000000000000000000000000000000000000000000000000000000000000000000000000000000000000000000000000000000000000000000000000000000000000000000000000000000000000000000000000000000000000000000000000000000000000000000000000000000000000000000000000000000000000000000000000000000000000000000000000000000000000000000000000000000000000000000000000000000000000000000000000000000000000000000000000000000000000000000000000000000000000000000000000000000000000000000000000000000000000000000000000000000000000000000000000000000000000000000000000000000000000000000000000000000000000000000000000000000000000000000000000000000000000000000000000000000000000000000000000000000000000000000000000000000000000000000000000000000000000000000000000000000000000000000000000000000000000000000000000000000000000000000000000000000000000000000000000000000000000000000000000000000000000000000000000000000000000000000000000000000000000000000000000000000000000000000000000000000000000000000000000000000000000000000000000000000000000000000000000000000000000000000000000000000000000000000000000000000000053535353230000000000000000000000000000000000000000000000000000000000000000000000000000000000000000000000000000000000000000000000000000000000000000000000000000000000000000000000000000000000000000000000000000000000000000000000000000000000000000000000000000000000000000000000000000000000000000000000000000000000000000000000000000000000000000000000000000000000000000000000000000000000000000000000000000000000000000000000000000000000000000000000000000000000000000000000000000000000000000000000000000000000000000000000000000000000000000000000000000000000000000000000000000000000000000000000000000000000000000000000000000000000000000000000000000000000000000000000000000000000000000000000000000000000000000000000000000000000000000000000000000000000000000000000000000000000000000000000000000000000000000000000000000000000000000000000000000000000000000000000000000000000000000000000000000000000000000000000000000000000000000000000000000000000000000000000000000000000000000000000
#065961:0053
