This file was generated by Ched 2.7.0.0.
#TITLE ""
#ARTIST ""
#DESIGNER ""
#DIFFICULTY 0
#PLAYLEVEL
#SONGID ""
#WAVE ""
#WAVEOFFSET 0
#JACKET ""
#REQUEST "ticks_per_beat 480"
#00002: 4
#BPM01: 150
#00008: 01
#TIL00: ""
#VOLUME: ""
#HISPEED 00
#MEASUREHS 00
#00712:13
#0071b:00130000
#00718:1300000013000013
#00715:00000013
#00710:41
#0041b:13
#00415:0000001300000000
#00418:00001313
#00412:0000000000130000
#0321a:14
#03214:14
#03218:00000013
#03215:0000000000000013
#04712:00140014
#0471f:11
#04714:24
#0471a:24
#0011b:0000130000000013
#00112:0013
#00115:00000013
#00118:0000000000130000
#00215:13
#00212:00000000330033333300330000000000
#00318:00001313
#00315:0000000000130013
#00312:24140000
#0031a:24140000
#00512:14140000
#0051a:14140000
#00515:00001313
#00518:0000000000130013
#00818:0013
#00815:00000033000000000000130000000000
#0081b:00000013
#00812:13
#00912:0013000000000000
#00918:0000130000130000
#00915:00001313
#0091b:0000000000000013
#01018:00000013
#01015:23
#01012:00000033330000000000000000000000
#01112:00000014
#0121b:0013000000000013
#01215:00130013
#01218:0000001300130000
#01212:0013
#01318:00001313
#01315:0000000000130000
#01312:00343434000000000000000000001300
#0141b:13000013
#01415:0013000000130000
#01418:00131300
#01412:0000001300000013
#01515:00000013
#01518:2600000026000013
#01512:00260000
#01712:13
#01715:00000033130000000000000000000000
#01714:0000003300000000
#0191b:13
#01918:00000033130000000000000000000000
#01919:0000003300000000
#02018:0013
#02015:0000000000130000
#0201b:00000013
#02012:0000000000000013
#02114:0014
#02118:0000000000140000
#02112:00000014
#0211a:0000000000000014
#02218:0015
#02213:0000000000150000
#02219:00000015
#02212:0000000000000015
#02318:0014
#0231a:24
#02418:00000014
#02412:25
#02419:25
#02515:00000013
#02518:0000000000000013
#02519:2525
#02512:00250000
#02510:41
#02615:1300001300000000
#02618:0013
#02612:00000033000000000000000000000000
#02712:13
#02718:0000000013000013
#0271b:00000000000000000000003300000000
#02814:14
#02812:0014000000000000
#02818:0014
#02915:00000013
#02918:0000000000000013
#02912:00240000
#0291a:0024
#03018:0000001300000000
#03015:1300000013000013
#0301b:00000013
#03012:00000033000000000000000000000000
#03114:0014
#03112:00000014
#03118:1300001300001400
#0311a:0014
#03115:00130000
#03315:00130000
#03318:0000001300000000
#03314:00000013
#03319:25000013
#03312:0025
#0351b:0013
#03515:1300000000130000
#03518:00000013
#03512:0000000000000013
#03612:0013
#03618:1300000000130000
#03615:00000013
#0361b:0000000000000013
#03712:14343434343434340034343434343434
#03716:0014
#0411b:1313
#04118:0000000000130013
#04115:00000013
#04112:0000001300000000
#04218:0000001300000000
#04215:0013
#04212:14540000
#04213:00540054000000000000000000000000
#04214:0054000000000000
#04315:00130000
#04318:1400001300005400
#04312:0013
#0431a:0054000000140054
#04319:00540000000000000000005400540000
#04418:00130013
#04415:0000001300000013
#0441b:0013
#04412:0054000000130000
#04414:14
#04413:00540000000000000000000000000000
#0451a:14000014
#04517:0014000000000000
#04512:0000000000140000
#04514:0000001400000014
#04518:0014
#04818:00140014
#04914:00140014
#0501a:00140014
#0511a:00140014
#05116:0014
#05112:24
#05118:24
#05216:00140014
#05212:1414
#05414:00343434343434340000000014000000
#0541a:24
#05412:24
#05418:00343434343434340000000000000000
#05518:00000013
#05515:0000000000000013
#05512:2525
#05519:00250000
#0551f:21
#05615:0000001300000000
#05618:1313
#0561b:00000033000000000000000000000000
#05610:41
#05712:13
#0571b:0013
#05715:0000000000000013
#05718:00000000000013000000003300000000
#05918:00000013
#05915:0000000000000013
#0591a:00240000
#05912:0024
#06015:0000001300000000
#06018:1300000013000013
#06012:00000013
#0601b:00000033000000000000000000000000
#06115:1300001300000000
#0611b:00130013
#06118:0013
#06218:13
#06218:13
#06212:00000013
#0621b:00000013
#06315:1300000000000013
#06315:13
#06318:13
#06318:13
#0631b:0013
#0631b:0013
#06312:00241300
#06312:0013
#0631a:00240000
#06415:0000001300000000
#0641b:13
#06418:00000033000000001300000000000000
#06518:0000001300000000
#06512:13
#06515:00000033000000000000000000000000
#06614:14
#06618:0014000000000000
#06612:00240000
#0661a:0024
#0671a:1424
#06715:00000013
#06718:0000240000000013
#06714:1424
#06712:00240000
#06818:0000001300001300
#06815:1300000013000013
#06812:00000033000000000000000000000000
#06810:41
#0691a:14
#06915:00130000
#06918:0000001300000000
#06912:0013
#07018:13000013
#07015:1300000000000013
#07115:00130000
#07118:2600001300002600
#07112:0026
#0751b:13
#07515:0000001300000000
#07518:00001313
#07512:0000000000130000
#07417:00140000
#0741b:0013
#07418:0000000000130000
#07415:24000013
#07412:0000140000000013
#0741a:24
#07612:1413
#07615:0000140000130000
#07618:00000013
#0761b:0000000000000013
#07617:14
#0761a:00140000
#00012:00000013
#05818:14
#0581a:0014000000000000
#05814:0014
#04018:00000013
#04015:0000000000000013
#04012:16160000
#04013:00160016001600160000000000000000
#04014:0016001600000000
#03913:00160016001600160016001600160016
#03914:0016001600160016
#03912:26161616
#03910:41
#0721a:24
#07212:24
#07218:00343434343434343434343434343434
#07214:00343434343434343434343434343434
#07819:25
#07812:25
#03412:24
#0341a:24
#03414:00343434343434343434343400000000
#03418:00343434343434343434343400000000
#03812:26
#03814:00260000
#03816:0026
#03818:00000026
#00612:2424000026000000
#0061a:0000242400000000
#01612:24
#0161a:0024
#01614:0024
#01610:41
#0181a:24
#01812:0024
#01818:0024
#01814:24
#05312:24
#0531a:24
#05313:0024
#05319:0024
#07712:2626002600000000
#07718:00000000260000000034343400000000
#0771a:0024
#04618:24
#0325a:54
#03254:54
#07158:16000016
#07152:0016
#00255:53
#00252:00000016
#00652:0016
#01058:00000053
#01055:53
#0115a:0014
#01152:00000014
#01355:00140000
#01558:1616
#01552:00160000
#01652:14
#0165a:0014
#01654:0014
#01752:53
#01755:00230000
#0185a:14
#01852:0014
#01858:0014
#01854:14
#0195b:63
#01958:00230000
#02358:0054
#0235a:00000014
#02452:0015
#02459:0015
#02458:00000054
#02559:1515
#02552:00150000
#02655:53
#02658:0063
#02752:53
#02758:0063
#02952:00140000
#0295a:0014
#03055:53
#03359:15
#03352:0015
#03452:54
#0345a:54
#03454:00000014
#03458:00000014
#03752:54
#03756:0054
#03852:16
#03854:00160000
#03856:0016
#03858:00000016
#0415b:53
#04255:0053
#0455a:54
#04557:0024000000000000
#04752:00140014
#04858:00140014
#04954:00140014
#0505a:00140014
#0515a:00140014
#05256:00140014
#0545a:64
#05454:00000064
#05452:54
#05658:6363
#05752:53
#0575b:0063
#06058:63
#05552:1515
#05559:00150000
#0595a:00140000
#05952:0014
#06158:0063
#0615b:00000063
#06258:63
#06258:63
#06352:00146300
#06352:0063
#0635a:00140000
#06355:53
#06355:53
#06358:63
#06358:63
#0635b:0053
#0635b:0053
#0645b:53
#06458:0053
#0675a:6414
#06758:00140000
#06754:6414
#06752:00140000
#0695a:14
#06952:0063
#06955:00000013
#07058:53
#07055:63
#0725a:54
#07252:64
#0755b:63
#07758:00000014
#0775a:0054
#0045b:63
#00852:53
#03555:53
#03658:63
#00052:00000053
#02852:0054000000000000
#02854:54140000
#02858:0014
#06552:63
#06855:53
#05858:64140000
#0585a:0064000000000000
#05854:0014
#07358:00000014
#07354:00000014
#03952:26262626
#03954:0026002600260026
#03953:00560056005600560056005600560056
#04052:26260000
#04053:00560056005600560000000000000000
#04054:0026002600000000
#04658:54
#06652:00140000
#0665a:0014
#000320:00000013
#001350:23
#002350:13
#002320:00000000330033333300330026000000
#0043b0:13
#004380:00230000
#008320:13
#008350:00000033230000000000000000000000
#010350:13
#010320:00000033330033002300000000000000
#010380:00000013
#0113a0:0000343424000000
#013320:14343434000000000000000000000000
#013350:00240000
#017320:13003323
#017350:00000033330000000000000000000000
#017340:0000003300000000
#0193b0:13003323
#019380:00000033330000000000000000000000
#019390:0000003300000000
#020350:13230000
#021380:14240000
#022330:15250000
#0233a0:14000024
#023380:0000003434000000
#024320:1535353525000000
#024391:1535353525000000
#024381:00000014
#025391:25
#026351:13
#026321:00000033230000000000000000000000
#026381:0013
#0263b1:00000023
#027321:13
#027351:0000332300000000
#027381:0013
#0273b1:00000000000000000000003323000000
#028341:14240000
#028321:0034000000000000
#029321:14240000
#030351:13
#030321:00000033230000000000000000000000
#0323a1:14
#032381:0024
#032340:14
#032320:0024
#034320:14
#034340:00343434343434343434343424000000
#0343a1:14
#034381:00343434343434343434343424000000
#035351:13
#035321:00230000
#036381:13
#0363b1:00230000
#037321:14343434343434340034343434343434
#037361:0034
#038321:26
#039321:16565656
#039331:00560056005600560056005600560056
#039341:0056005600560056
#040321:56562600
#040331:00560056005600560000000000000000
#040341:0056005600000000
#0413b1:13
#041381:00230000
#042351:0013
#042321:00000023
#0453a1:14240000
#045371:0054000000000000
#046381:14
#0463a1:00000024
#053321:14240000
#0533a0:14240000
#053330:00001424
#053391:00001424
#0543a1:14
#054381:00343434343434342400000000000000
#054320:14
#054340:00343434343434342400000000000000
#054340:00000014
#055320:25
#056380:13
#0563b0:00000033230000000000000000000000
#056380:0013
#0563b0:00000023
#057320:13
#057350:00230000
#0573b0:0013
#057380:00000000000000000000003323000000
#058380:14240000
#0583a0:0034000000000000
#0593a0:14240000
#060380:13
#0603b0:00000033230000000000000000000000
#061380:0013
#0613b0:00000033
#062380:33
#0623b0:0023
#063350:13
#063320:00240000
#063381:13
#0633a1:00240000
#0633b1:0013
#063381:00000023
#063320:0013
#063350:00000023
#0643b0:13
#064380:00000033230000000000000000000000
#064380:0013
#0643b0:00000023
#065320:13
#065350:00000033230000000000000000000000
#065320:0000000013230000
#0653b0:0000000000001323
#0673a0:14
#067380:00240000
#067341:14
#067321:00240000
#068351:13
#068321:00000033230000000000000000000000
#069321:0013
#069351:00000023
#070381:13
#0703b1:0023
#070350:13
#070320:0023
#0723a0:14
#072380:00343434343434343434343434343434
#073380:34343434343434343434343424000000
#072321:14
#072341:00343434343434343434343434343434
#073341:34343434343434343434343424000000
#0753b1:13
#075381:00230000
#0773a1:0014
#077381:00000000000000000034343424000000
#042920:14240000
#042940:0054000000000000
#043980:14
#0439a0:0024000000000000
#0439a0:0000000000140024
#043980:00000054
#044940:14
#044920:0024000000000000
