This file was generated by Ched 2.7.0.0.
#TITLE ""
#ARTIST ""
#DESIGNER ""
#DIFFICULTY 0
#PLAYLEVEL
#SONGID ""
#WAVE ""
#WAVEOFFSET 0
#JACKET ""
#REQUEST "ticks_per_beat 480"
#00002: 4
#BPM01: 150
#00008: 01
#TIL00: ""
#VOLUME: ""
#HISPEED 00
#MEASUREHS 00
#0071a:14
#00714:0014
#00710:41
#01014:1414
#01018:00140000
#02214:1414
#02218:00140014
#03512:14
#03518:0014
#03614:14
#0361a:0014
#03712:14
#03718:0014
#0411a:14
#04114:00140014
#04118:0014
#04912:00140014
#0741a:14
#07414:00140014
#07418:0014
#07512:00140014
#0751a:14
#07518:0014
#0761a:14
#07614:00140014
#07618:0014
#00318:0014
#00312:24
#00412:14
#0041a:0014
#00514:14
#00518:0014
#00818:1414
#00814:00140000
#00912:14
#00918:0014
#0131a:1414
#01314:00140000
#01412:1414
#01418:00140000
#02512:00140000
#02518:0014
#02514:00000014
#0251a:24
#02510:41
#02618:14
#0261a:00000034340034000000000000000000
#0271a:00140000
#02714:0014
#02718:00000014
#02712:14
#02814:14
#02812:0034340000000000
#02912:00140000
#0291a:0014
#02914:00000014
#02918:14
#03018:14
#03012:00000014
#0301a:0000343400000000
#0311a:14
#03114:00140000
#03118:0014
#03112:00000014
#0321a:14
#0421a:1414
#04212:00140000
#04312:14
#04318:00140014
#04314:0014
#04412:1414
#0441a:00140000
#0451a:14
#04514:00140000
#04518:0014
#04512:00000014
#04618:14
#04714:00140014
#0471f:11
#04818:00140014
#0501a:00140014
#05118:00140014
#05112:24
#05214:00140014
#0551a:00140000
#05514:0014
#05518:00000014
#05512:24
#0551f:21
#05614:14
#05612:00000034340034000000000000000000
#05610:41
#05712:00140000
#05718:0014
#05714:00000014
#0571a:14
#05818:14
#0581a:0034340000000000
#0591a:00140000
#05912:0014
#05918:00000014
#05914:14
#06014:14
#0601a:00000014
#06012:00000034340034000000000000000000
#06112:14
#06118:00140000
#06114:0014
#0611a:00000014
#06212:14
#06218:00000014
#06318:0014
#06314:00000014
#06418:14
#0641a:00000034340034000000000000000000
#06514:0014
#06518:00000014
#06512:14
#0651a:00140000
#06614:14
#06612:0034340000000000
#0671a:14
#06712:00140000
#06718:0014
#06714:00000014
#06818:14
#06812:00000014
#0681a:00000034340034000000000000000000
#06810:41
#06918:14
#06914:00140000
#0691a:0014
#06912:00000014
#0701a:14
#01614:14
#01612:0014
#01610:41
#01714:14
#01818:14
#0181a:0014
#01918:14
#02014:14
#02118:14
#02312:14
#01518:26262600
#0331a:24
#03312:0024
#03314:24
#03318:0024
#0341a:24
#03412:24
#07214:24
#07218:24
#07212:00343434343434343434343434343434
#0721a:00343434343434343434343434343434
#00612:26
#02412:24
#0241a:24
#03812:24
#03818:00240000
#03814:0024
#0381a:00000024
#03914:24
#03910:41
#0531a:24
#05312:0024
#05418:24
#0541a:00343434343434340000000000000000
#07112:26
#07118:0026
#07718:26
#07812:24
#0731a:24343434343434343434343400000000
#07312:24343434343434343434343400000000
#0021a:00343400
#00652:0016
#02658:54
#0265a:0014
#02854:64
#02852:0014
#03058:54
#0325a:54
#03954:54
#04658:54
#0535a:14
#05352:0014
#05458:54
#05654:64
#05652:0014
#05858:54
#0585a:0014
#06054:64
#06252:64
#06458:54
#0645a:0014
#06654:64
#06652:0014
#06858:54
#0705a:54
#07152:16
#07158:0016
#07758:0016
#07254:54
#07258:54
#01654:54
#01652:0054
#01754:54
#01858:64
#0185a:0064
#01958:64
#02054:54
#02158:54
#02352:54
#07352:24
#0735a:24
#000380:00000014
#0013a0:3434
#0023a0:34343400
#002380:00000026
#006320:1636363626000000
#0113a0:1424
#012320:1424
#016340:14
#016320:0034
#017340:34
#017320:0024
#018380:14
#0183a0:0034
#019380:34
#0193a0:0024
#020340:14
#020320:0024
#021380:14
#0213a0:0024
#023320:14
#023340:0024
#024320:1434343424000000
#0243a1:1434343424000000
#026381:14
#0263a1:00000034340034002400000000000000
#028341:14
#028321:0034340024000000
#030381:14
#0303a1:0000343424000000
#0323a1:14
#032381:0024
#0343a1:14000024
#034320:14000024
#039340:14
#040320:0024
#046380:14
#0473a0:24
#054380:14
#0543a0:00343434343434342400000000000000
#056340:14
#056320:00000034340034002400000000000000
#058380:14
#0583a0:0034340024000000
#060340:14
#060320:00000034340034002400000000000000
#062320:14
#062340:0024
#063320:14240000
#0633a1:14240000
#064381:14
#0643a1:00000034340034002400000000000000
#066341:14
#066321:0034340024000000
#068381:14
#0683a1:00000034340034002400000000000000
#0703a1:14
#070381:0024
#072341:14
#072321:00343434343434343434343434343434
#073321:34343434343434343434343426000000
#072380:14
#0723a0:00343434343434343434343434343434
#0733a0:34343434343434343434343400000000
#073380:00000026
#077380:1636363626000000
