This file was generated by Ched 2.7.0.0.
#TITLE ""
#ARTIST ""
#DESIGNER ""
#DIFFICULTY 0
#PLAYLEVEL
#SONGID ""
#WAVE ""
#WAVEOFFSET 0
#JACKET ""
#REQUEST "ticks_per_beat 480"
#00002: 4
#BPM01: 140
#00008: 01
#TIL00: ""
#VOLUME: ""
#HISPEED 00
#MEASUREHS 00
#0561f:11
#0561b:0013130000000013
#05616:000000000013000000000000000000000000000000000000
#05614:001300
#05619:0000001300000000
#05612:000000000000000000000013000000130013000000000000
#05617:000000000000000000000000000000000013000000000000
#07314:000000000000000000000000000000120000000000000012
#0731a:000000000000000000000000000000000012000000120000
#07313:000000120000000000000012000000000000000000000000
#0731b:000000000012000000120000000000000000000000000000
#07214:12120000
#07218:001200
#07216:0000000000120000
#06815:0013000000130023
#0681a:1414
#06812:26142614
#06818:000000000000260000130000000000000025000000130000
#06312:000000000000260000000000000000000026000013000000
#0631b:00000013
#06318:000000260000000000000000000000000000000000000013
#06315:0000000026000026
#0591a:000000000000000000000000000000000000000000000014
#05918:000000000000000000000000000000130000000014000000
#05912:00000014
#05915:0000000000000013
#05018:000000140014000000000000
#0501b:0000000000130000
#05014:000000000000000014000000140000000000000000130000
#0501a:00000013
#05012:0000000000130000
#05013:00000013
#05019:0000000000000013
#02212:140000000013000000000000000000000000000000130000
#02216:000000000000000000000013000000130000000000000000
#02217:00130000
#0221b:000000130000000000000000000000000013000000000000
#02219:0000001300000000
#02214:001300
#00617:0012001200000000
#0061a:0012
#0061c:0000000000000012
#0061b:000000000000000000000000000000000012000000000000
#00612:2626
#00618:00260000
#00616:0000000000000024
#00614:000000000000000000000000000000000025000000000000
#00817:000000120000000000120000000000000025000000000000
#00814:0012
#00813:000000000000000000000000000000000012000000000000
#00812:0000260000000012
#00818:2626
#00816:0000000000000024
#0101b:1300001300000000
#01012:130000000000000000000000000000000013000000000000
#01015:000000130000000000000013000000000000000000000000
#01018:0000130013000013
#01010:41
#01115:1300001300000000
#01118:0013
#0111b:000000000013000000000000000000000053000000530000
#01212:0013000000000000
#01215:000000000000130000000000000000000013000000000000
#01218:5300001300000013
#0121b:0013
#0131b:0013
#01315:0000001300000000
#01312:13
#01318:000000000013000000000000000000000000220000000000
#01316:0000000000220000
#01418:0013001300000000
#01415:0000130013000013
#0141b:130000000000000000000000000000000013000000000000
#01412:13
#01518:1300001300000000
#01515:0013
#01512:000000000013000000000000000000000053000000530000
#0161b:0013000000000000
#01618:000000000000130000000000000000000013000000000000
#01615:5300001300000013
#01612:0013
#01712:0013
#01718:0000001300000000
#01719:0000000000120000
#01717:00000012
#01715:000000000013000000000000000000000000000000120000
#0171b:13
#02317:000000000000000000000013000000130000000000000000
#02316:00130000
#0231b:000000000013000000000000000000000000000000130000
#02314:0000001300000000
#02319:001300
#02312:000000130000000000000000000000000013000000000000
#02416:000000000000000000000013000000130000000000000000
#02417:00130000
#02412:000000000013000000000000000000000000000000130000
#02419:0000001300000000
#02414:001300
#0241b:000000130000000000000000000000000013000000000000
#02612:260000000000000000000013000000130000000000000000
#02618:000000131300000000000000
#02615:000000000013000000130000000000000000000000000000
#0261b:0013000013000000
#02617:000000000000000000000000000000000013000000000000
#02616:0000000000000013
#02610:41
#0271b:000000000000000000000013000000130000000000000000
#02715:000000131300000000000000
#02718:000000000013000000130000000000000000000000000000
#02712:0013000013000000
#02716:000000000000000000000000000000000013000000000000
#02717:0000000000000013
#02812:000000000000000000000013000000130000000000000000
#02818:000000131300000000000000
#02815:000000000013000000130000000000000000000000000000
#0281b:0013000013000000
#02817:000000000000000000000000000000000013000000000000
#02816:0000000000000013
#02518:0000160000000016
#02515:000000000000000000000000000000000016000000000000
#02512:0016000016000000
#02912:0000160000000016
#02915:000000000000000000000000000000000016000000000000
#02918:0016000016000000
#03018:16
#03017:000000000000000000000000000000000015000000000000
#0301a:0000000000000014
#03012:0029
#03118:0016000000000000
#03112:000000000000000000000000000000000015000000000000
#03116:0000000000000014
#03115:0029
#03212:1600000000000014
#03214:000000000000000000000000000000000015000000000000
#03215:0029
#03312:0016000024000000
#00717:0000001200000000
#00712:0012260026000000
#0071c:0000120000000012
#0071a:0012
#0071b:000000000000000000000000000000000012000000000000
#00718:0026000000000000
#00716:0000000000000024
#00714:000000000000000000000000000000000025000000000000
#00917:000000000000000000120000000000000025000000000000
#0091c:0012000000000000
#00912:0026120000000012
#00914:0012
#00913:000000000000000000000000000000000012000000000000
#00918:00262600
#00916:0000000000000024
#05712:0013130000000013
#05717:000000000013000000000000000000000000000000000000
#05719:001300
#05714:0000001300000000
#0571b:000000000000000000000013000000130013000000000000
#05716:000000000000000000000000000000000013000000000000
#0581b:0013130000000013
#05816:000000000013000000000000000000000000000000000000
#05814:001300
#05819:0000001300000000
#05812:000000000000000000000013000000130013000000000000
#05817:000000000000000000000000000000000013000000000000
#0601b:0013000000130000
#06015:000000000013000013000000260000000013000000260000
#06018:000000000000260000130000000000000026000000000000
#06012:26
#06112:000000130000260000000000000000130026000000000000
#06118:000000260013000013000000000000000013000000000000
#06115:0000001326000026
#0621b:0013000000130000
#06215:000000000013000013000000260000000013000000260000
#06218:000000000000260000130000000000000026000000000000
#06212:26
#06514:00140000
#06512:000000140000000000000000000000000025000000230000
#06518:0026260026001400
#0651a:0000000000140000
#06516:0000001400000014
#06510:41
#0641a:0014000000000000
#06418:00140000
#06414:00000014
#06412:2600260026140000
#06416:0000001400000014
#0641f:21
#06419:000000000000000000000000000000000025000000000000
#0641b:0000000000000023
#06612:000000140000000000000000140000000025000000230000
#06614:00140000
#0661a:0000000000140000
#06618:26262614
#06616:0000001400000014
#06912:1413260014131400
#0691a:14140000
#0691b:0000001300000013
#06918:0026000026000000
#06916:000000000000000000000000000000000025000000000000
#06915:0000000000000023
#07018:2613000026130023
#07012:14261400
#0701a:00140014
#07015:0000001300000013
#07013:000000000000000000000000000000000025000000000000
#0711b:0013000023000000
#07112:1426141323000000
#0711a:14
#07118:00260000
#07119:000000000000000000000000000000000000000000000000003300000000000000000000000000000000000000000000
#07114:000000000000000000000000000000000000000000000000003300000000000000000000000000000000000000000000
#0671a:0014000014000000
#06718:00140000
#06712:0026260026140000
#06714:00000014
#06716:0000001400000014
#06719:000000000000000000000000000000000025000000000000
#0671b:0000000000000023
#04512:130000000013000000000013000000000000000000130000
#04518:000000130000000000000000000000000000000000000013
#04515:001300000000000000000000
#0451b:000000001300000000130000
#04516:000000000000000000000000000000000000000000000000000000000013000000000000000000000000000000000000
#04412:0013000000130000
#0441b:000000000000000000000013000000000013000000000000
#04418:13
#04417:000000000013000000000000000000000000000000130000
#04416:000000001300000000130000
#04410:41
#04315:000000000000000000000000000000000000000000000013
#0431b:1300000000000013
#04319:000000000013000000000000000000120000000000000000
#0431a:00000012
#04317:0000001313000000
#04312:24242424
#04812:130000000000000000000013000000000000000000000000
#04815:0000000000000013
#0481b:0013000000130000
#04818:00000013
#04816:000000000013000000000000000000000000000000000000
#04817:001300
#0461b:0013000000130000
#04615:1300000000000013
#04618:00000013
#04612:000000000000000000000013000000000000000000000000
#04616:000000000013000000000000000000000000000000000000
#04617:001300
#04712:131300
#04718:001300000000000000000000
#04715:0013000000000013
#0471b:000000000013000000000000000000000000000000000000
#04912:130000000000000000000013000000000000000000000000
#0491b:13130000
#04917:000000000000000000000000000000000013000000000000000000000000000000000000000000000000000000000000
#05118:13
#05115:13
#0511b:0000001300000000
#05112:0000001300000000
#03612:0013000000000000
#03613:00130000
#03614:0000001300000000
#03616:000000000000000000000000000000000013000000130000
#03615:0013
#03618:26
#0361a:00002424
#03610:41
#03714:000000000000000000130000000000000012000000000000
#03712:0012
#03716:1300000000000012
#03715:000000000013000000000000000000000000000000000000
#0371a:24242424
#0421a:1200001300000000
#0421b:000000000000000000000000130000000013000000130000
#04219:00130000
#04218:0013000000000000
#04212:24242424
#0391b:0013
#03919:0000001300000000
#03917:1300000000220000
#03918:000000000013000000000000000000000000000000000000
#0391a:00000022
#03912:24242424
#03818:1213
#0381b:0013000000000000
#0381a:00130000
#03819:0000001300000000
#03817:000000000000000000000000000000000013000000130000
#03812:24242424
#04012:240000000000000000000000130000000013000000130000
#04013:0000001300000000
#04014:00130000
#04015:0013000000000000
#0401a:24242424
#04116:000000000000000000130000000000000012000000000000
#04114:000000000013000000000000120000000000000000000000
#04118:0000000000000012
#04112:13
#0411a:24242424
#07416:14
#01812:16
#01818:26
#01816:0026
#01815:00000026
#01817:00260000
#01810:41
#01912:12
#01917:00000026
#01914:26
#01915:00260000
#01916:0026
#05218:16
#05212:26
#05214:0026
#05215:00000026
#05213:00260000
#0531c:12
#05313:00000026
#05316:26
#05315:00260000
#05314:0026
#00212:2600000000000024
#00215:000000000000260000000000000000000025000000000000
#00218:0026
#00418:26
#00416:000000000000000000000000000000000025000000000000
#0041a:0000000000000024
#00415:00260000
#00412:0026
#02018:26262626
#02012:0026002600260026
#02113:002500000000000000000000
#02118:2625242300000000
#0211a:000000000000242424240000
#02115:002300
#02112:000000000000000000000024002400240024000000000000
#02114:000000000024000000000000000000000000000000000000
#0011a:00000024
#00318:0026000026000000
#00312:0000260000000024
#00315:000000000000000000000000000000000025000000000000
#00512:0026000026000000
#00518:00260000
#00516:000000000000000000000000000000000025000000000000
#0051a:0000000000000024
#05518:000025000024000023000000000000000000000000000000
#05513:0025000000000000
#05515:0000002300000000
#05512:260000000000242424240000
#0551a:000000000000000000000024002400240024000000000000
#05514:00240000
#05418:0026002600260026
#05412:26262626
#00156:0000000000000014
#02156:0000000000000014
#03052:00161900
#03058:16
#03258:00160000
#03255:0019
#03252:16
#03356:00000014
#05556:0000000000000014
#07155:00000013
#07158:00000013
#0715b:0013000000000000
#07152:0000001300000000
#0495b:1300630000000013
#04956:0000000000000013
#04952:130000000000000000000053000000000000000000000000
#04957:000000000000000000000000000000000023000000000000000000000000000000000000000000000000000000000000
#03555:00000013
#02257:0000000000000013
#0225b:000000000000000000000000000000000063000000000000
#02252:0000000000000013
#02356:0000000000000013
#02352:000000000000000000000000000000000053000000000000
#0235b:0000000000000013
#02457:0000000000000013
#0245b:000000000000000000000000000000000063000000000000
#02452:0000000000000013
#0265b:0000000063000013
#02652:16
#02657:000000000000000000000000000000000053000000000000
#02656:0000000000000013
#02752:0000000053000013
#02756:000000000000000000000000000000000063000000000000
#02757:0000000000000013
#0285b:0000000063000013
#02857:000000000000000000000000000000000053000000000000
#02856:0000000000000013
#0365a:00140000
#03658:56
#00458:16
#00858:16
#03155:0019
#00652:16
#01358:000000000053000000000000000000000000120000000000
#01352:53
#06452:0016
#06456:0000005400000000
#06658:0016
#06656:0000006400000000
#06652:0024
#06558:0016
#06556:0000006400000000
#06752:0016
#06756:0000005400000000
#0675a:0024
#0395a:00000012
#06855:0013000000130000
#06858:0000001300000013
#05955:0000000000000013
#05958:0000000000130000
#06952:0013000000130000
#0695b:0000001300000013
#07058:0013000000130000
#07055:0000001300000013
#06158:000000000000000000000000000000000053000000000000
#06255:000000000000000000000000000000000063000000000000
#06055:000000000000000000000000000000000063000000000000
#05852:000000000000000000000000000000000053000000000000
#0575b:000000000000000000000000000000000063000000000000
#05652:000000000000000000000000000000000053000000000000
#01052:000000000000000000000000000000000053000000000000
#01058:0053
#0115b:000000000063000000000000000000000000000000000000
#01155:63
#0125b:0063
#01255:000000000000000000000000000000000063000000000000
#01552:000000000053000000000000000000000000000000000000
#01558:53
#0145b:000000000000000000000000000000000063000000000000
#01455:0063
#01652:0053
#01658:000000000000000000000000000000000053000000000000
#0175b:63
#01755:000000000063000000000000000000000000000000000000
#04852:000000000000000000000053000000000000000000000000
#04856:000000000063000000000000000000000000000000000000
#04857:005300
#04752:005300
#0475b:000000000063000000000000000000000000000000000000
#04652:000000000000000000000053000000000000000000000000
#04656:000000000063000000000000000000000000000000000000
#04657:005300
#04552:000000000053000000000053000000000000000000000000
#0455b:006300
#04556:000000000000000000000000000000000000000000000000000000000023000000000000000000000000000000000000
#0445b:000000000000000000000063000000000000000000000000
#04457:000000000053000000000000000000000000000000530000
#04456:000000006300000000630000
#05158:53
#05155:63
#0515b:0000002300000000
#05152:0000002300000000
#07456:54
#01852:66
#01952:22
#05258:56
#0535c:22
#0013a0:00000014
#001380:000000000000000000000000000000000000000000000000000000000000000000000000003400000000000000000000
#001360:000000000000000000000000000000000000003400240000
#010380:0013
#0103b0:000000000000000000000000000000000023000000000000
#010321:000000000000000000000000000000000013000000000000
#010351:0000000000000023
#011351:13
#011321:000000000023000000000000000000000000000000000000
#0113b0:000000000013000000000000000000000000000000000000
#011380:0000002300000000
#0123b0:0013
#012380:000000000000000000000000000000000023000000000000
#012351:000000000000000000000000000000000013000000000000
#012321:0000000000000023
#013321:13
#013351:000000000023000000000000000000000000000000000000
#013380:000000000013000000000000000000000000000000000000
#0133b0:0000002300000000
#014350:0013
#014320:000000000000000000000000000000000023000000000000
#0143b1:000000000000000000000000000000000013000000000000
#014381:0000000000000023
#015381:13
#0153b1:000000000023000000000000000000000000000000000000
#015320:000000000013000000000000000000000000000000000000
#015350:0000002300000000
#016320:0013
#016350:000000000000000000000000000000000023000000000000
#016381:000000000000000000000000000000000013000000000000
#0163b1:0000000000000023
#0173b1:13
#017381:000000000023000000000000000000000000000000000000
#017350:000000000013000000000000000000000000000000000000
#017320:0000002300000000
#018320:16
#019320:52
#020320:26
#020381:1626000000000000
#020320:0016260000000000
#020381:0000162600000000
#020320:0000001626000000
#020381:0000000016260000
#020320:0000000000162600
#020381:0000000000001626
#020320:0000000000000016
#021320:26
#0213a0:00000014
#021380:000000000000000000000000000000000000000000000000000000000000000000000000003400000000000000000000
#021360:000000000000000000000000000000000000003400240000
#0223b0:0000000013230000
#0223b0:000000000000000000000000000000000013000000000000
#022370:0000000000000023
#023320:0000000013230000
#023320:000000000000000000000000000000000013000000000000
#023360:0000000000000023
#0243b0:0000000013230000
#0243b0:000000000000000000000000000000000013000000000000
#024370:0000000000000023
#0263b0:0013
#026370:0000000000230000
#026370:000000000000000000000000000000000013000000000000
#0263b0:0000000000000023
#027320:0013
#027360:0000000000230000
#027360:000000000000000000000000000000000013000000000000
#027320:0000000000000023
#0283b0:0013
#028370:0000000000230000
#028370:000000000000000000000000000000000013000000000000
#0283b0:0000000000000023
#030350:13
#030320:00260000
#030381:00160000
#0303b1:0023
#031321:00162300
#032381:13260000
#032320:00162300
#033380:00160000
#0333b0:0023
#033321:0014
#033341:000000000000000000000000000000000000000000000000003400000000000000000000000000000000000000000000
#033361:000000000000000000000000003400000000240000000000
#034391:140000000000000000000000340054003400540034005400345555555555555534000000340000000000000000000000240000000000000000000000000000000000000000000000000000000000000000000000000000000000000000000000
#0343a1:005400540054005400540054000000000000000000000000000000000000000000000000000054005400540054005400000000000000000000000000000000000000000000000000000000000000000000000000000000000000000000000000
#034381:000000005400000054000000540000005400000054000000000056000000560000005600000056000000560000005600005500550055005500550055005500550000000000000000000054000000540000005400000054000000540000005400000000000000000000000000000000000000000000000000000000000000000000000000000000000000000000000000000000000000000000000000000000000000000000000000000000000000000000000000000000000000000000000000
#034320:000000000000000000000000000000000000000000000000125252525252220000000000000000000000000000000000
#034330:000000000000000000000000000000000000000000000000000000000000000000000000000000000000000000000000005200520052005200520052000000000000000000000000000000000000000000000000000000000000000000000000
#0343c1:000000000000000000000000000000000000000000000000000000000000125252525252220000000000000000000000
#0343b1:000000000000000000000000000000000000000000000000000000000000000000000000000000000000000000000000000000000000000000000000005200520052005200520052000000000000000000000000000000000000000000000000
#034340:000000000000000000000000000000000000000000000000000000000000000000000000145454545454240000000000
#034330:000000000000000000000000000000000000000000000000000000000000000000000000000000000000000000000000000000000000000000000000000000000000000000000000005400540054005400540054000000000000000000000000
#034381:000000000000000000000000000000000000000000000000000000000000000000000000000000000000145454545454
#034391:000000000000000000000000000000000000000000000000000000000000000000000000000000000000000000000000000000000000000000000000000000000000000000000000000000000000000000000000005400540054005400540054
#035381:24
#035330:140000000000000000000000000000000000000000000000340000005400000034000000540000003400000054000000345500550055005500550055005500553400000000000000340000000000000000000000000000000000000000000000240000000000000000000000000000000000000000000000000000000000000000000000000000000000000000000000000000000000000000000000000000000000000000000000000000000000000000000000000000000000000000000000
#035320:005400540054005400540054005600560056005600560056005555555555555500000000000054005400540054005400000000000000000000000000000000000000000000000000000000000000000000000000000000000000000000000000
#035340:000054005400540054005400000000000000000000000000000000000000000000000000005400540054005400540054000000000000000000000000000000000000000000000000000000000000000000000000000000000000000000000000
#035391:0000000013230000
#035381:000000000000000000000000000000000000000000000000000000000000000000000000000000000000000000000000000000000000000000000000000000000000000000000000000000000000000000000000000000000000000000000000005300530053005300530053005300530053005300530053000000000000000000000000000000000000000000000000000000000000000000000000000000000000000000000000000000000000000000000000000000000000000000000000
#0353a1:000000000000000000000000000000000000000000000000000000000000000000000000000000000000000000000000005353535353535353535353000000000000000000000000000000000000000000000000000000000000000000000000
#035350:000000000000000000000000000000000000000000000000000000000000135353535353230000000000000000000000
#035340:000000000000000000000000000000000000000000000000000000000000000000000000000000000000000000000000000000000000000000000000005300530053005300530053000000000000000000000000000000000000000000000000
#036380:16
#0363a0:00240000
#044370:000000000013000000000000000000000000000000000000
#0443b0:002300
#044361:001300
#044321:000000000000000000000023000000000000000000000000
#0443b0:000000000000000000000013000000000000000000000000
#044370:0000000000230000
#044360:00000013
#044320:0000000000000023
#044371:0000000000000013
#0453b1:23
#045321:000000000013000000000000000000000000000000000000
#045361:002300
#0453b0:001300
#045370:000000000000000000000023000000000000000000000000
#045321:000000000000000000000013000000000000230000000000
#045361:000000000000000000000000000000000000000000000000000000000053000000000000000000000000000000000000
#046361:000000000013000000000000000000000000000000000000
#046321:002300
#046370:001300
#0463b0:000000000000000000000023000000000000000000000000
#046321:000000000000000000000013000000000000000000000000
#046361:0000000000230000
#0473b1:000000000013000000000000000000000000000000000000
#047371:002300
#047320:001300
#047360:000000000000000000000023000000000000000000000000
#0473b1:000000000000000000000013330033003300330033003300
#0473a1:000000000000000000000000003300330033003300330033
#0483b1:23
#048361:000000000013000000000000000000000000000000000000
#048321:002300
#048370:001300
#0483b0:000000000000000000000023000000000000000000000000
#048321:000000000000000000000013000000000000000000000000
#048361:0000000000230000
#0493b1:000000000000130000000023000000000000000000000000
#049371:000000000000000000000000000000000053000000000000000000000000000000000000000000000000000000000000
#049320:000000000000000000000013000000000000000000000000
#049360:0000000000230000
#0493b1:0000000000130023
#049360:0000000000001323
#051380:13000023
#0513b0:0000005300000000
#051351:13000023
#051321:0000005300000000
#052381:16
#0533c1:52
#054381:26
#054320:1626000000000000
#054381:0016260000000000
#054320:0000162600000000
#054381:0000001626000000
#054320:0000000016260000
#054381:0000000000162600
#054320:0000000000001626
#054381:0000000000000016
#055381:26
#055321:00000014
#055341:000000000000000000000000000000000000000000000000000000000000000000000000003400000000000000000000
#055361:000000000000000000000000000000000000003400240000
#056371:0000000013230000
#056321:000000000000000000000000000000000013000000000000
#056361:0000000000000023
#057361:0000000013230000
#0573b1:000000000000000000000000000000000013000000000000
#057371:0000000000000023
#058371:0000000013230000
#058321:000000000000000000000000000000000013000000000000
#058361:0000000000000023
#059361:120000000022000000000000000000000000000000000000
#059380:000000000012000000220000000000000000000000000000
#059361:0000001200220000
#060321:000000000000000000000013000000230000000000000000
#060351:000000000000000000000000000000000013000000000000
#060321:0000000000000023
#0613b1:000000000000000000000013000000230000000000000000
#061381:000000000000000000000000000000000013000000000000
#0613b1:0000000000000023
#062321:000000000000000000000013000000230000000000000000
#062351:000000000000000000000000000000000013000000000000
#062321:0000000000000023
#064361:0000001400000000
#0643a1:0000000000240000
#065361:0000001400000000
#065321:0000000000240000
#066361:0000001400240000
#066321:0054
#067361:0000001400240000
#0673a1:0054
#071321:0013
#071341:000000000000000000000000000000000000000000000000003300000000000000000000000000000000000000000000
#071351:000000000000000000000000003300000000230000000000
#0713b0:0013
#071390:000000000000000000000000000000000000000000000000003300000000000000000000000000000000000000000000
#071380:000000000000000000000000003300000000230000000000
#0723a0:125252525252220000000000000000000000000000000000000000000000000000000000000000000000000000000000
#0723b0:005200520052005200520052000000000000000000000000000000000000000000000000000000000000000000000000000000000000000000000000000000000000000000000000000000000000000000000000000000000000000000000000
#072341:000000000000125252220000000000000000000000000000000000000000000000000000000000000000000000000000
#072331:000000000000000000000000005200520052000000000000000000000000000000000000000000000000000000000000000000000000000000000000000000000000000000000000000000000000000000000000000000000000000000000000
#0723a0:000000000000000000125252220000000000000000000000000000000000000000000000000000000000000000000000
#0723b0:000000000000000000000000000000000000005200520052000000000000000000000000000000000000000000000000000000000000000000000000000000000000000000000000000000000000000000000000000000000000000000000000
#072360:000000000000000000000000000000000000125252525252220000000000000000000000000000000000000000000000
#072350:000000000000000000000000000000000000000000000000000000000000000000000000005200520052005200520052000000000000000000000000000000000000000000000000000000000000000000000000000000000000000000000000
#072381:00000000000000000000000000000000000000000000000000000000000000001252525252525252220000000000000000000000000000000000000000000000
#072391:0000000000000000000000000000000000000000000000000000000000000000000000000000000000000000000000000000000000000000000000000000000000520052005200520052005200520052000000000000000000000000000000000000000000000000000000000000000000000000000000000000000000000000
#072381:00000000000000000000001300002300
#072391:000000000000000000000000000000000000000000000000000000000000000000000000000000000000000000000000000000000000000000000000000000000000005300530053005300530053005300530053000000000000000000000000
#072371:000000000000000000000000000000000000000000000000000000000000000000005353535353535353000000000000
#072350:0000000000000013
#072340:000000000000000000000000000000000000000000000000000000000000000000000000000000000000000000000000000000000000000000000000000000000000000000000000000000000000000000000000005300530053005300530053
#072360:000000000000000000000000000000000000000000000000000000000000000000000000000000000000005353535353
#073350:23
#0733b1:125252525252220000000000000000000000000000000000000000000000000000000000000000000000000000000000
#0733c1:005200520052005200520052000000000000000000000000000000000000000000000000000000000000000000000000000000000000000000000000000000000000000000000000000000000000000000000000000000000000000000000000
#073331:000000000000000000000000125252525252220000000000000000000000000000000000000000000000000000000000
#073321:000000000000000000000000000000000000000000000000005200520052005200520052000000000000000000000000000000000000000000000000000000000000000000000000000000000000000000000000000000000000000000000000
#0733a1:000000000000000000000000000000000000000000000000125252525252220000000000000000000000000000000000
#0733b1:000000000000000000000000000000000000000000000000000000000000000000000000000000000000000000000000005200520052005200520052000000000000000000000000000000000000000000000000000000000000000000000000
#073341:000000000000000000000000000000000000000000000000000000000000000000000000125252525252220000000000
#073331:000000000000000000000000000000000000000000000000000000000000000000000000000000000000000000000000000000000000000000000000000000000000000000000000005200520052005200520052000000000000000000000000
#011980:000000000000000000000000000000000000000000000000000000000000000000000000000000000000000000000000000000000000000000000000000000000000000000000000000000000000000000000000000000000000000000000000000000000000000000000000000000000000000000000000000000000000000000000000000000000000000000000000000000000000000000000000000000000000000000000000000000000000000000000000000000000000000000000000000000000000000000000000000000000000000000000000000000000000000000000000000000000000000000000000000000000000000000000000000000000000000000000000000000000000000000000000000000000000000000000000000000000000000000000000000000000000000000000000000000000000000000000000000000000000000000000000000000000000000000000000000000000000000000000000000000000000000000000000000000000000000000000000000000000000000000000000000000000000000000000000000000000000000000000000000000000000000000000000000000000000000000000000000000000000000000000000000000000000000000000000000000000000000000000000000000000000000000000000000000000000000000000000000000000000000000000000000000000000000000000000000000000000000000000000000000000000000000000000000000000000000000000000000000000000000000000000000000000000000000000000000000000000000000000000000000000000000000000000000000000000000000000000000000000000000000000000000000000000000000000000000000000000000000000000000000000000000000000000000000000000000000000000000000000000000000000000000000000000000000000000000000000000000000000000000000000000000000000000000000000000000000000000000000000000000000000000000000000000000000000000000000000000000000000000000000000000000000000000000000000000000000000000000000000000000000000000000000000000000000000000000000000000000000000000000000000000000000000000000000000000000000000000000000000000000000000000000000000000000000000000000000000000000000000000000000000000000000000000000000000000000000000000000000000000000000000000000000000000000000000000000000000000000000000000130000000000000000000000000000000000000000000000000000000000000000000000000000000000000000000000000000000000000000000000000000000000000000000000000000000000000000000000000000000000000000000000000000000000000000000000000000000000000000000000000000000000000000000000000000000000000000000000000000000000000000000000000000000000000000000000000000000000000000000000000000000000000000000000000000000000000000000000000000000000000000000000000000000000000000000000000000000000000000000000000000000000000000000000000000000000000000000000000000000000000000000000000000000000000000000000000000000000000000000000000000000000000000000000000000000000000000000000000000000000000000000000000000000000000000000000000000000000000000000000000000000000000000000000000000000000000000000000000000000000000000000000000000000000000000000000000000000000000000000000000000000000000000000000000000000000000000000000000000000000000000000000000000000000000000000000000000000000000000000000000000000000000000000000000000000000000000000000000000000000000000000000000000000000000000000000000000000000000000000000000000000000000000000000000000000000000000000000000000000000000000000000000000000000000000000000000000000000000000000000000000000000000000000000000000000000000000000000000000000000000000000000000000000000000000000000000000000000000000000000000000000000000000000000000000000000000000000000000000000000000000000000000000000000000000000000000000000000000000000000000000000000000000000000000000000000000000000000000000000000000000000000000000000000000000000000000000000000000000000000000000000000000000000000000000000000000000000000000000000000000000000000000000000000000000000000000000000000000000000000000000000000000000000000000000000000000000000000000000000000000000000000000000000000000000000000000000000000000000000000000000000000000000000000000000000000000000000000000000000000000000000000000000000000000000000000000000000000005353535353
#0119b0:000000000000000000000000000000000053000000530000
#012980:23
#015950:000000000000000000000000000000000000000000000000000000000000000000000000000000000000000000000000000000000000000000000000000000000000000000000000000000000000000000000000000000000000000000000000000000000000000000000000000000000000000000000000000000000000000000000000000000000000000000000000000000000000000000000000000000000000000000000000000000000000000000000000000000000000000000000000000000000000000000000000000000000000000000000000000000000000000000000000000000000000000000000000000000000000000000000000000000000000000000000000000000000000000000000000000000000000000000000000000000000000000000000000000000000000000000000000000000000000000000000000000000000000000000000000000000000000000000000000000000000000000000000000000000000000000000000000000000000000000000000000000000000000000000000000000000000000000000000000000000000000000000000000000000000000000000000000000000000000000000000000000000000000000000000000000000000000000000000000000000000000000000000000000000000000000000000000000000000000000000000000000000000000000000000000000000000000000000000000000000000000000000000000000000000000000000000000000000000000000000000000000000000000000000000000000000000000000000000000000000000000000000000000000000000000000000000000000000000000000000000000000000000000000000000000000000000000000000000000000000000000000000000000000000000000000000000000000000000000000000000000000000000000000000000000000000000000000000000000000000000000000000000000000000000000000000000000000000000000000000000000000000000000000000000000000000000000000000000000000000000000000000000000000000000000000000000000000000000000000000000000000000000000000000000000000000000000000000000000000000000000000000000000000000000000000000000000000000000000000000000000000000000000000000000000000000000000000000000000000000000000000000000000000000000000000000000000000000000000000000000000000000000000000000000000000000000000000000000000000000000000000000000000130000000000000000000000000000000000000000000000000000000000000000000000000000000000000000000000000000000000000000000000000000000000000000000000000000000000000000000000000000000000000000000000000000000000000000000000000000000000000000000000000000000000000000000000000000000000000000000000000000000000000000000000000000000000000000000000000000000000000000000000000000000000000000000000000000000000000000000000000000000000000000000000000000000000000000000000000000000000000000000000000000000000000000000000000000000000000000000000000000000000000000000000000000000000000000000000000000000000000000000000000000000000000000000000000000000000000000000000000000000000000000000000000000000000000000000000000000000000000000000000000000000000000000000000000000000000000000000000000000000000000000000000000000000000000000000000000000000000000000000000000000000000000000000000000000000000000000000000000000000000000000000000000000000000000000000000000000000000000000000000000000000000000000000000000000000000000000000000000000000000000000000000000000000000000000000000000000000000000000000000000000000000000000000000000000000000000000000000000000000000000000000000000000000000000000000000000000000000000000000000000000000000000000000000000000000000000000000000000000000000000000000000000000000000000000000000000000000000000000000000000000000000000000000000000000000000000000000000000000000000000000000000000000000000000000000000000000000000000000000000000000000000000000000000000000000000000000000000000000000000000000000000000000000000000000000000000000000000000000000000000000000000000000000000000000000000000000000000000000000000000000000000000000000000000000000000000000000000000000000000000000000000000000000000000000000000000000000000000000000000000000000000000000000000000000000000000000000000000000000000000000000000000000000000000000000000000000000000000000000000000000000000000000000000000000000000000000000000005353535353
#015920:000000000000000000000000000000000053000000530000
#016950:23
#074960:140000000000005200000000000000000052000000000000000000000000000000000000000000000000000000000000
#074970:000000000000000000000000520000000000005200000000520000000052000052000000005200000000000000000000000000000000000000000000000000000000000000000000220000000000000000000000000000000000000000000000
#074990:000000000000000000000000005200000000520000000000000000520000000000000000000000000000000000000000000000000000000000000000000000000000000000000000000000000000000000000000000000000000000000000000
#074980:000000000000000000000000000000520000000000000000005200000000000000000000520000000000000000000000000000000000000000000000000000000000000000000000000000000000000000000000000000000000000000000000
#074950:000000000000000000000000000000000052000000000000000052000000000000000000000000000000000000000000000000000000000000000000000000000000000000000000000000000000000000000000000000000000000000000000
