This file was generated by Ched 2.7.0.0.
#TITLE " "
#ARTIST ""
#DESIGNER ""
#DIFFICULTY 0
#PLAYLEVEL
#SONGID ""
#WAVE ""
#WAVEOFFSET 0
#JACKET ""
#REQUEST "ticks_per_beat 480"
#00002: 4
#BPM01: 150
#00008: 01
#TIL00: ""
#VOLUME: ""
#HISPEED 00
#MEASUREHS 00
#00017:12120000
#00016:0014
#00117:0012000000000000
#00118:00120000
#00119:0000001200000000
#00214:12
#00217:0012000000000000
#00216:00120000
#00215:0000001200000000
#0031a:12
#00317:0012000000000000
#00318:00120000
#00319:0000001200000000
#00414:1200000000120000
#00417:0012000000000000
#00416:00120000
#00415:0000001200000000
#0041a:0000000000120000
#00418:00000026
#00412:00000026
#00517:0013000000000000
#00518:00130000
#00519:0000001300000000
#0051a:2400000014000014
#00516:00000000000000000000001400000000
#00512:24000000240000002400002400002400
#00510:41
#00616:00001300000000000000001400000000
#00615:00130000
#00614:0000001300000000
#00612:2400000014000014
#0061a:24000000240000002400002400002400
#00717:0013000000000000
#00718:00130000
#00719:0000001300000000
#0071a:2400000014000014
#00716:00000000000000000000001400000000
#00712:24000000240000002400002400002400
#00917:13
#0091b:00001300000000001300001300000000
#00916:0000131300130000
#00912:1300000000000013
#01017:0000131300001300
#01019:0000000000000013
#01016:13
#0101b:13
#01012:0013000000000000
#0121b:1212
#01213:00120000
#01217:12121200
#01219:00000022
#01215:00000022
#01317:13
#01318:0013000000000000
#01319:00130000
#0131a:0000001300000000
#01316:0000001300001300
#01314:00000013000000000000000000000000
#01312:13
#0131b:0000000000000013
#0141b:13
#01416:13
#01419:00000013000000000000000000001300
#01417:0000001300001300
#01415:0013000000000000
#01414:00130000
#01413:0000001300000000
#0111b:1300000000000013
#01116:13
#01112:00001300000000001300001300000000
#01117:0000131300130000
#01616:0000230014140000
#01617:23
#01612:00000025
#01619:00000025
#01716:0013001300000024
#01715:0000000000130000
#01713:00000000000000000000000000130000
#0171a:24242400
#01712:24
#01718:00000000000000000000002400000000
#01710:41
#01817:0013001300000000
#01818:0000000000130000
#0181a:00000000000000000000000000130000
#01812:24242400
#01814:00000000000000000000002400000000
#01816:0000000000000024
#01916:0013001300000024
#01915:0000000000130000
#01913:00000000000000000000000000130000
#0191a:24242400
#01918:00000000000000000000002400000000
#02012:1400000000140000
#02016:00140014
#0201a:0000000014000014
#02117:0013001300000000
#02118:0000000000130000
#0211a:24000000000000000000000000130000
#02112:24242400
#02114:00000000000000000000002400000000
#02116:0000000000000024
#02216:0013001300000024
#02215:0000000000130000
#02213:00000000000000000000000000130000
#0221a:24242400
#02212:24
#02218:00000000000000000000002400000000
#02416:2300000014140000
#02417:00230000
#02419:00000025
#02412:00000025
#02515:00000013
#02512:0000000000000013
#0251b:2300000000000023
#02518:00000023
#02510:41
#02712:1313
#02715:0000130000000013
#02713:0000000000130000
#02714:00000013
#0271b:2323
#02718:0000230000000023
#0271a:0000000000230000
#02719:00000023
#02812:1300000000000013
#02815:0000001313000000
#0281b:2300000000000023
#02818:0000002323000000
#02912:130000000000000000000000000000000000000000000000000000000000000000000000000000000000000000000000000000000000000000000000000000000000000000000000000000000000000000000000000000000000000000000000000000000000000000000000000000000000000000000000000000000000000000000000000000000000000000000000000000000000000000000000000000000000000000000000000000000000000000000000000000000000000000000000000000000000000000000000000000000000000000000000000000000000000000000000000000000000000000000000000000000000000000000000000000000000000000000000000000000000000000000000000000000000000000000000000000000000000000000000000000000000000000000000000000000000000000000000000000000000000000000000000000000000000000000000000000000000000000000000000000000000000000000000000000000000000000000000000000000000000000000000000000000000000000000000000000000000000000000000000000000000000000000000000000000000000000000000000000000000000000000000000000000000000000000000000000000000000000000000000000000000000000000000000000000000000000000000000000000000000000000000000000000000000000000000000000000000000000000000000000000000000000000000000000000000000000000000000000000000000000000000000000000000000000000000000000000000000000000000000000000000000000000000000000000000000000000000000000000000000000000000000000000000000000000000000000000000000000000000000000000000000000000000000000000000000000000000000000000000000000000000000000000000000000000000000000000000000000000000000000000000000000000000000000000000000000000000000000000000000000000000000000000000000000000000000000000000000000000000000000000000000000000000000000000000000000000000000000000000000000000000000000000000000000000000000000000000000000000000000000000000000000000000000000000000000000000000000000000000000000000000000000000000000000000000000000000000000000000000000000000000000000000000000000000000000000000000000000000000000000000000000000000000000000000000000000000000000000000000000000000000000000000000000000000000000000000000000000000000000000000000000000000000000000000000000000000000000000000000000000000000000000000000000000000000000000000000000000000000000000000000000000000000000000000000000000000000000000000000000000000000000000000000000000000000000000000000000000000000000000000000000000000000000000000000000000000000000000000000000000000000000000000000000000000000000000000000000000000000000000000000000000000000000000000000000000000000000000000000000000000000000000000000000000000000000000000000000000000000000000000000000000000000000000000000000000000000000000000000000000000000000000000000000000000000000000000000000000000000000000000000000000000000000000000000000000000000000000000000000000000000000000000000000000000000000000000000000000000000000000000000000000000000000000000000000000000000000000000000000000000000000000000000000000000000000000000000000000000000000000000000000000000000000000000000000000000000000000000000000000000000000000000000000000000000000000000000000000000000000000000000000000000000000000000000000000000000000000000000000000000000000000000000000000000000000000000000000000000000000000000000000000000000000000000000000000000000000000000000000000000000000000000000000000000000000000000000000000000000000000000000000000000000000000000000000000000000000000000000000000000000000000000000000000000000000000000000000000000000000000000000000000000000000000000000000000000000000000000000000000000000000000000000000000000000000000000000000000000000000000000000000000000000000000000000000000000000000000000000000000000000000000000000000000000000000000000000000000000000000000000000000000000000000000000000000000000000000000000000000000000000000000000000000000000000000000000000000000000000000000000000000000000000000000000000000000000000000000000000000000000000000000000000000000000000000000000000000000000000000000000000000000000000000000000000000000000000000000000086
#02915:00130000
#02918:00130000
#0291b:23
#03212:16000000260000001600002600001600
#03218:26000000160000002600001600002600
#03318:16260026
#03312:26162600
#03415:13000000000000000000001300001300
#0341b:2313
#03412:0013
#03418:00000023
#03410:41
#03512:1313
#0351b:1313
#03518:00000013000013000000000013000000
#03515:0000230000000013
#0371a:14141400
#03712:14141400
#03715:0013000000000000
#03718:0000001300001400
#03714:0000000000000014
#0381a:14141453
#03812:2414
#03818:0000000000130013
#03815:00000013
#03819:00000000000000000000005300000000
#03912:1414
#0391a:0014
#03915:0013001300000000
#03918:0000130000000014
#03914:00000053000000000000000014000000
#03913:00530000
#04118:00131300
#04115:0013001300130000
#04112:14000024
#0411a:00000024
#04114:00000053000000000000000000000000
#04113:00530000
#04217:1313
#04219:00000023000000000000002300000000
#0421b:0000002300000023
#04416:1313
#04414:00000023000000000000002300000000
#04412:0000002300000023
#04317:23002313
#04319:0023002300000013
#0431b:00230000
#04619:1212120000000000
#04615:0000001200002200
#04617:0000000012000022
#0461f:11
#04912:0014
#04916:24240000
#0491a:0024
#05115:24000014000014002400000000000000
#0511a:24242400
#05113:00000000000000000000003400000000
#0531a:0014240000000000
#05312:2400001400000000
#05317:24
#05318:0000000024242400
#05314:00000000000000000024002400000000
#05315:00240000
#05417:1414
#0541b:00000000000000000000001300001300
#05412:2414
#05415:00000024
#0541f:21
#05512:00000013000013000000000000000000
#0551a:0014
#05515:0014
#05514:00000014
#05518:0000000000000014
#05519:14
#05513:14
#05517:00240000
#05510:41
#05714:14141400
#05718:14141400
#0571b:0013000000000000
#05712:0000001300000000
#0571a:00000014
#05716:0000000000000014
#05615:1414
#05612:00000000000000000000001300001300
#0561a:2414
#05617:00000024
#05812:14141400
#0581a:2414
#05815:0000000000131300
#05818:00000000000000000000001300001300
#0591a:1414
#05912:14001414
#05918:0013130000000000
#05915:00000013000013000000000000000000
#05916:0000000000000014
#06112:1400001300000013
#0611a:14
#06115:00001300130000000013001300000000
#06118:00000013000000001300130026000000
#06012:2414
#0601a:14141400
#06018:0000000000131300
#06015:00000000000000000000001300001300
#03618:13000000000000000000001300001300
#03612:2313
#0361b:0013
#03615:00000023
#0401a:24001453
#04012:14141400
#04018:0000000000130013
#04015:00000013
#04019:00000000000000000000005300000000
#0621b:13000023
#06216:1300000000000013
#06217:0000001313000000
#06212:00231300
#0631b:13000023
#06316:1300000000000013
#06317:0000001313000000
#06312:00231300
#06416:13000023
#0641b:1300000000000013
#06412:0000001313000000
#06417:00231300
#06516:13000023
#0651b:1300000000000013
#06512:0000001313000000
#06517:00231300
#0661b:13000023
#06616:1300000000000013
#06617:0000001313000000
#06612:00231300
#0671b:13000023
#06716:1300000000000013
#06717:0000001313000000
#06712:00231300
#06816:13000023
#0681b:1300000000000013
#06812:0000001313000000
#06817:00231300
#06912:1400000014000013
#06917:1313
#0691a:00140000
#06916:00130000
#06919:0000000000130000
#06914:00000000000000000000001300000000
#06915:00000026
#07016:1400230000005314
#07012:1313
#0701b:0000001300002300
#07010:41
#07013:00000000000000000053000000000000
#07014:0000000000530000
#07015:00000000000000000000005300000000
#07116:1400000000000014
#0711b:1313
#07112:0000001300002300
#07117:00230053
#0711a:00000000000000000053000000000000
#07119:0000000000530000
#07118:00000000000000000000005300000000
#07216:14231324
#07212:13000053
#0721b:0000001300000000
#07219:0000000000000013
#07215:00000000000000000053000000000000
#07214:0000000000530000
#07213:00000000000000000000005300000000
#07316:14000024
#0731b:13000053
#07312:0000001300000000
#07314:0000000000000013
#07317:00231300
#07318:00000000000000000053000000000000
#07319:0000000000530000
#0731a:00000000000000000000005300000000
#07416:14230000
#07412:1300000013132300
#0741b:0000001300000000
#07417:00000000000000000013001300000000
#07419:0000000000000013
#07516:14000000000000000013001300000000
#0751b:1300000013132300
#07512:0000001300000000
#07514:0000000000000013
#07517:00230000
#07616:14230000
#07612:13000000000013000013001300000000
#07619:0000000000000013
#07617:0000000013132300
#0771b:1313
#07714:0013000000130000
#07712:00000000130000000000000000260026
#07719:0000001300000000
#07716:24242400
#07718:0000000000002626
#03012:2c0000002c0000002c00002c00002c00
#03112:2c0000002c0000002c00002c00002c00
#00812:2400240024242400
#0081a:2400240024242400
#0151b:23
#01516:00230000
#01519:0023
#01514:00000023
#02312:23
#02317:00230000
#02314:0023
#02319:00000023
#02618:23
#04516:2323
#04514:0023002300000000
#04512:00230023
#0451b:00000023
#04719:2222222200000000
#04715:0022
#04818:0024
#04813:00000024
#0481a:24
#04815:00240000
#05012:24242400
#0501a:24242400
#05014:00000000000000000000003400000000
#05212:24242400
#0521a:24242400
#05218:00000000000000000000003400000000
#00056:0014
#00458:00000016
#0045a:0000000000220000
#00454:0000000000220000
#00452:00000016
#00852:00000014
#0085a:00000014
#0095b:00000000000000000000006300000000
#01052:00000013
#0125b:0012
#01457:0000001300000000
#01452:00000013
#01356:0000001300000000
#01152:00000000000000000000005300000000
#01657:63
#01656:00530000
#01652:00000015
#01659:00000015
#02052:14
#02056:00140000
#0205a:0014
#02456:53
#02457:00630000
#02459:00000015
#02452:00000015
#0285b:63
#02852:63
#02855:0063
#02858:0063
#02958:00230016
#02952:63000016
#02955:00230000
#0295b:63
#03352:36000036
#03358:00460046
#0345b:63
#03452:00130000
#03458:00130000
#03455:63
#03552:0013
#0355b:0013
#0375a:1414
#03752:00141400
#03758:00000014
#03754:0000000000000014
#03852:64
#0385a:14
#03952:0014
#0395a:0014
#03954:00000014
#03958:0000000000000014
#04152:00000014
#0415a:00000014
#04257:1313
#04357:0013
#04456:1313
#04556:0013
#0455b:00000013
#04552:00000013
#04853:16
#04857:00000014
#04859:00140000
#04854:0014
#04755:0022
#04952:14002416
#04956:64540000
#04958:00000016
#0495a:00142400
#05457:54
#05452:54
#05455:00140000
#0545a:00140000
#0555a:0014
#05555:0014
#05754:1414
#05758:00141400
#0575a:00000014
#05756:0000000000000014
#05655:64
#0565a:64
#05657:00140000
#05652:00140000
#0595a:0014
#05952:00001414
#05956:0000000000000014
#0585a:54
#05852:14
#06158:00000016
#05358:00000014
#03658:53
#03652:53
#03655:00130000
#0365b:00130000
#0625b:63
#06256:13
#06252:0053
#06257:0013
#06356:13
#06357:0013
#0635b:63
#06352:0063
#06456:63
#0645b:13
#06457:0053
#06452:0013
#0655b:13
#06552:0013
#06556:63
#06557:0063
#06656:13
#06657:0013
#0665b:23
#06652:0023
#06756:13
#06757:0013
#0675b:23
#06752:0023
#0685b:13
#06852:0013
#06856:23
#06857:0023
#06952:1414
#0695a:00140000
#06955:00000016
#07056:64
#07052:13
#07156:54
#0715b:13
#07256:64
#07252:13
#07356:54
#0735b:13
#07452:13
#07456:24
#0755b:13
#07556:24
#07652:13
#07656:24
#0775b:1313
#07752:00130000
#04052:14
#0405a:54
#0605a:14
#06052:64
#001340:12003222
#0013a1:00000000000000001200003200003200
#0023a1:32003222
#002340:00000000000000001200003200003200
#003340:32003222
#0033a1:00000000000000001200003200003200
#0043a1:0000000032520000
#004381:00000026
#004340:0000000012520000
#004320:00000026
#0093b0:00000000000000000000001300000000
#009370:0000000000000023
#010320:00001323
#011320:00000000000000000000001300000000
#011360:0000000000000023
#0133b0:00001323
#014320:00001323
#0153b0:13
#0153a0:00230000
#015361:00130000
#015351:0023
#015390:0013
#015380:00000023
#015341:00000013
#016331:23
#016370:13
#0163b0:00230000
#016361:00130000
#016321:0023
#023321:13
#023331:00230000
#023370:00130000
#023380:0023
#023341:0013
#023351:00000023
#023390:00000013
#0243a0:23
#024361:13
#024321:00230000
#024370:00130000
#0243b0:0023
#025320:1323
#025350:00330000
#0253b1:1323
#025381:00330000
#026381:13003323
#0263b1:00330000
#026350:13003323
#026320:00330000
#0283b0:13
#028380:00230000
#028321:13
#028351:00230000
#028381:0013
#0283b1:00000023
#028350:0013
#028320:00000023
#0293b0:13
#029380:00530026
#029321:13000026
#029351:00530000
#033321:00001626
#033380:00001626
#0343b0:13
#034380:00230000
#034351:13
#034321:00230000
#036321:13
#036351:00230000
#036380:13
#0363b0:00230000
#038320:14
#038360:00230000
#0403a0:14
#040370:00230000
#042320:13333333
#043320:33333323
#0443b0:13333333
#0453b0:33333323
#047350:0012
#048330:26
#0483a1:14
#048391:00240000
#048350:00140000
#048340:0024
#048381:0014
#048371:00000024
#048330:00000014
#049320:24
#049361:14
#0493a1:00240000
#049360:00140000
#049320:00003426
#0493a1:0014
#049381:00000026
#0503a1:00000000000000001400003400002400
#050320:0014
#050340:00000000000000000000003400000000
#050350:0000000000000024
#051350:0014
#051330:00000000000000000000003400000000
#051320:0000000000000024
#0513a1:00000000000000001400003400002400
#052321:00000000000000001400003400002400
#0523a0:0014
#052380:00000000000000000000003400000000
#052370:0000000000000024
#054320:14
#054350:00240000
#054371:14
#0543a1:00240000
#0563a1:14
#056371:00240000
#056350:14
#056320:00240000
#0583a0:14
#058370:00230000
#060320:14
#060360:00230000
#0623b0:13
#062370:00230000
#062320:0013
#062360:00000023
#0633b0:13
#063370:00230000
#063320:0013
#063360:00000023
#064360:13
#064320:00230000
#064370:0013
#0643b0:00000023
#065360:13
#065320:00230000
#065370:0013
#0653b0:00000023
#0663b0:13
#066370:00230000
#066320:0013
#066360:00000023
#0673b0:13
#067370:00230000
#067320:0013
#067360:00000023
#068360:13
#068320:00230000
#068370:0013
#0683b0:00000023
#070360:14
#0703b0:00230000
#071360:14
#071320:00230000
#072360:14
#0723b0:00230000
#073360:14
#073320:00230000
#074360:14
#0743b0:00230000
#075360:14
#075320:00230000
#076360:14
#0763b0:00230000
#038980:0000000000130000
#0389a0:000000000000000000000000000000000000000000000000000000000000000000000000000000000000000000000000000000000000000000000000000000000000000000000000000000000000000000000000000000000000000000000000000000000000000000000000000000000000000000000000000000000000000000000000000000000000000000000000000000000000000000000000000000000000000000000000000000000000000000000000000000000000000000000000000000000000000000000000000000000000000000000000000000000000000000000000000000000000000000000000000000000000000000000000000000000000000000000000000000000000000000000000000000000000000000000000000000000000000000000000000000000000000000000000000000000000000000000000000000000000000000000000000000000000000000000000000000000000000000000000000000000000000000000000000000000000000000000000000000000000000000000000000000000000000000000000000000000000000000000000000000000000000000000000000000000000000000000000000000000000000000000000000000000000000000000000000000000000000000000000000000000000000000000000000000000000000000000000000000000000000000000000000000000000000000000000000000000000000000000000000000000000000000000000000000000000000000000000000000000000000000000000000000000000000000000000000000000000000000000000000000000000000000000000000000000000000000000000000000000000000000000000000000000000000000000000000000000000000000000000000000000000000000000000000000000000000000000000000000000000000000000000000000000000000000000000000000000000000000000000000000000000000000000000000000000000000000000000000000000000000000000000000000000000000000000000000000000000000000000000000000000000000000000000000000000000000000000000000000000000000000000000000000000000000000000000000000000000000000000000000000000000000000000000000000000000000000000000000000000000000000000000000000000000000000000000000000000000000000000000000000000000000000000000000000000000000000000000000000000000000000000000000000000000000000000000000000000000000000000000000000000000000000000000000000000000000000000000000000000000000000000000000000000000000000000000000000000000000000000000000000000000000000000000000000000000000000000000000000000000000000000000000000000000000000000000000000000000000000000000000000000000000000000000000000000000000000000000000000000000000000000000000000000000000000000000000000000000000000000000000000000000000000000000000000000000000000000000000000000000000000000000000000000000000000000000000000000000000000000000000000000000000000000000000000000000000000000000000000000000000000000000000000000000000000000000000000000000000000000000000000000000000000000000000000000000000000000000000000000000000000000000000000000000000000000000000000000000000000000000000000000000000000000000000000000000000000000000000000000000000000000000000000000000000000000000000000000000000000000000000000000000000000000000000000000000000000000000000000000000000000000000000000000000000000000000000000000000000000000053230000000000000000000000000000000000000000000000000000000000000000000000000000000000000000000000000000000000000000000000000000000000000000000000000000000000000000000000000000000000000000000000000000000000000000000000000000000000000000000000000000000000000000000000000000000000000000000000000000000000000000000000000000000000000000000000000000000000000000000000000000000000000000000000000000000000000000000000000000000000000000000000000000000000000000000000000000000000000000000000000000000000000000000000000000000000000000000000000000000000000000000000000000000000000000000000000000000000000000000000000000000000000000000000000000000000000000000000000000000000000000000000000000000000000000000000000000000000000000000000000000000000000000000000000000000000000000000000000000000000000000000000000000000000000000000000000000000000000000000000000000000000000000000000000000000000000000000000000000000000000000000000000000000000000000000000000000000000000000000000
#039950:0013000000000000
#039930:000000000000000000000000000000000000000000000000000000000000000000000000000000000000000000000000000000000000000000000000000000000000000000000000000000000000000000000000000000000000000000000000000000000000000000000000000000000000000000000000000000000000000000000000000000000000000000000000000000000000000000000000000000000000000000000000000000000000000000000000000000000000000000000000000000000000000000000000000000000000000000000000000000000000000000000000000000000000000000000000000000000000000000000000000000000000000000000000000000000000000000000000000000000000000000000000000000000000000000000000000000000000000000000000000000000000000000000000000000000000000000000000000000000000000000000000000000000000000000000000000000000000000000000000000000000000000000000000000000000000000000000000000000000000000000000000000000000000000000000000000000000000000000000000000000000000000000000000000000000000000000000000000000000000000000000000000000000000000000000053230000000000000000000000000000000000000000000000000000000000000000000000000000000000000000000000000000000000000000000000000000000000000000000000000000000000000000000000000000000000000000000000000000000000000000000000000000000000000000000000000000000000000000000000000000000000000000000000000000000000000000000000000000000000000000000000000000000000000000000000000000000000000000000000000000000000000000000000000000000000000000000000000000000000000000000000000000000000000000000000000000000000000000000000000000000000000000000000000000000000000000000000000000000000000000000000000000000000000000000000000000000000000000000000000000000000000000000000000000000000000000000000000000000000000000000000000000000000000000000000000000000000000000000000000000000000000000000000000000000000000000000000000000000000000000000000000000000000000000000000000000000000000000000000000000000000000000000000000000000000000000000000000000000000000000000000000000000000000000000000000000000000000000000000000000000000000000000000000000000000000000000000000000000000000000000000000000000000000000000000000000000000000000000000000000000000000000000000000000000000000000000000000000000000000000000000000000000000000000000000000000000000000000000000000000000000000000000000000000000000000000000000000000000000000000000000000000000000000000000000000000000000000000000000000000000000000000000000000000000000000000000000000000000000000000000000000000000000000000000000000000000000000000000000000000000000000000000000000000000000000000000000000000000000000000000000000000000000000000000000000000000000000000000000000000000000000000000000000000000000000000000000000000000000000000000000000000000000000000000000000000000000000000000000000000000000000000000000000000000000000000000000000000000000000000000000000000000000000000000000000000000000000000000000000000000000000000000000000000000000000000000000000000000000000000000000000000000000000000000000000000000000000000000000000000000000000000000000000000000000000000000000000000000000000000000000000000000000000000000000000000000000000000000000000000000000000000000000000000000000000000000000000000000000000000000000000000000000000000000000000000000000000000000000000000000000000000000000000000000000000000000000000000000000000000000000000000000000000000000000000000000000000000000000000000000000000000000000000000000000000000000000000000000000000000000000000000000000000000000000000000000000000000000000000000000000000000000000000000000000000000000000000000000000000000000000000000000000000000000000000000000000000000000000000000000000000000000000000000000000000000000000000000000000000000000000000000000000000000000000000000000000000000000000000000000000000000000000000000000000000000000000000000000000000000000000000000000000000000000000000000000000000000000000000000000000000000000000000000000000000000000000000000000000000000000000000000000000000000000000
#040980:0000000000130000
#0409a0:000000000000000000000000000000000000000000000000000000000000000000000000000000000000000000000000000000000000000000000000000000000000000000000000000000000000000000000000000000000000000000000000000000000000000000000000000000000000000000000000000000000000000000000000000000000000000000000000000000000000000000000000000000000000000000000000000000000000000000000000000000000000000000000000000000000000000000000000000000000000000000000000000000000000000000000000000000000000000000000000000000000000000000000000000000000000000000000000000000000000000000000000000000000000000000000000000000000000000000000000000000000000000000000000000000000000000000000000000000000000000000000000000000000000000000000000000000000000000000000000000000000000000000000000000000000000000000000000000000000000000000000000000000000000000000000000000000000000000000000000000000000000000000000000000000000000000000000000000000000000000000000000000000000000000000000000000000000000000000000000000000000000000000000000000000000000000000000000000000000000000000000000000000000000000000000000000000000000000000000000000000000000000000000000000000000000000000000000000000000000000000000000000000000000000000000000000000000000000000000000000000000000000000000000000000000000000000000000000000000000000000000000000000000000000000000000000000000000000000000000000000000000000000000000000000000000000000000000000000000000000000000000000000000000000000000000000000000000000000000000000000000000000000000000000000000000000000000000000000000000000000000000000000000000000000000000000000000000000000000000000000000000000000000000000000000000000000000000000000000000000000000000000000000000000000000000000000000000000000000000000000000000000000000000000000000000000000000000000000000000000000000000000000000000000000000000000000000000000000000000000000000000000000000000000000000000000000000000000000000000000000000000000000000000000000000000000000000000000000000000000000000000000000000000000000000000000000000000000000000000000000000000000000000000000000000000000000000000000000000000000000000000000000000000000000000000000000000000000000000000000000000000000000000000000000000000000000000000000000000000000000000000000000000000000000000000000000000000000000000000000000000000000000000000000000000000000000000000000000000000000000000000000000000000000000000000000000000000000000000000000000000000000000000000000000000000000000000000000000000000000000000000000000000000000000000000000000000000000000000000000000000000000000000000000000000000000000000000000000000000000000000000000000000000000000000000000000000000000000000000000000000000000000000000000000000000000000000000000000000000000000000000000000000000000000000000000000000000000000000000000000000000000000000000000000000000000000000000000000000000000000000000000000000000000000000000000000000000000000000000000000000000000000000000000000000000000000000000000000000053230000000000000000000000000000000000000000000000000000000000000000000000000000000000000000000000000000000000000000000000000000000000000000000000000000000000000000000000000000000000000000000000000000000000000000000000000000000000000000000000000000000000000000000000000000000000000000000000000000000000000000000000000000000000000000000000000000000000000000000000000000000000000000000000000000000000000000000000000000000000000000000000000000000000000000000000000000000000000000000000000000000000000000000000000000000000000000000000000000000000000000000000000000000000000000000000000000000000000000000000000000000000000000000000000000000000000000000000000000000000000000000000000000000000000000000000000000000000000000000000000000000000000000000000000000000000000000000000000000000000000000000000000000000000000000000000000000000000000000000000000000000000000000000000000000000000000000000000000000000000000000000000000000000000000000000000000000000000000000000000
#041950:0013000000000000
#041930:000000000000000000000000000000000000000000000000000000000000000000000000000000000000000000000000000000000000000000000000000000000000000000000000000000000000000000000000000000000000000000000000000000000000000000000000000000000000000000000000000000000000000000000000000000000000000000000000000000000000000000000000000000000000000000000000000000000000000000000000000000000000000000000000000000000000000000000000000000000000000000000000000000000000000000000000000000000000000000000000000000000000000000000000000000000000000000000000000000000000000000000000000000000000000000000000000000000000000000000000000000000000000000000000000000000000000000000000000000000000000000000000000000000000000000000000000000000000000000000000000000000000000000000000000000000000000000000000000000000000000000000000000000000000000000000000000000000000000000000000000000000000000000000000000000000000000000000000000000000000000000000000000000000000000000000000000000000000000000000053230000000000000000000000000000000000000000000000000000000000000000000000000000000000000000000000000000000000000000000000000000000000000000000000000000000000000000000000000000000000000000000000000000000000000000000000000000000000000000000000000000000000000000000000000000000000000000000000000000000000000000000000000000000000000000000000000000000000000000000000000000000000000000000000000000000000000000000000000000000000000000000000000000000000000000000000000000000000000000000000000000000000000000000000000000000000000000000000000000000000000000000000000000000000000000000000000000000000000000000000000000000000000000000000000000000000000000000000000000000000000000000000000000000000000000000000000000000000000000000000000000000000000000000000000000000000000000000000000000000000000000000000000000000000000000000000000000000000000000000000000000000000000000000000000000000000000000000000000000000000000000000000000000000000000000000000000000000000000000000000000000000000000000000000000000000000000000000000000000000000000000000000000000000000000000000000000000000000000000000000000000000000000000000000000000000000000000000000000000000000000000000000000000000000000000000000000000000000000000000000000000000000000000000000000000000000000000000000000000000000000000000000000000000000000000000000000000000000000000000000000000000000000000000000000000000000000000000000000000000000000000000000000000000000000000000000000000000000000000000000000000000000000000000000000000000000000000000000000000000000000000000000000000000000000000000000000000000000000000000000000000000000000000000000000000000000000000000000000000000000000000000000000000000000000000000000000000000000000000000000000000000000000000000000000000000000000000000000000000000000000000000000000000000000000000000000000000000000000000000000000000000000000000000000000000000000000000000000000000000000000000000000000000000000000000000000000000000000000000000000000000000000000000000000000000000000000000000000000000000000000000000000000000000000000000000000000000000000000000000000000000000000000000000000000000000000000000000000000000000000000000000000000000000000000000000000000000000000000000000000000000000000000000000000000000000000000000000000000000000000000000000000000000000000000000000000000000000000000000000000000000000000000000000000000000000000000000000000000000000000000000000000000000000000000000000000000000000000000000000000000000000000000000000000000000000000000000000000000000000000000000000000000000000000000000000000000000000000000000000000000000000000000000000000000000000000000000000000000000000000000000000000000000000000000000000000000000000000000000000000000000000000000000000000000000000000000000000000000000000000000000000000000000000000000000000000000000000000000000000000000000000000000000000000000000000000000000000000000000000000000000000000000000000000000000000000000000000000000000000000
#070920:0013
#070960:000000000000000000000000000000000000000000000000000000000000000000000000000000000000000000000000000000000000000000000000000000000000000000000000000000000000000000000000000000000000000000000000000000000000000000000000000000000000000000000000000000000000000000000000000000000000000000000000000000000000000000000000000000000000000000000000000000000000000000000000000000000000000000000000000000000000000000000000000000000000000000000000000000000000000000000000000000000000000000000000000000000000000000000000000000000000000000000000000000000000000000000000000000000000000000000000000000000000000000000000000000000000000000000000000000000000000000000000000000000000000000000000000000000000000000000000000000000000000000000000000000000000000000000000000000000000000000000000000000000000000000000000000000000000000000000000000000000000000000000000000000000000000000000000000000000000000000000000000000000000000000000000000000000000000000000000000000000000000000000000000000000000000000000000000000000000000000000000000000000000000000000000000000000000000000000000000000000000000000000000000000000000000000000000000000000000000000000000000000000000000000000000000000000000000000000000000000000000000000000000000000000000000000000000000000000000000000000000000000000000000000000000000000000000000000000000000000000000000000000000000000000000000000000000000000000000000000000000000000000000000000000000000000000000000000000000000000000000000000000000000000000000000000000000000000000000000000000000000000000000000000000000000000000000000000000000000000000000000000000000000000000000000000000000000000000000000000000000000000000000000000000000000000000000000000000000000000000000000000000000000000000000000000000000000000000000000000000000000000000000000000000000000000000000000000000000000000000000000000000000000000000000000000000000000000000000000000000000000000000000000000000000000000000000000000000000000000000000000000000000000000000000000000000000000000000000000000000000000000000000000000000000000000000000000000000000000000000000000000000000000000000000000000000000000000000000000000000000000000000000000000000000000000000000000000000000000000000000000000000000000000000000000000000000000000000000000000000000000000000000000000000000000000000000000000000000000000000000000000000000000000000000000000000000000000000000000000000000000000000000000000000000000000000000000000000000000000000000000000000000000000000000000000000000000000000000000000000000000000000000000000000000000000000000000000000000000000000000000000000000000000000000000000000000000000000000000000000000000000000000000000000000000000000000000000000000000000000000000000000000000000000000000000000000000000000000000000000000000000000000000000000000000000000000000000000000000000000000000000000000000000000000000000000000000000000000000000000000000000000000000000000000000000000000000000000000000000000000000000000053230000000000000000000000000000000000000000000000000000000000000000000000000000000000000000000000000000000000000000000000000000000000000000000000000000000000000000000000000000000000000000000000000000000000000000000000000000000000000000000000000000000000000000000000000000000000000000000000000000000000000000000000000000000000000000000000000000000000000000000000000000000000000000000000000000000000000000000000000000000000000000000000000000000000000000000000000000000000000000000000000000000000000000000000000000000000000000000000000000000000000000000000000000000000000000000000000000000000000000000000000000000000000000000000000000000000000000000000000000000000000000000000000000000000000000000000000000000000000000000000000000000000000000000000000000000000000000000000000000000000000000000000000000000000000000000000000000000000000000000000000000000000000000000000000000000000000000000000000000000000000000000000000000000000000000000000000000000000000000000000
#0719b0:0013
#071970:000000000000000000000000000000000000000000000000000000000000000000000000000000000000000000000000000000000000000000000000000000000000000000000000000000000000000000000000000000000000000000000000000000000000000000000000000000000000000000000000000000000000000000000000000000000000000000000000000000000000000000000000000000000000000000000000000000000000000000000000000000000000000000000000000000000000000000000000000000000000000000000000000000000000000000000000000000000000000000000000000000000000000000000000000000000000000000000000000000000000000000000000000000000000000000000000000000000000000000000000000000000000000000000000000000000000000000000000000000000000000000000000000000000000000000000000000000000000000000000000000000000000000000000000000000000000000000000000000000000000000000000000000000000000000000000000000000000000000000000000000000000000000000000000000000000000000000000000000000000000000000000000000000000000000000000000000000000000000000000000000000000000000000000000000000000000000000000000000000000000000000000000000000000000000000000000000000000000000000000000000000000000000000000000000000000000000000000000000000000000000000000000000000000000000000000000000000000000000000000000000000000000000000000000000000000000000000000000000000000000000000000000000000000000000000000000000000000000000000000000000000000000000000000000000000000000000000000000000000000000000000000000000000000000000000000000000000000000000000000000000000000000000000000000000000000000000000000000000000000000000000000000000000000000000000000000000000000000000000000000000000000000000000000000000000000000000000000000000000000000000000000000000000000000000000000000000000000000000000000000000000000000000000000000000000000000000000000000000000000000000000000000000000000000000000000000000000000000000000000000000000000000000000000000000000000000000000000000000000000000000000000000000000000000000000000000000000000000000000000000000000000000000000000000000000000000000000000000000000000000000000000000000000000000000000000000000000000000000000000000000000000000000000000000000000000000000000000000000000000000000000000000000000000000000000000000000000000000000000000000000000000000000000000000000000000000000000000000000000000000000000000000000000000000000000000000000000000000000000000000000000000000000000000000000000000000000000000000000000000000000000000000000000000000000000000000000000000000000000000000000000000000000000000000000000000000000000000000000000000000000000000000000000000000000000000000000000000000000000000000000000000000000000000000000000000000000000000000000000000000000000000000000000000000000000000000000000000000000000000000000000000000000000000000000000000000000000000000000000000000000000000000000000000000000000000000000000000000000000000000000000000000000000000000000000000000000000000000000000000000000000000000000000000000000000000000000000000000000000000053230000000000000000000000000000000000000000000000000000000000000000000000000000000000000000000000000000000000000000000000000000000000000000000000000000000000000000000000000000000000000000000000000000000000000000000000000000000000000000000000000000000000000000000000000000000000000000000000000000000000000000000000000000000000000000000000000000000000000000000000000000000000000000000000000000000000000000000000000000000000000000000000000000000000000000000000000000000000000000000000000000000000000000000000000000000000000000000000000000000000000000000000000000000000000000000000000000000000000000000000000000000000000000000000000000000000000000000000000000000000000000000000000000000000000000000000000000000000000000000000000000000000000000000000000000000000000000000000000000000000000000000000000000000000000000000000000000000000000000000000000000000000000000000000000000000000000000000000000000000000000000000000000000000000000000000000000000000000000000000000
#072960:0013
#072920:000000000000000000000000000000000000000000000000000000000000000000000000000000000000000000000000000000000000000000000000000000000000000000000000000000000000000000000000000000000000000000000000000000000000000000000000000000000000000000000000000000000000000000000000000000000000000000000000000000000000000000000000000000000000000000000000000000000000000000000000000000000000000000000000000000000000000000000000000000000000000000000000000000000000000000000000000000000000000000000000000000000000000000000000000000000000000000000000000000000000000000000000000000000000000000000000000000000000000000000000000000000000000000000000000000000000000000000000000000000000000000000000000000000000000000000000000000000000000000000000000000000000000000000000000000000000000000000000000000000000000000000000000000000000000000000000000000000000000000000000000000000000000000000000000000000000000000000000000000000000000000000000000000000000000000000000000000000000000000000000000000000000000000000000000000000000000000000000000000000000000000000000000000000000000000000000000000000000000000000000000000000000000000000000000000000000000000000000000000000000000000000000000000000000000000000000000000000000000000000000000000000000000000000000000000000000000000000000000000000000000000000000000000000000000000000000000000000000000000000000000000000000000000000000000000000000000000000000000000000000000000000000000000000000000000000000000000000000000000000000000000000000000000000000000000000000000000000000000000000000000000000000000000000000000000000000000000000000000000000000000000000000000000000000000000000000000000000000000000000000000000000000000000000000000000000000000000000000000000000000000000000000000000000000000000000000000000000000000000000000000000000000000000000000000000000000000000000000000000000000000000000000000000000000000000000000000000000000000000000000000000000000000000000000000000000000000000000000000000000000000000000000000000000000000000000000000000000000000000000000000000000000000000000000000000000000000000000000000000000000000000000000000000000000000000000000000000000000000000000000000000000000000000000000000000000000000000000000000000000000000000000000000000000000000000000000000000000000000000000000000000000000000000000000000000000000000000000000000000000000000000000000000000000000000000000000000000000000000000000000000000000000000000000000000000000000000000000000000000000000000000000000000000000000000000000000000000000000000000000000000000000000000000000000000000000000000000000000000000000000000000000000000000000000000000000000000000000000000000000000000000000000000000000000000000000000000000000000000000000000000000000000000000000000000000000000000000000000000000000000000000000000000000000000000000000000000000000000000000000000000000000000000000000000000000000000000000000000000000000000000000000000000000000000000000000000000000000000000000000053230000000000000000000000000000000000000000000000000000000000000000000000000000000000000000000000000000000000000000000000000000000000000000000000000000000000000000000000000000000000000000000000000000000000000000000000000000000000000000000000000000000000000000000000000000000000000000000000000000000000000000000000000000000000000000000000000000000000000000000000000000000000000000000000000000000000000000000000000000000000000000000000000000000000000000000000000000000000000000000000000000000000000000000000000000000000000000000000000000000000000000000000000000000000000000000000000000000000000000000000000000000000000000000000000000000000000000000000000000000000000000000000000000000000000000000000000000000000000000000000000000000000000000000000000000000000000000000000000000000000000000000000000000000000000000000000000000000000000000000000000000000000000000000000000000000000000000000000000000000000000000000000000000000000000000000000000000000000000000000000
#073970:0013
#0739b0:000000000000000000000000000000000000000000000000000000000000000000000000000000000000000000000000000000000000000000000000000000000000000000000000000000000000000000000000000000000000000000000000000000000000000000000000000000000000000000000000000000000000000000000000000000000000000000000000000000000000000000000000000000000000000000000000000000000000000000000000000000000000000000000000000000000000000000000000000000000000000000000000000000000000000000000000000000000000000000000000000000000000000000000000000000000000000000000000000000000000000000000000000000000000000000000000000000000000000000000000000000000000000000000000000000000000000000000000000000000000000000000000000000000000000000000000000000000000000000000000000000000000000000000000000000000000000000000000000000000000000000000000000000000000000000000000000000000000000000000000000000000000000000000000000000000000000000000000000000000000000000000000000000000000000000000000000000000000000000000000000000000000000000000000000000000000000000000000000000000000000000000000000000000000000000000000000000000000000000000000000000000000000000000000000000000000000000000000000000000000000000000000000000000000000000000000000000000000000000000000000000000000000000000000000000000000000000000000000000000000000000000000000000000000000000000000000000000000000000000000000000000000000000000000000000000000000000000000000000000000000000000000000000000000000000000000000000000000000000000000000000000000000000000000000000000000000000000000000000000000000000000000000000000000000000000000000000000000000000000000000000000000000000000000000000000000000000000000000000000000000000000000000000000000000000000000000000000000000000000000000000000000000000000000000000000000000000000000000000000000000000000000000000000000000000000000000000000000000000000000000000000000000000000000000000000000000000000000000000000000000000000000000000000000000000000000000000000000000000000000000000000000000000000000000000000000000000000000000000000000000000000000000000000000000000000000000000000000000000000000000000000000000000000000000000000000000000000000000000000000000000000000000000000000000000000000000000000000000000000000000000000000000000000000000000000000000000000000000000000000000000000000000000000000000000000000000000000000000000000000000000000000000000000000000000000000000000000000000000000000000000000000000000000000000000000000000000000000000000000000000000000000000000000000000000000000000000000000000000000000000000000000000000000000000000000000000000000000000000000000000000000000000000000000000000000000000000000000000000000000000000000000000000000000000000000000000000000000000000000000000000000000000000000000000000000000000000000000000000000000000000000000000000000000000000000000000000000000000000000000000000000000000000000000000000000000000000000000000000000000000000000000000000000000000000000000000000000000000000000053230000000000000000000000000000000000000000000000000000000000000000000000000000000000000000000000000000000000000000000000000000000000000000000000000000000000000000000000000000000000000000000000000000000000000000000000000000000000000000000000000000000000000000000000000000000000000000000000000000000000000000000000000000000000000000000000000000000000000000000000000000000000000000000000000000000000000000000000000000000000000000000000000000000000000000000000000000000000000000000000000000000000000000000000000000000000000000000000000000000000000000000000000000000000000000000000000000000000000000000000000000000000000000000000000000000000000000000000000000000000000000000000000000000000000000000000000000000000000000000000000000000000000000000000000000000000000000000000000000000000000000000000000000000000000000000000000000000000000000000000000000000000000000000000000000000000000000000000000000000000000000000000000000000000000000000000000000000000000000000000
