This file was generated by Ched 2.7.0.0.
#TITLE " "
#ARTIST ""
#DESIGNER ""
#DIFFICULTY 0
#PLAYLEVEL
#SONGID ""
#WAVE ""
#WAVEOFFSET 0
#JACKET ""
#REQUEST "ticks_per_beat 480"
#00002: 4
#BPM01: 150
#00008: 01
#TIL00: ""
#VOLUME: ""
#HISPEED 00
#MEASUREHS 00
#0201b:0013
#02015:0000130000130013
#02018:00000013
#02812:13
#02818:0013
#02815:0013
#0281b:23
#03412:0013
#03415:00000000000000000000001300000000
#0341a:24
#03410:41
#03712:0014
#03718:0013001300002400
#03715:13130000
#03714:0000000000000024
#00016:1222
#00018:00120000
#0011a:12
#00114:0012000000000000
#00116:00120000
#00118:0000001200000000
#00214:12
#0021a:0012000000000000
#00218:00120000
#00216:0000001200000000
#0031a:12
#00314:0012000000000000
#00316:00120000
#00318:0000001200000000
#00414:12
#0041a:0012000000000000
#00418:00120000
#00416:0000001200000000
#00413:00000024
#00419:00000024
#00515:0013001300000000
#00518:00130000
#0051a:2414
#00514:00000013
#00519:00000013
#00510:41
#00618:0013001300000000
#00615:00130000
#00612:2414
#00619:00000013
#00614:00000013
#00715:0013001300000000
#00718:00130000
#0071a:2414
#00714:00000013
#00719:00000013
#00915:13131300
#00918:0013001300000000
#00912:00000000000000000000333300000000
#01018:13131300
#01015:0013001300000013
#01118:1313
#01115:0013000000000000
#0111b:00000000130000000000333300000000
#01112:0000001300000000
#01213:14
#01216:00140000
#01219:0014
#01212:00000014
#0131b:13130000
#01316:0013001300000000
#01412:13130000
#01417:0013001300000000
#01712:13000000000000000000333313003300
#01718:0013000000000000
#01715:00131300
#0171b:0000001300000000
#01710:41
#0181b:0013000000000000
#01818:00130013
#01815:0000001300000013
#01812:0013
#0191b:13000000000000000000333313003300
#01915:0013000000000000
#01918:00131300
#01912:0000001300000000
#0211b:13
#02118:0013000013000013
#02115:00130013
#02112:0000001300000000
#02212:13
#02215:0013000013000013
#02218:00130013
#0221b:0000001300000000
#02512:13
#0251b:23
#02510:41
#02615:13
#02618:23
#02712:13000053
#02713:0000130000530000
#02714:0013
#0271b:23000063
#0271a:0000230000630000
#02719:0023
#0351b:13
#03518:00000013000000000000000000001300
#03515:00000013
#0361b:0013
#03618:00000000000000000000001300000000
#03612:24
#03814:00140014
#0381a:24
#03918:00140014
#03912:24
#04014:00140014
#0401a:24
#04118:00140000
#04112:24
#0411a:0024
#04215:00000013000000000000001300000000
#04212:0000001300000013
#04218:2323
#04314:0014001400000000
#04318:00140000
#0431a:24000024
#04418:00000013000000000000001300000000
#0441b:0000001300000013
#04415:2323
#04518:0014001400000000
#04514:00140000
#04512:24000024
#04718:00000013
#04715:0000000000000013
#04713:5454545454000000
#05814:00140000
#05818:00000014
#0581a:24
#05812:0024
#05918:00000014
#05914:00140000
#0591a:24
#05912:0024
#05417:0014000000000000
#05412:0014
#05418:00000000000000000000001400000000
#05414:0000000000000014
#0541a:24
#0541f:21
#0551a:14
#05517:00000014000000000000000000000000
#05514:00000014
#05518:0000000000000014
#05510:41
#05615:0014000000000000
#0561a:0014
#05614:00000000000000000000001400000000
#05618:0000000000000014
#05612:24
#06013:00150000
#06018:00000015
#06019:25
#06012:0025
#06113:00150000
#06119:25
#06112:0025
#0621b:13
#06216:13
#06213:00000013000000000000000000000000
#06218:00000013000000000000000000000000
#06217:0000000000000013
#06212:0000000000000013
#06312:13
#06317:13
#0631a:00000013000000000000000000000000
#06315:00000013000000000000000000000000
#0631b:0000000000000013
#06316:0000000000000013
#0641a:00000013000000000000000000000000
#06417:1300001300000013
#06415:00000013000000000000000000000000
#06412:1300001300000013
#06513:00000013000000000000000000000000
#06516:1300001300000013
#06518:00000013000000000000000000000000
#0651b:1300001300000013
#06616:13
#06612:00000013000000000000000000001300
#06617:0000000000000013
#06717:13
#0671b:00000013000000000000000000001300
#06716:0000000000000013
#06812:0000001300000013
#06817:1300001300000013
#0681b:00000013000000000000000000000000
#06916:1300001300000000
#06912:00000013000000000000000000000000
#0691b:0000001300000000
#06914:0000000000000014
#0691a:00000024
#07018:1400000000000014
#0701b:0000133300000000
#07016:0000133300000000
#07012:00000024
#07010:41
#07114:1400000000000014
#07112:0000133300000000
#07117:0000133300000000
#0711a:00000024
#07218:1400000000000014
#0721b:0000133300000000
#07212:0000133300002400
#07314:1400000000000014
#07312:0000133300000000
#0731b:0000133300000000
#0731a:00000024
#07418:1400001300000014
#0741b:00130000
#07415:00130000
#07412:0000001300002400
#07514:1400000000000014
#07512:00130000
#07515:0000001300000000
#07518:00130000
#0751b:0000001300000000
#0751a:00000024
#0761a:14
#07618:0000130000000014
#0761b:0000001300000000
#07615:00130000
#07612:0000001300002400
#07712:14000000000013000000000024646464
#07715:00130000
#07718:00130000
#0771b:0000001300000000
#0771a:00000000000000000000000024646464
#0461f:11
#04619:6464646464000000
#0501a:24242400
#05012:2400240000000024
#05016:00000000000000000000002400000000
#00812:24242400
#0081a:24242400
#0151b:23
#01518:00230000
#01515:0023
#01512:00000023
#01618:2424
#01614:00240000
#0231b:23
#02318:00230000
#02315:0023
#02312:00000023
#02418:2424
#02414:00240000
#03018:26262600
#03112:26262600
#03218:2626
#03212:00260000
#03312:2626
#03318:00260000
#0481a:24
#04818:00240000
#04816:0024
#04814:00000024
#04912:24
#04916:00240000
#0491a:0024
#0511a:2424
#05116:00000024000000000000000000000000
#05112:0000002400000000
#05114:00000024
#05118:0000000000000024
#05212:24242400
#0521a:2400240000000024
#05216:00000000000000000000002400000000
#05312:2424
#05318:0024002400000000
#05314:00240000
#05718:00000024
#05714:0000000000000024
#05712:2424
#05716:0024002400000000
#0571a:00240000
#0205b:0013
#02055:00130000
#02058:13
#0285b:63
#02852:63
#02858:0063
#02855:0063
#0345a:64
#03457:00140000
#03452:0063
#03455:00000000000000000000006300000000
#03752:0014
#00453:00000014
#00459:00000014
#0055a:0014
#00652:0014
#0075a:0014
#00852:00000014
#0085a:00000014
#00955:0053
#01058:0063
#01158:0063
#01259:0014
#01658:00000014
#01755:0063
#01752:00000023
#01958:0053
#0195b:00000023
#02158:0013
#02255:0013
#02458:00000014
#02552:63
#0255b:63
#02658:63
#02655:63
#02958:00000016
#02952:00000016
#03352:00000016
#0355b:5313
#03558:00000053000000000000000000000000
#0365b:0053
#03658:00000000000000000000005300000000
#03652:54
#03655:00140000
#04152:00000014
#0415a:00000014
#0435a:00000014
#04552:00000014
#0495a:00000014
#0515a:0014
#05352:00000014
#0545a:64440000
#05457:0024000000000000
#0555a:6414
#05557:00000064000000000000000000000000
#05655:0024000000000000
#05652:54340000
#06152:00000015
#06159:00000015
#0625b:6313
#06256:6313
#06253:00000023000000000000000000000000
#06258:00000023000000000000000000000000
#06352:5313
#06357:5313
#0635a:00000023000000000000000000000000
#06355:00000023000000000000000000000000
#0645a:00000023000000001300000000000000
#06457:6300006300000000
#06455:00000023000000001300000000000000
#06452:6300006300000000
#06553:00000023000000001300000000000000
#06556:5300005300000000
#06558:00000023000000001300000000000000
#0655b:5300005300000000
#06656:6313
#06652:00000023000000000000000000000000
#0665b:0013
#06757:5313
#0675b:00000023000000000000000000000000
#06752:0013
#06857:5300005300000000
#0685b:00000023000000001300000000000000
#06852:0000005300000000
#06856:0013
#06956:6300006300000000
#06952:00000023000000001300000000000000
#0695b:0000006300000000
#06957:0013
#07058:64
#07052:0013
#07057:0013
#0705b:00630000
#07056:00630000
#07154:54
#07152:00530000
#07157:00530000
#07156:0013
#0715b:0013
#07258:6413
#0725b:00230000
#07255:0013
#07252:00230000
#07354:54
#07352:00230000
#0735b:00230000
#07355:0013
#07358:0013
#07458:6400002300000000
#0745b:00631300
#07455:00631300
#07452:0000002300000000
#07554:54
#07552:00531300
#07555:0000002300000000
#07558:00531300
#0755b:0000002300000000
#0765a:64
#07658:00631300
#0765b:0000002300000000
#07655:00631300
#07652:0000002300000000
#07752:5400002300000000
#07755:00531300
#07758:00531300
#0775b:0000002300000000
#0013a0:00001222
#002340:00001222
#0033a0:00001222
#004330:00001424
#004391:00001424
#008321:00001424
#0083a0:00001424
#009350:0013
#009320:00000000000000000000333353002300
#010380:0013
#0103b0:00000023
#011380:0013
#0113b0:00000000000000000000333353002300
#0133b0:00001323
#014320:00001323
#016380:00001424
#017350:0013
#017320:00000000000000000000333353003300
#018350:23
#019380:0013
#0193b0:00000000000000000000333353003300
#020380:23
#024380:00001424
#0253b0:13
#025380:0023
#025321:13
#025351:0023
#026381:13
#0263b1:0023
#026350:13
#026320:0023
#0283b0:1300000000000033
#028380:0000003333000000
#0293b0:33
#029380:00000026
#028321:1300000000000033
#028351:0000003333000000
#029321:33000026
#030381:00000000000000001600003600002600
#031321:00000000000000001600003600002600
#032381:00000000000000001600003600002600
#033321:00001626
#0343a1:14
#034371:00240000
#034321:0000000013000023
#034351:00000000000000000000003300000000
#0353b1:1300003323000000
#035381:00000033000000000000000000000000
#036321:14
#036351:00240000
#0363b1:0000000013000023
#036381:00000000000000000000003300000000
#0383a1:14343434
#0393a1:24
#039320:14343434
#040320:24
#0403a1:14343434
#0413a1:24
#041320:14343424
#0413a1:00001424
#0433a1:00001424
#045321:00001424
#0493a1:00001424
#053321:00001424
#0543a1:14240000
#054371:0054000000000000
#0553a1:1400003424000000
#055371:00000034000000000000000000000000
#056321:14240000
#056351:0054000000000000
#0583a1:14342400
#058320:00001434
#059320:24
#0593a1:14342400
#059320:00001434
#060320:24
#060391:15352500
#060320:00001535
#061320:25
#061391:1500350035352500
#061320:0000000015352500
#0623b0:1300003323000000
#062380:00000053000000000000000000000000
#062361:1300003323000000
#062331:00000053000000000000000000000000
#063321:1300003323000000
#063351:00000053000000000000000000000000
#063370:1300003323000000
#0633a0:00000053000000000000000000000000
#064370:1300003300000000
#0643a0:00000053000000002300000000000000
#064321:1300003300000000
#064351:00000053000000002300000000000000
#065361:1300003300000000
#065331:00000053000000002300000000000000
#0653b0:1300003300000000
#065380:00000053000000002300000000000000
#066360:1300003323000000
#066320:00000053000000000000000000000000
#0663b1:1300003323000000
#067371:1300003323000000
#0673b1:00000053000000000000000000000000
#067320:1300003323000000
#068370:1300003300000000
#0683b0:00000053000000002300000000000000
#068321:1300003300000000
#068361:0023
#069361:1300003300000000
#069321:00000053000000002300000000000000
#0693b0:1300003300000000
#069370:0023
#070380:14
#0703b0:0000333300000000
#070370:0023
#070361:0000133300000000
#070321:0023
#071341:14
#071321:0000333300000000
#071361:0023
#071370:0000133300000000
#0713b0:0023
#072380:1423
#0723b0:0000333300000000
#072321:0000133300000000
#072351:0023
#073341:14
#073321:0000333300000000
#073351:0023
#0733b0:0000133300000000
#073380:0023
#074380:1400003300000000
#0743b0:00332300
#074351:00132300
#074321:0000003300000000
#075341:14
#075321:00332300
#075351:0000003300000000
#075380:00132300
#0753b0:0000003300000000
#0763a0:14
#076380:00332300
#0763b0:0000003300000000
#076351:00132300
#076321:0000003300000000
#077321:1400003300000000
#077351:00332300
#077380:00132300
#0773b0:0000003300000000
#027990:0013
#0279b0:000000000000000000000000000000000000000000000000000000000000000000000000000000000000000000000000000000000000000000000000000000000000000000000000000000000000000000000000000000000000000000000000000000000000000000000000000000000000000000000000000000000000000000000000000000000000000000000000000000000000000000000000000000000000000000000000000000000000000000000000000000000000000000000000000000000000000000000000000000000000000000000000000000000000000000000000000000000000000000000000000000000000000000000000000000000000000000000000000000000000000000000000000000000000000000000000000000000000000000000000000000000000000000000000000000000000000000000000000000000000000000000000000000000000000000000000000000000000000000000000000000000000000000000000000000000000000000000000000000000000000000000000000000000000000000000000000000000000000000000000000000000000000000000000000000000000000000000000000000000000000000000000000000000000000000000000000000000000000000000000000000000000000000000000000000000000000000000000000000000000000000000000000000000000000000000000000000000000000000000000000000000000000000000000000000000000000000000000000000000000000000000000000000000000000000000000000000000000000000000000000000000000000000000000000000000000000000000000000000000000000000000000000000000000000000000000000000000000000000000000000000000000000000000000000000000000000000000000000000000000000000000000000000000000000000000000000000000000000000000000000000000000000000000000000000000000000000000000000000000000000000000000000000000000000000000000000000000000000000000000000000000000000000000000000000000000000000000000000000000000000000000000000000000000000000000000000000000000000000000000000000000000000000000000000000000000000000000000000000000000000000000000000000000000000000000000000000000000000000000000000000000000000000000000000000000000000000000000000000000000000000000000000000000000000000000000000000000000000000000000000000000000000000000000000000000000000000000000000000000000000000000000000000000000000000000000000000000000000000000000000000000000000000000000000000000000000000000000000000000000000000000000000000000000000000000000000000000000000000000000000000000000000000000000000000000000000000000000000000000000000000000000000000000000000000000000000000000000000000000000000000000000000000000000000000000000000000000000000000000000000000000000000000000000000000000000000000000000000000000000000000000000000000000000000000000000000000000000000000000000000000000000000000000000000000000000000000000000000000000000000000000000000000000000000000000000000000000000000000000000000000000000000000000000000000000000000000000000000000000000000000000000000000000000000000000000000000000000000000000000000000000000000000000000000000000000000000000000000000000000000000000000000000000000000000000000000000000000000000000000000000000000000000000000000000000000000000000000000000005353230000000000000000000000000000000000000000000000000000000000000000000000000000000000000000000000000000000000000000000000000000000000000000000000000000000000000000000000000000000000000000000000000000000000000000000000000000000000000000000000000000000000000000000000000000000000000000000000000000000000000000000000000000000000000000000000000000000000000000000000000000000000000000000000000000000000000000000000000000000000000000000000000000000000000000000000000000000000000000000000000000000000000000000000000000000000000000000000000000000000000000000000000000000000000000000000000000000000000000000000000000000000000000000000000000000000000000000000000000000000000000000000000000000000000000000000000000000000000000000000000000000000000000000000000000000000000000000000000000000000000000000000000000000000000000000000000000000000000000000000000000000000000000000000000000000000000000000000000000000000000000000000000000000000000000000000000000000000000000000000
#027941:0013
#027921:000000000000000000000000000000000000000000000000000000000000000000000000000000000000000000000000000000000000000000000000000000000000000000000000000000000000000000000000000000000000000000000000000000000000000000000000000000000000000000000000000000000000000000000000000000000000000000000000000000000000000000000000000000000000000000000000000000000000000000000000000000000000000000000000000000000000000000000000000000000000000000000000000000000000000000000000000000000000000000000000000000000000000000000000000000000000000000000000000000000000000000000000000000000000000000000000000000000000000000000000000000000000000000000000000000000000000000000000000000000000000000000000000000000000000000000000000000000000000000000000000000000000000000000000000000000000000000000000000000000000000000000000000000000000000000000000000000000000000000000000000000000000000000000000000000000000000000000000000000000000000000000000000000000000000000000000000000000000000000000000000000000000000000000000000000000000000000000000000000000000000000000000000000000000000000000000000000000000000000000000000000000000000000000000000000000000000000000000000000000000000000000000000000000000000000000000000000000000000000000000000000000000000000000000000000000000000000000000000000000000000000000000000000000000000000000000000000000000000000000000000000000000000000000000000000000000000000000000000000000000000000000000000000000000000000000000000000000000000000000000000000000000000000000000000000000000000000000000000000000000000000000000000000000000000000000000000000000000000000000000000000000000000000000000000000000000000000000000000000000000000000000000000000000000000000000000000000000000000000000000000000000000000000000000000000000000000000000000000000000000000000000000000000000000000000000000000000000000000000000000000000000000000000000000000000000000000000000000000000000000000000000000000000000000000000000000000000000000000000000000000000000000000000000000000000000000000000000000000000000000000000000000000000000000000000000000000000000000000000000000000000000000000000000000000000000000000000000000000000000000000000000000000000000000000000000000000000000000000000000000000000000000000000000000000000000000000000000000000000000000000000000000000000000000000000000000000000000000000000000000000000000000000000000000000000000000000000000000000000000000000000000000000000000000000000000000000000000000000000000000000000000000000000000000000000000000000000000000000000000000000000000000000000000000000000000000000000000000000000000000000000000000000000000000000000000000000000000000000000000000000000000000000000000000000000000000000000000000000000000000000000000000000000000000000000000000000000000000000000000000000000000000000000000000000000000000000000000000000000000000000000000000000000000000000000000000000000000000000000000000000000000000000000000000000000000000000000000000000000005353230000000000000000000000000000000000000000000000000000000000000000000000000000000000000000000000000000000000000000000000000000000000000000000000000000000000000000000000000000000000000000000000000000000000000000000000000000000000000000000000000000000000000000000000000000000000000000000000000000000000000000000000000000000000000000000000000000000000000000000000000000000000000000000000000000000000000000000000000000000000000000000000000000000000000000000000000000000000000000000000000000000000000000000000000000000000000000000000000000000000000000000000000000000000000000000000000000000000000000000000000000000000000000000000000000000000000000000000000000000000000000000000000000000000000000000000000000000000000000000000000000000000000000000000000000000000000000000000000000000000000000000000000000000000000000000000000000000000000000000000000000000000000000000000000000000000000000000000000000000000000000000000000000000000000000000000000000000000000000000000
#046991:140000000000000000000000000000000000000000000000000000000000000000000000000000000000000000000000000000000000000000000000000000000000000000000000000000000000000000000000000000000000000000000000000000000000000000000000000000000000000000000000000000000000000000000000000000000000000000000000000000000000000000000000000000000000000000000000000000000000000000000000000000000000000000000000000000000000000000000000000000000000000000000000000000000000000000000000000000000000000000000000000000000000000000000000000000000000000000000000000000000000000000000000000000000000000000000000000000000000000000000000000000000000000000000000000000000000000000000000000000000000000000000000000000000000000000000000000000000000000000000000000000000000000000000000000000000000000000000000000000000000000000000000000000000000000000000000000000000000000000000000000000000000000000000000000000000000000000000000000000000000000000000000000000000000000000000000000000000000000000000000000000000000000000000000000000000000000000000000000000000000000000000000000000000000000000000000000000000000000000000000000000000000000000000000000000000000000000000000000000000000000000000000000000000000000000000000000000000000000000000000000000000000000000000000000000000000000000000000000000000000000000000000000000000000000000000000000000000000000000000000000000000000000000000000000000000000000000000000000000000000000000000000000000000000000000000000000000000000000000000000000000000000000000000000000000000000000000000000000000000000000000000000000000000000000000000000000000000000000000000000000000000000000000000000000000000000000000000000000000000000000000000000000000000000000000000000000000000000000000000000000000000000000000000000000000000000000000000000000000000000000000000000000000000000000000000000000000000000000000000000000000000000000000000000000000000000000000000000000000000000000000000000000000000000000000000000000000000000000000000054240000000000000000000000000000000000000000000000000000000000000000000000000000000000000000000000000000000000000000000000000000000000000000000000000000000000000000000000000000000000000000000000000000000000000000000000000000000000000000000000000000000000000000000000000000000000000000000000000000000000000000000000000000000000000000000000000000000000000000000000000000000000000000000000000000000000000000000000000000000000000000000000000000000000000000000000000000000000000000000000000000000000000000000000000000000000000000000000000000000000000000000000000000000000000000000000000000000000000000000000000000000000000000000000000000000000000000000000000000000000000000000000000000000000000000000000000000000000000000000000000000000000000000000000000000000000000000000000000000000000000000000000000000000000000000000000000000000000000000000000000000000000000000000000000000000000000000000000000000000000000000000000000000000000000000000000000000000000000000000000000000000000000000000000000000000000000000000000000000000000000000000000000000000000000000000000000000000000000000000000000000000000000000000000000000000000000000000000000000000000000000000000000000000000000000000000000000000000000000000000000000000000000000000000000000000000000000000000000000000000000000000000000000000000000000000000000000000000000000000000000000000000000000000000000000000000000000000000000000000000000000000000000000000000000000000000000000000000000000000000000000000000000000000000000000000000000000000000000000000000000000000000000000000000000000000000000000000000000000000000000000000000000000000000000000000000000000000000000000000000000000000000000000000000000000000000000000000000000000000000000000000000000000000000000000000000000000000000000000000000000000000000000000000000000000000000000000000000000000000000000000000000000000000000000000000000000000000000000000000000000000000000000000000000000000000000000000000000000000000000
#047931:140000000000000000000000000000000000000000000000000000000000000000000000000000000000000000000000000000000000000000000000000000000000000000000000000000000000000000000000000000000000000000000000000000000000000000000000000000000000000000000000000000000000000000000000000000000000000000000000000000000000000000000000000000000000000000000000000000000000000000000000000000000000000000000000000000000000000000000000000000000000000000000000000000000000000000000000000000000000000000000000000000000000000000000000000000000000000000000000000000000000000000000000000000000000000000000000000000000000000000000000000000000000000000000000000000000000000000000000000000000000000000000000000000000000000000000000000000000000000000000000000000000000000000000000000000000000000000000000000000000000000000000000000000000000000000000000000000000000000000000000000000000000000000000000000000000000000000000000000000000000000000000000000000000000000000000000000000000000000000000000000000000000000000000000000000000000000000000000000000000000000000000000000000000000000000000000000000000000000000000000000000000000000000000000000000000000000000000000000000000000000000000000000000000000000000000000000000000000000000000000000000000000000000000000000000000000000000000000000000000000000000000000000000000000000000000000000000000000000000000000000000000000000000000000000000000000000000000000000000000000000000000000000000000000000000000000000000000000000000000000000000000000000000000000000000000000000000000000000000000000000000000000000000000000000000000000000000000000000000000000000000000000000000000000000000000000000000000000000000000000000000000000000000000000000000000000000000000000000000000000000000000000000000000000000000000000000000000000000000000000000000000000000000000000000000000000000000000000000000000000000000000000000000000000000000000000000000000000000000000000000000000000000000000000000000000000000000000000000000000054240000000000000000000000000000000000000000000000000000000000000000000000000000000000000000000000000000000000000000000000000000000000000000000000000000000000000000000000000000000000000000000000000000000000000000000000000000000000000000000000000000000000000000000000000000000000000000000000000000000000000000000000000000000000000000000000000000000000000000000000000000000000000000000000000000000000000000000000000000000000000000000000000000000000000000000000000000000000000000000000000000000000000000000000000000000000000000000000000000000000000000000000000000000000000000000000000000000000000000000000000000000000000000000000000000000000000000000000000000000000000000000000000000000000000000000000000000000000000000000000000000000000000000000000000000000000000000000000000000000000000000000000000000000000000000000000000000000000000000000000000000000000000000000000000000000000000000000000000000000000000000000000000000000000000000000000000000000000000000000000000000000000000000000000000000000000000000000000000000000000000000000000000000000000000000000000000000000000000000000000000000000000000000000000000000000000000000000000000000000000000000000000000000000000000000000000000000000000000000000000000000000000000000000000000000000000000000000000000000000000000000000000000000000000000000000000000000000000000000000000000000000000000000000000000000000000000000000000000000000000000000000000000000000000000000000000000000000000000000000000000000000000000000000000000000000000000000000000000000000000000000000000000000000000000000000000000000000000000000000000000000000000000000000000000000000000000000000000000000000000000000000000000000000000000000000000000000000000000000000000000000000000000000000000000000000000000000000000000000000000000000000000000000000000000000000000000000000000000000000000000000000000000000000000000000000000000000000000000000000000000000000000000000000000000000000000000000000000000000000000
#0779a1:000000000000000000000000000000000000000000000000000000000000000000000000000000000000000000000000000000000000000000000000000000000000000000000000000000000000000000000000000000000000000000000000000000000000000000000000000000000000000000000000000000000000000000000000000000000000000000000000000000000000000000000000000000000000000000000000000000000000000000000000000000000000000000000000000000000000000000000000000000000000000000000000000000000000000000000000000000000000000000000000000000000000000000000000000000000000000000000000000000000000000000000000000000000000000000000000000000000000000000000000000000000000000000000000000000000000000000000000000000000000000000000000000000000000000000000000000000000000000000000000000000000000000000000000000000000000000000000000000000000000000000000000000000000000000000000000000000000000000000000000000000000000000000000000000000000000000000000000000000000000000000000000000000000000000000000000000000000000000000000000000000000000000000000000000000000000000000000000000000000000000000000000000000000000000000000000000000000000000000000000000000000000000000000000000000000000000000000000000000000000000000000000000000000000000000000000000000000000000000000000000000000000000000000000000000000000000000000000000000000000000000000000000000000000000000000000000000000000000000000000000000000000000000000000000000000000000000000000000000000000000000000000000000000000000000000000000000000000000000000000000000000000000000000000000000000000000000000000000000000000000000000000000000000000000000000000000000000000000000000000000000000000000000000000000000000000000000000000000000000000000000000000000000000000000000000000000000000000000000000000000000000000000000000000000000000000000000000000000000000000000000000000000000000000000000000000000000000000000000000000000000000000000000000000000000000000000000000000000000000000000000000000000000000000000000000000000000000000000000000000000000000000000000000000000000000000000000000000000000000000000000000000000000000000000000000000000000000000000000000000000000000000000000000000000000000000000000000000000000000000000000000000000000000000000000000000000000000000000000000000000000000000000000000000000000000000000000000000000000000000000000000000000000000000000000000000000000000000000000000000000000000000000000000000000000000000000000000000000000000000000000000000000000000000000000000000000000000000000000000000000000000000000000000000000000000000000000000000000000000000000000000000000000000000000000000000000000000000000000000000000000000000000000000000000000000000000000000000000000000000000000000000000000000000000000000000000000000000000000000000000000000000000000000000000000000000000000000000000000000000000000000000000000000000000000000000000000000000000000000000000000000000000000000000000000000000000000000000000000000000000000000000000000000000000000000000000000000000000000000000140000000000000000000000000000000000000000000000000000000000000000000000000000000000000000000000000000000000000000000000000000000000000000000000000000000000000000000000000000000000000000000000000000000000000000000000000000000000000000000000000000000000000000000000000000000000000000000000000000000000000000000000000000000000000000000000000000000000000000000000000000000000000000000000000000000000000000000000000000000000000000000000000000000000000000000000000000000000000000000000000000000000000000000000000000000000000000000000000000000000000000000000000000000000000000000000000000000000000000000000000000000000000000000000000000000000000000000000000000000000000000000000000000000000000000000000000000000000000000000054240000000000000000000000000000000000000000000000000000000000000000000000000000000000000000000000000000000000000000000000000000000000000000000000000000000000000000000000000000000000000000000000000000000000000000000000000000000000000000000000
#077920:000000000000000000000000000000000000000000000000000000000000000000000000000000000000000000000000000000000000000000000000000000000000000000000000000000000000000000000000000000000000000000000000000000000000000000000000000000000000000000000000000000000000000000000000000000000000000000000000000000000000000000000000000000000000000000000000000000000000000000000000000000000000000000000000000000000000000000000000000000000000000000000000000000000000000000000000000000000000000000000000000000000000000000000000000000000000000000000000000000000000000000000000000000000000000000000000000000000000000000000000000000000000000000000000000000000000000000000000000000000000000000000000000000000000000000000000000000000000000000000000000000000000000000000000000000000000000000000000000000000000000000000000000000000000000000000000000000000000000000000000000000000000000000000000000000000000000000000000000000000000000000000000000000000000000000000000000000000000000000000000000000000000000000000000000000000000000000000000000000000000000000000000000000000000000000000000000000000000000000000000000000000000000000000000000000000000000000000000000000000000000000000000000000000000000000000000000000000000000000000000000000000000000000000000000000000000000000000000000000000000000000000000000000000000000000000000000000000000000000000000000000000000000000000000000000000000000000000000000000000000000000000000000000000000000000000000000000000000000000000000000000000000000000000000000000000000000000000000000000000000000000000000000000000000000000000000000000000000000000000000000000000000000000000000000000000000000000000000000000000000000000000000000000000000000000000000000000000000000000000000000000000000000000000000000000000000000000000000000000000000000000000000000000000000000000000000000000000000000000000000000000000000000000000000000000000000000000000000000000000000000000000000000000000000000000000000000000000000000000000000000000000000000000000000000000000000000000000000000000000000000000000000000000000000000000000000000000000000000000000000000000000000000000000000000000000000000000000000000000000000000000000000000000000000000000000000000000000000000000000000000000000000000000000000000000000000000000000000000000000000000000000000000000000000000000000000000000000000000000000000000000000000000000000000000000000000000000000000000000000000000000000000000000000000000000000000000000000000000000000000000000000000000000000000000000000000000000000000000000000000000000000000000000000000000000000000000000000000000000000000000000000000000000000000000000000000000000000000000000000000000000000000000000000000000000000000000000000000000000000000000000000000000000000000000000000000000000000000000000000000000000000000000000000000000000000000000000000000000000000000000000000000000000000000000000000000000000000000000000000000000000000000000000000000000000000000000000000000000000000000140000000000000000000000000000000000000000000000000000000000000000000000000000000000000000000000000000000000000000000000000000000000000000000000000000000000000000000000000000000000000000000000000000000000000000000000000000000000000000000000000000000000000000000000000000000000000000000000000000000000000000000000000000000000000000000000000000000000000000000000000000000000000000000000000000000000000000000000000000000000000000000000000000000000000000000000000000000000000000000000000000000000000000000000000000000000000000000000000000000000000000000000000000000000000000000000000000000000000000000000000000000000000000000000000000000000000000000000000000000000000000000000000000000000000000000000000000000000000000000054240000000000000000000000000000000000000000000000000000000000000000000000000000000000000000000000000000000000000000000000000000000000000000000000000000000000000000000000000000000000000000000000000000000000000000000000000000000000000000000000
