This file was generated by Ched 2.7.0.0.
#TITLE " "
#ARTIST ""
#DESIGNER ""
#DIFFICULTY 0
#PLAYLEVEL
#SONGID ""
#WAVE ""
#WAVEOFFSET 0
#JACKET ""
#REQUEST "ticks_per_beat 480"
#00002: 4
#BPM01: 150
#00008: 01
#TIL00: ""
#VOLUME: ""
#HISPEED 00
#MEASUREHS 00
#00518:0014
#00512:24
#0051a:24
#00510:41
#00614:14
#00618:0014
#00712:14
#0071a:14
#00714:0014
#00912:0014
#0111a:0000001400000000
#01512:14
#01518:00140000
#01514:0014
#0151a:00000014
#01614:0000341434000000
#01612:14
#0171a:14
#01712:0014
#01710:41
#01818:14
#01814:0014
#0191a:14
#01912:0014
#02112:14
#0211a:0014
#02214:14
#02218:0014
#02312:14
#0231a:0014
#02818:0014
#03412:00160016
#03418:2616
#03410:41
#03014:00140000
#03018:0014
#0301a:24
#03112:14
#03118:00140000
#03114:0014
#0321a:14
#03214:00140000
#03218:0014
#03312:14
#03318:00140000
#03314:0014
#03812:00160000
#03818:2615
#03813:00000015
#03612:1616
#03618:00160016
#04014:00140000
#04018:1415
#04013:00000015
#0421a:1414
#04412:1414
#05418:00160000
#05412:26
#0541f:21
#05518:16
#05512:00160000
#05510:41
#05612:16160000
#05914:1414
#0591a:00140014
#05812:1414
#05818:00140014
#06012:14
#06018:00140000
#06014:0014
#0601a:00000014
#06112:14
#06118:00140000
#06114:0014
#0611a:00000014
#07318:1414
#07314:00140000
#07212:0014
#0721a:14
#07114:1414
#07118:00140000
#0701a:0014
#07012:24
#07010:41
#07514:1414
#07518:00140000
#0741a:0014
#07412:14
#0761a:14
#07612:00140000
#07618:0014
#07614:00000014
#06612:1414
#06718:1414
#06814:1414
#0691a:1414
#03518:16360000
#03712:16360000
#0461f:11
#04618:24
#02018:2424
#02014:00240000
#02414:2424
#02418:00240000
#02914:24
#0481a:24
#04818:00340000
#05012:2400000000000034
#05013:00000000000000000000003400000000
#0521a:2400000000000034
#05219:00000000000000000000003400000000
#05718:26262600
#0771a:24
#01314:0034343400000000
#01418:0034343400000000
#0491a:00340000
#02510:41
#00858:00000014
#00952:0064
#0115a:0000005400000000
#01652:64000014
#01654:0000002400000000
#02954:64
#02952:00000014
#04152:00000016
#0495a:00000014
#05152:0014
#0535a:00000014
#0615a:00000014
#0775a:00000014
#03559:0014
#03558:66
#03752:56
#03753:0014
#0013a0:1424
#002320:1424
#003380:1424
#004340:1424
#008380:14343424
#009320:14343400
#010340:34342400
#0113a0:14000034000034000000000000000000
#012380:34342400
#013320:14
#013340:0034343424000000
#0143a0:14
#014380:0034343424000000
#016320:14000024
#016340:0000345434000000
#0253a0:14
#026380:34
#0273a0:34
#0283a0:24
#025321:14
#026341:34
#027321:34
#028321:24
#029341:14
#029321:00000024
#035381:16360000
#035391:0024
#037321:16360000
#037331:0024
#039381:14240000
#039341:00001424
#041381:16260000
#041321:00001626
#0433a1:1424
#045321:1424
#046381:1434343424000000
#047341:1434343424000000
#0483a1:14
#048381:00343434
#049381:34
#0493a1:00343424
#050321:1400000000000034
#050331:00000000340000000000003400000000
#050341:0034
#051321:34000034000034002400000000000000
#0523a1:1400000000000034
#052391:00000000340000000000003400000000
#052381:0034
#0533a1:34343424
#054321:00001626
#055381:00001626
#056321:00001626
#057381:00001626
#062321:14
#062341:0024
#0633a1:14
#063381:0024
#064341:14
#064321:0024
#065381:14
#0653a1:0024
#0773a1:14343424
