This file was generated by Ched 2.7.0.0.
#TITLE ""
#ARTIST ""
#DESIGNER ""
#DIFFICULTY 0
#PLAYLEVEL
#SONGID ""
#WAVE ""
#WAVEOFFSET 0
#JACKET ""
#REQUEST "ticks_per_beat 480"
#00002: 4
#BPM01: 169
#00008: 01
#TIL00: ""
#VOLUME: ""
#HISPEED 00
#MEASUREHS 00
#00518:16
#00612:16
#00712:16
#0081a:14
#00810:41
#0091a:14
#01014:14
#01114:14
#01218:14
#01318:14
#01412:14
#01512:14
#0241a:14
#02410:41
#02514:14
#0261a:14
#02714:14
#02818:14
#02912:14
#03018:14
#03112:14
#03212:0016
#03218:26
#03210:41
#03318:16
#03412:16
#03418:0016
#03512:16
#03618:16
#03612:0016
#03718:16
#03812:16
#03818:0016
#03912:16
#03918:0016
#04012:16
#04112:16
#04218:16
#04318:16
#05318:14
#05414:14
#05410:41
#05612:14
#05718:14
#05814:14
#06012:14
#06114:14
#06218:14
#06412:14
#06514:14
#06618:14
#0671a:14
#0841a:14
#0851a:14
#08618:0016
#08612:26
#08610:41
#08818:16
#08812:0016
#09012:16
#09018:0016
#09218:16
#09212:0016
#0941a:14
#0951a:14
#09318:16
#09312:0016
#07612:16
#07618:0016
#07712:16
#07818:16
#07812:0016
#07918:16
#08012:16
#08018:0016
#08112:16
#08218:16
#08212:0016
#08318:16
#08312:0016
#0441f:11
#00418:26
#05212:24
#0521f:21
#0551a:24
#0591a:24
#0631a:24
#0161a:24
#06810:41
#0163a0:14
#0173a0:24
#018320:14
#019320:24
#020380:14
#021380:24
#022340:14
#023340:24
#044340:14
#045320:24
#046380:14
#0473a0:24
#048340:14
#049320:24
#050380:14
#0513a0:24
#068320:14
#069320:24
#070380:14
#071380:24
#072340:14
#073340:24
#0743a0:14
#0753a0:24
#087320:1626
#089380:1626
#091320:1626
