This file was generated by Ched 2.7.0.0.
#TITLE ""
#ARTIST ""
#DESIGNER ""
#DIFFICULTY 0
#PLAYLEVEL
#SONGID ""
#WAVE ""
#WAVEOFFSET 0
#JACKET ""
#REQUEST "ticks_per_beat 480"
#00002: 4
#BPM01: 169
#00008: 01
#TIL00: ""
#VOLUME: ""
#HISPEED 00
#MEASUREHS 00
#00218:14
#00412:00130000
#00415:00001313
#00418:0000000000130013
#0041a:24
#00512:13
#0051b:00130000
#00515:00001313
#00518:0000000000130013
#00612:13
#0061b:00130000
#00615:00001313
#00618:0000000000130013
#00812:13130000
#00818:0013
#0081b:00000013
#00810:41
#00915:13
#00918:0013
#01012:13
#01015:0000000013000013
#0101b:00130000
#01018:00000000000000000000001300000000
#01118:13
#01115:0013
#0121b:13130000
#01215:0013
#01212:00000013
#0131b:13
#01312:0013
#0141b:13
#01412:0013
#01418:00130000
#01415:00000013
#01518:14
#01514:0014000000000000
#01512:0000000000000013
#01618:00131300
#01615:0000001300000000
#0161a:24
#01715:00131300
#01718:0000001300000000
#01712:14
#0181a:0014
#01812:54
#01813:00000054000000000000000000000000
#01814:0000005400000000
#01915:0014
#01918:54
#01919:00000054000000000000000000000000
#0191a:0000005400000000
#0201b:00130000
#02015:0000001300000000
#02018:0013
#0201a:24
#02012:24
#02112:14130000
#02118:0000001300000000
#02115:0013
#0211a:14
#0221a:0014
#02212:54
#02213:00000054000000000000000000000000
#02214:0000005400000000
#02315:0014
#02318:54
#02319:00000054000000000000000000000000
#0231a:0000005400000000
#02412:14130000
#0241a:14
#02415:0013
#02418:00000013
#02410:41
#0251b:13
#02518:00130000
#02515:0013
#0261a:14
#02612:14
#0261b:00130000
#02618:0013
#02615:00000013
#0281a:14
#02812:14
#0281b:00130000
#02818:0013
#02815:00000013
#02912:13
#02915:00130000
#02918:0013
#03012:14130000
#0301a:14
#03015:0013
#03018:00000013
#0321b:00130000
#03218:0013
#03215:00000013
#03212:24
#0321a:24
#03210:41
#03318:1313
#0331b:00130000
#03312:1313
#03315:00130000
#03412:14
#0341a:14
#03418:00130013
#03415:0013
#03515:1313
#03512:00130013
#0351b:1313
#03518:00130013
#03612:00130000
#03615:0013
#03618:00000013
#03712:1313
#03715:00130000
#0371b:1313
#03718:00130000
#03812:14
#0381a:14
#03815:00130013
#03818:0013
#04012:1400000000000013
#0401a:14
#04018:00130013
#04015:0000001300130000
#0401b:0013
#0411b:1300000000000013
#04115:00130013
#04118:0000001300130000
#04112:0013
#04212:1300000000000013
#04218:00130013
#04215:0000001300130000
#0421b:0013
#05218:0013000000001300
#05215:0000001300130000
#0521b:0013
#05212:2600000000000013
#0521f:21
#05418:0013000000001300
#05415:0000001300130000
#0541b:0013
#05412:0000000000000013
#05410:41
#05615:0013000000001300
#05618:0000001300130000
#05612:0013
#0561b:0000000000000013
#0561a:24
#05815:0013000000001300
#05818:0000001300130000
#05812:0013
#0581b:0000000000000013
#06015:0013000000001300
#06018:2600001300130000
#06012:0013
#0601b:0000000000000013
#06215:0013000000001300
#06218:0000001300130000
#06212:0013
#0621b:0000000000000013
#06418:0013000000001300
#06415:0000001300130000
#0641b:0013
#06412:2400000000000013
#06618:0013000000001300
#06615:0000001300130000
#0661b:0013
#06612:0000000000000013
#06818:14
#0681a:0014
#06810:41
#06918:14
#0691a:0014
#07014:14
#07012:0014
#07112:0014
#07114:14
#0721a:14140000
#07214:0014
#07218:00000014
#07312:14
#07314:00140000
#07412:14140000
#07418:0014
#07414:00000014
#0751a:14
#07518:00140000
#0761b:00130000
#07618:0013
#07615:00000013
#07612:24
#0761a:24
#07718:1313
#0771b:00130000
#07712:1313
#07715:00130000
#07812:14
#0781a:14
#07818:00130013
#07815:0013
#07915:1313
#07912:00130013
#0791b:1313
#07918:00130013
#08012:00130000
#08015:0013
#08018:00000013
#08112:1313
#08115:00130000
#0811b:1313
#08118:00130000
#08212:14
#0821a:14
#08215:00130013
#08218:0013
#08412:14
#0841a:14
#0841b:00130000
#08418:0013
#08415:00000013
#08618:00130013
#08615:0000001300130000
#0861b:0013
#08612:2400000000000013
#0861a:24
#08610:41
#0871b:1300000000000013
#08715:00130013
#08718:0000001300130000
#08712:0013
#08812:1300000000000013
#08818:00130013
#08815:0000001300130000
#0881b:0013
#09012:1413
#0901a:14
#09015:00130013
#09018:0000001300130000
#0901b:0000000000000013
#09112:1300000000000013
#09118:00130013
#09115:0000001300130000
#0911b:0013
#0921b:1300000000000013
#09215:00130013
#09218:0000001300130000
#09212:0013
#0441f:11
#00318:26
#00312:0026
#03114:00000024
#03118:00333324
#03115:00333300
#05114:24
#05118:00240026
#05112:0026
#0551b:23
#05518:00230000
#05515:0023
#05512:00000023
#06312:23
#06315:00230000
#06318:0023
#0631b:00000023
#00712:53
#00713:0053000000000000
#00714:00530000
#00715:0000005300000000
#0071b:0053
#0071a:0000000000530000
#00719:00000053
#00718:0000000000000053
#0531a:54540000
#05312:0000000054545454
#05712:5454545400000000
#0571a:0000000054545454
#06112:54540000
#0611a:0000000054545454
#0651a:5454545400000000
#06512:0000000054545454
#08512:53535353
#0851b:53535353
#09412:5400545454545400
#0951a:5400545454545400
#00258:54
#00358:16
#00352:0016
#00955:53
#00958:0063
#01158:63
#01155:0053
#0135b:53
#01352:0063
#01558:0014
#01658:0063
#0165b:00000013
#01755:0053
#01752:00000013
#0185a:0054
#01857:00000014
#01955:0054
#01952:00000014
#02058:0063
#0205b:00000013
#02155:0053
#02152:00000013
#0225a:0054
#02257:00000014
#02355:0054
#02352:00000014
#02555:0053
#02958:0063
#03154:00000014
#03158:00000014
#03358:6363
#0335b:00630000
#03352:6363
#03355:00630000
#03555:5353
#03552:00530063
#0355b:5353
#03558:00530063
#03752:6363
#03755:00630000
#0375b:5353
#03758:00530000
#0435a:00140000
#04352:00000014
#05154:14
#05158:00140016
#05152:0016
#06858:54
#0685a:0024
#06958:54
#0695a:0024
#07054:64
#07052:0024
#07152:0024
#07154:64
#07554:00000014
#07758:6363
#0775b:00630000
#07752:6363
#07755:00630000
#07955:5353
#07952:00530063
#0795b:5353
#07958:00530063
#08152:6363
#08155:00630000
#0815b:5353
#08158:00530000
#08552:00000013
#0855b:00000013
#0895a:00140000
#08952:00000014
#08352:00140000
#08358:00140000
#0835a:00000014
#08354:00000014
#09052:14
#0905a:14
#09352:00140000
#0935a:00000014
#000380:14
#0013a0:34
#002380:34
#003380:26
#009350:13
#009320:0000002300000000
#009380:0013
#0093b0:00000023
#011380:13
#0113b0:0000002300000000
#011350:0013
#011320:00000023
#0133b0:13
#013380:0000002300000000
#013320:0013
#013350:00000023
#015380:00142400
#016380:0013
#0163b0:00000023
#017350:0013
#017320:00000023
#0183a0:0014
#018370:00000024
#019350:0014
#019320:00000024
#020380:0013
#0203b0:00000023
#021350:0013
#021320:00000023
#0223a0:0014
#022370:00000024
#023350:0014
#023320:00000024
#025350:0013
#025320:00000023
#027320:13230000
#0273b0:00001323
#029380:0013
#0293b0:00000023
#031320:13
#031350:00333300
#031340:00000024
#0313b1:13
#031381:00333324
#033381:1333
#0333b1:00330023
#033320:1333
#033350:00330023
#035350:1333
#035320:00330033
#036350:23
#0353b1:1333
#035381:00330033
#0363b1:23
#037321:1333
#037351:00330023
#0373b0:1333
#037380:00330023
#039380:14240000
#039321:14240000
#039341:00001424
#0393a0:00001424
#0433a0:14240000
#043320:00001424
#0443a0:14000034
#044380:00343400
#0453a0:34000034
#045380:00343400
#0463a0:24
#046321:14000034
#046341:00343400
#047321:34000034
#047341:00343400
#048321:24
#048380:14000034
#0483a0:00343400
#049380:34000034
#0493a0:00343400
#050380:24
#050341:14000034
#050321:00343400
#051341:24
#059321:16363626
#0673a1:14240000
#067321:00001424
#068381:14
#0683a1:0034
#069381:34
#0693a1:0034
#070381:24
#070340:14
#070320:0034
#071340:34
#071320:0034
#072340:24
#073380:00001424
#075340:00001424
#077380:1333
#0773b0:00330023
#077321:1333
#077351:00330023
#079351:1333
#079321:00330033
#080351:23
#0793b0:1333
#079380:00330033
#0803b0:23
#081320:1333
#081350:00330023
#0813b1:1333
#081381:00330023
#083381:14240000
#083320:14240000
#083340:00001424
#0833a1:00001424
#0893a1:14240000
#089321:00001424
#093321:14240000
#0933a1:00001424
#007920:13
#007950:0000002300000000
#0079b0:0013
#007980:0000000000000023
#018920:14
#018940:0000002400000000
#019980:14
#0199a0:0000002400000000
#022920:14
#022940:0000002400000000
#023980:14
#0239a0:0000002400000000
#0539a0:14240000
#053920:0000000014000024
#057920:1400002400000000
#0579a0:0000000014000024
#061920:14240000
#0619a0:0000000014000024
#0659a0:1400002400000000
#065920:0000000014000024
#085920:13000023
#0859b1:13000023
#094921:14000024
#0959a1:14000024
