This file was generated by Ched 2.7.0.0.
#TITLE ""
#ARTIST ""
#DESIGNER ""
#DIFFICULTY 0
#PLAYLEVEL
#SONGID ""
#WAVE ""
#WAVEOFFSET 0
#JACKET ""
#REQUEST "ticks_per_beat 480"
#00002: 4
#BPM01: 169
#00008: 01
#TIL00: ""
#VOLUME: ""
#HISPEED 00
#MEASUREHS 00
#0531a:1414
#05312:00140000
#08112:14
#08118:00140000
#08114:0014
#0811a:00000014
#0951a:1414
#00412:2414
#0051a:1414
#00614:1414
#00718:1414
#00714:00140000
#00814:1414
#00810:41
#01018:1414
#01212:1414
#0141a:1414
#01618:00140000
#01614:2414
#01718:1414
#01714:00140000
#01812:1414
#0181a:00140000
#0191a:1414
#01912:00140000
#02014:1414
#0201a:00140000
#02118:1414
#02112:00140000
#02214:1414
#0221a:00140000
#02318:1414
#02312:00140000
#02518:1414
#02514:00140000
#02718:1414
#02714:00140014
#02914:1414
#02918:00140000
#03114:1414
#03118:00140014
#03214:14
#03210:41
#03318:14
#03314:00140014
#0331a:0014
#03418:14
#03514:14
#03518:00140014
#03512:0014
#03612:14
#0371a:14
#03714:00140014
#03718:0014
#0381a:14
#03912:14
#03918:00140014
#03914:0014
#04014:14
#04118:14
#04212:14
#04318:1414
#04314:00140014
#05214:00140014
#05218:0014
#0521a:24
#0521f:21
#05418:00140014
#05412:14
#05414:0014
#05410:41
#0571a:1414
#05714:00140000
#05612:00140014
#05618:0014
#0561a:24
#05818:00140014
#05812:14
#05814:0014
#06112:1414
#0611a:00140000
#06018:00140014
#06014:0014
#06012:24
#06214:00140014
#0621a:14
#06218:0014
#06512:1414
#06518:00140000
#0641a:00140014
#06414:0014
#06412:24
#06614:00140014
#0661a:14
#06618:0014
#06814:14
#06810:41
#06912:14
#07018:14
#0711a:14
#07212:14
#07314:14
#0741a:14
#07518:14
#07612:00140014
#07618:0014
#0771a:14
#07714:00140000
#07718:0014
#07712:00000014
#0781a:00140014
#07814:0014
#07912:14
#07918:00140000
#07914:0014
#0791a:00000014
#08012:14
#08014:0014
#0801a:00140014
#08212:00140014
#08218:0014
#0831a:14140000
#08314:0014
#08318:00000014
#08618:00140014
#08614:0014
#08612:24
#08610:41
#08712:14
#0871a:00140014
#08714:0014
#08812:14
#08818:00140000
#08814:0014
#0881a:00000014
#09014:00140014
#09018:0014
#0901a:14
#0911a:14
#09112:00140014
#09118:0014
#0921a:14
#09214:00140000
#09218:0014
#09212:00000014
#09412:1414
#0441f:11
#05512:24
#0631a:24
#00318:26
#02410:41
#03254:54
#03458:64
#03652:64
#0385a:54
#04054:64
#04158:54
#04252:54
#05552:0014
#0635a:0014
#06854:54
#06952:54
#07058:64
#0715a:64
#07252:64
#07354:64
#0745a:54
#07558:54
#08952:0014
#0935a:0014
#003380:1626
#009340:14
#009320:0024
#011380:14
#0113a0:0024
#013320:14
#013340:0024
#0153a0:14
#015380:0024
#024340:1424
#026320:1424
#028380:1424
#0303a0:1424
#032340:14
#032320:0024
#034380:14
#0343a0:0024
#036320:14
#036340:0024
#0383a0:14
#038380:0024
#040340:14
#040320:0024
#041380:14
#0413a0:0024
#042320:14
#042340:0024
#0443a0:14
#044390:00340034
#044380:0034
#0453a0:34
#045390:00340000
#045380:00003424
#046320:14
#046330:00340034
#046340:0034
#047320:34
#047330:00340000
#047340:00003424
#048380:14
#048390:00340034
#0483a0:0034
#049380:34
#049390:00340000
#0493a0:00003424
#050340:14
#050330:00340034
#050320:0034
#051340:34
#051330:00340000
#051320:00003424
#055320:14342400
#059320:14342400
#0633a0:14342400
#0673a0:14342400
#068340:14
#068320:0034
#069320:34
#069340:0024
#070380:14
#0703a0:0034
#0713a0:34
#071380:0024
#072320:14
#072340:0034
#073340:34
#073320:0024
#0743a0:14
#074380:0034
#075380:34
#0753a0:0024
#084320:1424
#0853a0:1424
#089320:14342400
#0933a0:14342400
