This file was generated by Ched 2.7.0.0.
#TITLE ""
#ARTIST ""
#DESIGNER ""
#DIFFICULTY 0
#PLAYLEVEL
#SONGID ""
#WAVE ""
#WAVEOFFSET 0
#JACKET ""
#REQUEST "ticks_per_beat 480"
#00002: 4
#BPM01: 142
#00008: 01
#TIL00: ""
#VOLUME: ""
#HISPEED 00
#MEASUREHS 00
#00018:14
#00214:14
#00418:14
#00614:14
#0341a:14
#03414:00140000
#03412:00000014
#03418:0014
#03410:41
#03812:14
#0381a:00000014
#03814:0014
#03818:00140000
#0791a:00000014
#07918:0014
#07914:00140000
#07912:14
#07818:00140014
#07814:0014
#07812:14
#0751a:00000014
#07518:0014
#07514:00140000
#07512:14
#07418:00140014
#07412:14
#07414:0014
#07012:00000014
#07018:1414
#07014:00140000
#06912:00000014
#0671a:00000014
#06718:00140000
#06712:14
#06714:0014
#0661a:00000014
#06614:1414
#06618:00140000
#0651a:00000014
#06218:00140014
#06212:0014
#06214:14
#0611a:1414
#06112:00140000
#06014:00140014
#06018:0014
#0601a:14
#05912:1414
#0591a:00140000
#05818:00140014
#05814:0014
#05812:14
#0571a:1414
#05714:00140000
#05612:00140014
#05618:0014
#03918:00000014
#03914:0014
#03912:14
#0391a:00240000
#03718:00000014
#03518:00000014
#03514:0014
#0351a:14
#03314:00000014
#0301a:0014
#03014:00140000
#03018:14
#02912:0014
#0291a:00140000
#02914:14
#0281a:0014
#02814:00140000
#02818:14
#02712:1414
#02718:00140000
#0261a:1414
#02614:00140000
#02512:1414
#02518:00140000
#0241a:1414
#02414:00140000
#0241f:11
#02218:1414
#02014:1414
#0181a:1414
#01612:1414
#01610:41
#03218:24
#0321f:21
#00718:00002424
#08012:26
#07718:24
#07614:24
#07318:24
#07214:24
#07210:41
#07118:26
#06814:24
#06418:24
#06410:41
#06312:26
#03612:24
#03112:24
#0151a:2424
#01514:00240000
#01412:2424
#01114:00240000
#01118:2424
#01014:2424
#04810:41
#00810:41
#00058:54
#00254:64
#00458:54
#00654:64
#08052:16
#07158:00000016
#06352:00000016
#05558:0014
#0435a:0014
#000380:14
#0013a0:24
#002340:14
#003320:24
#004380:14
#0053a0:24
#006340:14
#007320:24
#008320:1424
#0093a0:1424
#012320:1424
#0133a0:1424
#017380:14
#0173a0:0024
#019340:14
#019320:0024
#0213a0:14
#021380:0024
#023320:14
#023340:0024
#031320:14343424
#032380:14
#0323a0:0000003400000000
#033380:24
#036320:14
#036340:0000003400000000
#037320:24
#040320:14
#040350:0034
#041350:34
#041320:0024
#0423a0:14
#042370:0034
#043370:34
#0433a0:0024
#044350:14
#044320:0034
#045320:34
#045350:0024
#046370:14
#0463a0:0034
#0473a0:34
#047370:0024
#048320:1424
#049380:1424
#050340:1424
#0513a0:1424
#052340:14
#052320:0024
#053380:14
#0533a0:0024
#054320:14
#054340:0024
#0553a0:14
#055380:0024
#063320:16363626
#064380:14
#0643a0:0000003400000000
#065380:24
#068340:14
#068320:0000003400000000
#069340:24
#071380:16363626
#072340:14000024
#072320:0000003400000000
#073380:14000024
#0733a0:0000003400000000
#076340:14000024
#076320:0000003400000000
#077380:14000024
#0773a0:0000003400000000
