This file was generated by Ched 2.7.0.0.
#TITLE ""
#ARTIST ""
#DESIGNER ""
#DIFFICULTY 0
#PLAYLEVEL
#SONGID ""
#WAVE ""
#WAVEOFFSET 0
#JACKET ""
#REQUEST "ticks_per_beat 480"
#00002: 4
#BPM01: 125
#00008: 01
#TIL00: ""
#VOLUME: ""
#HISPEED 00
#MEASUREHS 00
#04118:2616
#0411f:21
#0171a:14
#01812:14
#0191a:14
#02012:14
#02118:14
#02110:41
#02214:14
#02318:14
#02414:14
#0251a:14
#02612:14
#02718:14
#02814:14
#0291a:14
#02910:41
#03012:14
#03118:14
#03214:14
#04212:1616
#04210:41
#04318:1616
#04412:1616
#04912:0016
#04918:26
#04518:16
#04512:0016
#04712:16
#04718:0016
#05018:16
#05012:0016
#05112:0016
#05118:16
#05212:0016
#05218:16
#0331f:11
#00514:14
#00510:41
#00614:14
#00718:14
#00818:14
#00814:0014
#06413:24
#01310:41
#05710:41
#001320:14
#002320:24
#0033a0:14
#0043a0:24
#009380:14
#0103a0:24
#011340:14
#012320:24
#0133a0:14
#014380:24
#015320:14
#016340:24
#0333a0:14
#033390:0034
#034380:34
#034390:0034
#0353a0:34
#035390:0034
#036380:24
#037320:14
#037330:0034
#038340:34
#038330:0034
#039320:34
#039330:0034
#040340:24
#046380:1626
#048320:1626
#053380:1626
#054320:1626
#055380:1626
#056320:1626
#057380:16
#058380:0026
#059320:16
#060320:0026
#061390:14
#063390:0024
#064330:14000024
