This file was generated by Ched 2.7.0.0.
#TITLE ""
#ARTIST ""
#DESIGNER ""
#DIFFICULTY 0
#PLAYLEVEL
#SONGID ""
#WAVE ""
#WAVEOFFSET 0
#JACKET ""
#REQUEST "ticks_per_beat 480"
#00002: 4
#BPM01: 125
#00008: 01
#TIL00: ""
#VOLUME: ""
#HISPEED 00
#MEASUREHS 00
#04118:2400130000000013
#04115:0000001300000000
#04112:0000000000130000
#04114:24
#0411f:21
#0401b:00000013
#04012:00000013
#00518:00130000
#00515:1300001300000000
#0051b:0000000000000013
#00510:41
#03215:00000013
#03218:0000000000000013
#00118:00120000
#00116:12
#0011a:0000000000000012
#00615:0000000000000013
#0061b:0000001300000000
#00618:0013000000000000
#02618:13130013
#02615:0013001300000000
#02512:13000013
#02515:0013
#02518:00130000
#0251b:13
#02712:0000130000000013
#0271b:0000001300000000
#0331b:00130000
#03318:0013
#03315:00000013
#0331f:11
#03312:23
#00018:00000012
#00316:00120000
#00318:12
#00314:0000000000000012
#00216:0000000000000012
#00214:0012000000000000
#00418:0000000000000012
#0041a:0012000000000000
#00715:00130000
#00718:1300001300000000
#00712:0000000000000013
#0211b:13
#02112:13
#02115:00130013
#02118:0013
#02110:41
#0291b:13000013
#02918:0013
#02915:00130000
#02912:13
#02910:41
#03012:13
#03015:00000013
#0301b:0013000000000000
#0311b:0000130000000013
#03112:0000001300000000
#03412:13
#03418:0000130000000013
#03415:0000001300000000
#0341b:13
#04215:0000001300000000
#0421b:0013000000000000
#04210:41
#0431b:1300000000130000
#04315:0000130000000013
#04318:0000001300000000
#04312:13
#04418:0000001300000000
#04412:0013000000000000
#0451b:1300130000000013
#04512:1300001300000000
#04515:0000000000130000
#04918:00131313
#04915:0000001300130013
#04912:24
#0491a:24
#05015:0000001300000013
#0501b:0000001300000000
#05012:0013000000000000
#05018:0013000000000000
#05118:1300001300000000
#05115:00130000
#0511b:0000000000000013
#05112:0000000000230000
#05212:0000001300000000
#05218:0000001300000013
#05215:0013000000000000
#0541b:0000001300000000
#05415:0000001300000023
#05418:0013000000000000
#05315:1300001300000000
#05318:00130000
#05312:0000000000000013
#0531b:0000000000230000
#06115:0013
#06118:0013
#06112:24
#0611a:24
#0631a:14
#06318:0013
#06315:0013
#06312:14
#03915:0000000000000013
#03918:0000000000000013
#0391b:13
#03912:0000001300000000
#0371b:13
#03712:13130000
#03715:0013
#03718:00000013
#05716:00000014
#0571a:24
#05710:41
#05916:00000014
#05912:24
#05814:00000013
#05819:00000013
#06014:00000013
#06019:00000013
#0621a:14
#06212:14
#06214:0014
#06218:0014
#0381b:13
#03815:0000130000000013
#03818:0000001300001300
#03812:1300000000130000
#03515:0000000000130013
#03518:00000013
#04815:0013000000001300
#0481b:0000001300000000
#04818:00000013
#0471b:1300001300000000
#04712:1300130000000013
#04718:0000000000130000
#04618:0013000000000000
#04612:0000001300000000
#00812:0000001300000000
#00815:0013000000000000
#0091b:00130000
#00912:0013
#00918:00000013
#00916:24
#01918:0000130000000013
#01915:0000001300000000
#01318:0013
#01315:00000013
#01310:41
#01015:13000013
#01012:00130000
#0101b:13
#01018:0013
#0111b:1313
#01112:00130000
#01115:00000013
#01415:0013
#01418:00000013
#01815:13
#01818:0013000000000000
#01812:00000013
#0171b:0013
#01718:00130000
#01712:24
#01218:13000013
#0121b:00130000
#01212:13
#01215:0013
#02218:13
#02215:0013000000000000
#0221b:00000013
#02315:0000130000000013
#02318:0000001300000000
#05515:0000230000230000
#05518:2300002300000024
#05614:0024000000000000
#05618:0000002400000000
#0641a:24
#06412:24
#06419:00240000
#06413:00240000
#04052:00000053
#0405b:00000063
#04154:14
#04158:1400000000000053
#04155:0000006300000000
#04152:0000000000530000
#03352:13
#00555:0000006300000000
#0055b:0000000000000063
#00758:0000005300000000
#00752:0000000000000053
#0275b:0000006300000000
#02752:0000000000000053
#02658:00000053
#0315b:0000000000000063
#03152:0000005300000000
#04255:0000006300000000
#0425b:0063000000000000
#04458:0000005300000000
#04452:0053000000000000
#04358:0000005300000000
#04355:0000000000000063
#0435b:0000000000630000
#05252:0000005300000000
#05258:0000005300000000
#05255:0063000000000000
#05158:0000005300000000
#0515b:0000000000000063
#05152:0000000000530000
#0545b:0000006300000000
#05455:0000006300000000
#05458:0053000000000000
#05355:0000006300000000
#05352:0000000000000053
#0535b:0000000000630000
#0505b:0000006300000000
#05055:0000006300000000
#05052:0053000000000000
#05058:0053000000000000
#04955:0000000000000063
#04952:14
#0495a:14
#05658:00000015
#05653:00000015
#06155:0023
#06152:54
#06158:0023
#0615a:64
#0635a:64
#06358:0023
#06355:0023
#06352:54
#0645a:14
#06452:14000016
#06458:00000016
#03955:0000000000000063
#03958:0000000000000053
#0395b:63
#03952:0000005300000000
#05756:00000024
#0575a:54
#05956:00000024
#05952:54
#0625a:64
#06252:54
#06254:0064
#06258:0054
#03055:00000063
#0305b:0063000000000000
#03455:0000006300000000
#03458:0000000000000053
#03555:0000000000000063
#04855:0063000000006300
#0485b:0000006300000000
#04858:00000053
#04758:0000000000530000
#04752:0000000000000053
#0475b:0000006300000000
#04555:0000000000630000
#0455b:0000000000000063
#04552:0000005300000000
#04658:0053000000000000
#04652:0000005300000000
#0065b:0000006300000000
#00658:0053000000000000
#00852:0000005300000000
#00855:0063000000000000
#00956:14
#01858:0053000000000000
#01852:00000053
#0175b:0063
#01758:00530000
#01752:14
#01955:0000006300000000
#01958:0000000000000053
#02255:0063000000000000
#0225b:00000063
#02355:0000000000000063
#02358:0000005300000000
#001360:0000001200220000
#0023a0:0000001200002200
#003380:0000001200220000
#004340:0000001200002200
#005350:0000001300000000
#005320:0000000000230000
#0053b0:0000000000000013
#006380:0033000000002300
#0063b0:0000003300000000
#007380:0000001300000000
#0073b0:0000000000230000
#007320:0000000000000013
#008350:0033000000000000
#008320:0000003300000000
#009360:24
#013320:13230000
#0143b0:13230000
#015350:13
#015320:00230000
#015380:0013
#0153b0:00000023
#016320:13
#016350:00230000
#0163b0:0013
#016380:00000023
#017380:00130023
#0173b0:0033
#018380:0013000000000000
#0183b0:0000002300000000
#018320:00000013
#019350:23
#019350:0000001300000000
#019320:0000000000230000
#019380:0000000000000013
#0203b0:0023
#022350:0013000000000000
#022320:0000002300000000
#0223b0:00000013
#023380:23
#023380:0000001300000000
#0233b0:0000000000230000
#023350:0000000000000013
#024320:0023
#026380:00000013
#0273b0:23
#0273b0:0000001300000000
#027380:0000000000230000
#027320:0000000000000013
#028350:0023
#0303b0:0013000000000000
#030380:0000002300000000
#030350:00000013
#031320:23
#031320:0000001300000000
#031350:0000000000230000
#0313b0:0000000000000013
#032380:0023
#034350:0000001300000000
#034320:00000023
#034380:0000000000000013
#0353b0:0023
#035350:0000000000000013
#036320:0023
#0393b0:13
#039380:00230000
#039320:0000001300000000
#039350:0000000000230000
#039380:0000000000000013
#0403b0:0023
#039351:0000000000000013
#040321:0023
#0403b1:00000013
#041381:24
#040320:00000013
#041340:24
#041350:0000001300000023
#041320:0000000000330000
#041381:0000000000000013
#0423b1:0033000000000000
#042381:0000002300000000
#042350:0000001300000000
#042320:00000023
#043380:0000001300000023
#0433b0:0000000000330000
#043351:0000000000000013
#044321:0033000000000000
#044351:0000002300000000
#044380:0000001300000000
#0443b0:00000023
#045320:0000001300000023
#045350:0000000000330000
#0453b1:0000000000000013
#046381:0033000000000000
#0463b1:0000002300000000
#046320:0000001300000000
#046350:00000023
#0473b0:0000001300000023
#047380:0000000000330000
#047321:0000000000000013
#048351:0033000000000000
#048321:0000002300000000
#0483b0:0000001300000000
#048380:00000033
#0493a0:24
#048351:00000013
#049321:24
#049351:0000000000000013
#050321:0033000000002300
#050351:0000003300000000
#050380:0013000000002300
#0503b0:0000003300000000
#051380:0000001300000000
#0513b0:0000000000330033
#052380:0033003300000000
#0523b0:00000023
#051321:0000000000130000
#051351:0000000000000033
#052351:0033000000002300
#052321:0000003300000000
#053351:0000001300000000
#053321:0000000000330033
#054351:0033003300000000
#054321:00000023
#0533b0:0000000000130000
#053380:0000000000000033
#054380:0033000000002300
#0543b0:0000003300000000
#055380:00000000000013535353230000000000
#055390:0000000000000000000000000053005300530053000000000000000000000000
#055351:00000000000000000000135353532300
#055341:0000000000000000000000000000000000000000005300530053005300000000
#055380:00000000000000000000000000001454
#055390:0000000000000000000000000000000000000000000000000000000000540054
#056380:54542400000000000000000000000000
#056390:0054005400000000000000000000000000000000000000000000000000000000
#056341:00001454545434000000000000000000
#056331:0000000000540054005400540000550055005500550055002500000000000000
#056321:0000000000000000000000000055005500550055005500550000000000000000
#056380:00000000000014555555555525000000
#056390:0000000000000000000000000055005500550055005500550000000000000000
#0573a0:14
#057360:00000054
#0583a0:0024
#059320:14
#059360:00000054
#060320:0024
#061320:14
#061350:0053
#062320:34
#062340:0034
#063320:34
#063350:0053
#064320:24
#0613a1:14
#061381:0053
#0623a1:34
#062381:0034
#0633a1:34
#063381:0053
#0643a1:24
#064391:00000000140000340034000000000000
#064381:00000026
#064330:00000000140000340034000000000000
#064320:00000026
