This file was generated by Ched 2.7.0.0.
#TITLE ""
#ARTIST ""
#DESIGNER ""
#DIFFICULTY 0
#PLAYLEVEL
#SONGID ""
#WAVE ""
#WAVEOFFSET 0
#JACKET ""
#REQUEST "ticks_per_beat 480"
#00002: 4
#BPM01: 125
#00008: 01
#TIL00: ""
#VOLUME: ""
#HISPEED 00
#MEASUREHS 00
#0051a:14141414
#00510:41
#00612:14141414
#00718:14141414
#00814:14141414
#00914:00140000
#0091a:24
#01214:14
#01218:00140000
#01714:00140000
#01718:0014
#01712:00000014
#0171a:24
#01814:0014000000000000
#01812:0000001400000000
#01918:1400000000140000
#0191a:0000001400000000
#0201a:14
#02218:0014000000000000
#0221a:0000001400000000
#0211a:00000014
#02112:14
#02114:0014
#02118:00140000
#02110:41
#02314:1400000000140000
#02312:0000001400000000
#02412:14
#0251a:1414
#02512:00140014
#03312:00140014
#0331a:2414
#0331f:11
#03418:1414
#03414:00140014
#03512:00140014
#0351a:1414
#03618:1414
#03614:00140014
#0371a:14
#03718:0014
#03714:00140000
#03712:00000014
#03818:14
#0381a:0014
#03814:00140000
#03812:00000014
#04114:00140000
#0411a:0014
#04112:00000014
#04118:24
#0411f:21
#04314:14
#04318:00140000
#04312:0014
#0431a:00000014
#0451a:14
#04512:00140000
#04518:0014
#04514:00000014
#04914:00140000
#04918:0014
#04912:00000014
#0491a:24
#0391a:14
#03918:0000000000000014
#04014:00000014
#05112:14
#05118:00140000
#05114:0014
#0511a:00000014
#0531a:14
#05316:00140000
#05312:0014
#05318:00000014
#05914:14
#04712:14
#0471a:00140000
#04714:0014
#04718:00000014
#05512:14
#05516:00140000
#0551a:0014
#05514:00000014
#01018:00140000
#01012:14
#01114:00140000
#01118:14
#02912:1414
#0291a:00140014
#02910:41
#03114:1400000000140000
#03112:0000001400000000
#03212:14
#03018:14
#0301a:0000001400000000
#03019:0034000000000000
#02718:1400000000140000
#0271a:0000001400000000
#0281a:14
#02614:14
#02612:0000341400000000
#02613:0034000000000000
#06412:00240000
#06414:00000024
#0641a:24
#06418:0024
#05712:24
#05710:41
#01310:41
#04210:41
#0175a:14
#01752:00000054
#06454:00000014
#0335a:14
#0095a:14
#01854:0064000000000000
#01852:0000005400000000
#01958:5400000000540000
#0195a:0000006400000000
#0205a:64
#02258:0054000000000000
#0225a:0000006400000000
#0215a:00000064
#02354:6400000000640000
#02352:0000005400000000
#02452:54
#04158:14
#0495a:14
#0395a:64
#03958:0000000000000054
#05954:64
#05752:54
#05658:00000014
#03154:6400000000640000
#03152:0000005400000000
#03252:54
#0295a:00000064
#03058:54
#0305a:0000006400000000
#02758:5400000000540000
#0275a:0000006400000000
#0285a:64
#02552:00000054
#02654:64
#02652:0000005400000000
#001380:1424
#002340:1424
#003380:1424
#004340:1424
#0093a0:00001424
#010320:00001424
#0113a0:00001424
#012320:00001424
#0133a0:14000024
#013380:00343400
#014320:14000024
#014340:00343400
#015380:14000024
#0153a0:00343400
#016340:14000024
#016320:00343400
#017320:00000014
#018340:3434000000002400
#018320:0000003400000000
#019380:1400000000340000
#0193a0:0000343400000034
#0203a0:34
#020380:00000024
#0213a0:00000014
#022380:3434000000002400
#0223a0:0000003400000000
#023340:1400000000340000
#023320:0000343400000034
#024320:34
#024340:00000024
#025320:00000014
#026340:34000024
#026330:0034000000000000
#026320:0000343400000000
#027380:1400000000340000
#0273a0:0000343400000034
#0283a0:34
#028380:00000024
#0293a0:00000014
#030380:34000024
#030390:0034000000000000
#0303a0:0000003400000000
#031340:1400000000340000
#031320:0000343400000034
#032320:34
#032340:00000024
#0393a0:14
#039380:0000003400340034
#0403a0:0024
#042380:14000024
#0423a0:00343400
#044340:14000024
#044320:00343400
#0463a0:14000024
#046380:00343400
#048320:14000024
#048340:00343400
#050380:1434
#0503a0:00340024
#052340:1434
#052320:00340024
#054320:14
#054340:00240000
#0543a0:0014
#054380:00000024
#0563a0:14
#056380:00340024
#057320:14
#058340:0034
#059340:34
#061320:34
#062320:3435
#063320:36000026
