This file was generated by Ched 2.7.0.0.
#TITLE ""
#ARTIST ""
#DESIGNER ""
#DIFFICULTY 0
#PLAYLEVEL
#SONGID ""
#WAVE ""
#WAVEOFFSET 0
#JACKET ""
#REQUEST "ticks_per_beat 480"
#00002: 4
#BPM01: 184
#00008: 01
#TIL00: ""
#VOLUME: ""
#HISPEED 00
#MEASUREHS 00
#00418:14
#00514:14
#00618:14
#00912:14
#01018:14
#01118:14
#01214:14
#01314:14
#0141a:14
#0151a:14
#02014:14
#02118:14
#02418:0014
#02410:41
#02514:14
#0261a:14
#02612:0014
#0271a:14
#02814:14
#02818:0014
#02912:14
#0291a:0014
#0321a:0014
#0321f:11
#03218:24
#03412:0014
#03414:24
#04012:0016
#04212:16
#04218:0016
#04418:1616
#04512:1616
#04818:0016
#04912:16
#04918:0016
#05012:1616
#05118:1616
#05214:00000014
#05212:14
#05210:41
#05418:14
#05414:0014
#06118:0014
#06110:41
#0631a:14
#06314:0014
#06512:1414
#0671a:1414
#00812:24
#00810:41
#03918:0000000000000026
#0391f:0000000000000021
#04712:0000000000000026
#05518:26
#05512:0026
#01610:41
#04110:41
#00658:64
#03258:64
#0325a:0024
#03452:0024
#03454:54
#05254:00000024
#05252:64
#0003a0:14
#0013a0:24
#002320:14
#003320:24
#006380:14
#0073a0:24
#016340:14
#017320:24
#018380:14
#0193a0:24
#022320:1400000000000034
#024340:24
#030340:14
#031340:24
#032380:14
#0323a0:0054
#033380:24
#034340:14
#034320:0054
#035340:24
#0363a0:14
#0373a0:24
#038320:14
#039320:24
#041380:1626
#043320:1626
#046380:16
#046370:0036
#047380:26
#052320:14
#052340:00000054
#053320:0024
#0563a0:14
#056390:0000003400000000
#056380:00000034
#057380:0024
#058320:14
#058330:0000003400000000
#058340:00000034
#061320:24
#062340:1424
#064380:1424
#066320:1424
#0683a0:14
#068380:0000000000000034
#0713a0:24
