This file was generated by Ched 2.7.0.0.
#TITLE ""
#ARTIST ""
#DESIGNER ""
#DIFFICULTY 0
#PLAYLEVEL
#SONGID ""
#WAVE ""
#WAVEOFFSET 0
#JACKET ""
#REQUEST "ticks_per_beat 480"
#00002: 4
#BPM01: 184
#00008: 01
#TIL00: ""
#VOLUME: ""
#HISPEED 00
#MEASUREHS 00
#05614:0013000014000000
#05616:0000130000140000
#05612:1300001400002500
#0561b:0000000000130000
#0561a:00130000
#05618:00000025
#05617:0000002400000000
#00019:1200001200000000
#00017:00120000
#0001b:0000000000120000
#00016:0000000000000012
#00114:00120000000000001200000000000000
#00116:0000000000000012
#00118:00000000000000000000000012000012
#00216:0000130000000013
#00218:0000001300000000
#0021b:0000000000130000
#00312:0013
#00318:00000000000000000000000013000013
#00315:0000000000000013
#00313:00130000000000000000000000000000
#00416:00140000
#00418:0000001400000000
#0041a:0000000000140000
#00412:00000014
#00518:0000000000000013
#00515:00000000000000000000000000000013
#0051a:00000014
#00512:00001414
#00516:14
#00514:00140000
#00817:0000001300000000
#00812:2500001300000000
#00818:0000000000130000
#00813:0000000000130000
#00814:0000000000000013
#00819:2500000000000013
#00815:0013
#0081a:00240024
#00810:41
#00916:00140000000000000000140000000000
#00912:0013
#00918:0013
#0091a:00240024
#00712:00160000
#00718:00160000
#00714:00160000000000000000000000000000
#01416:0000241300002400
#0141b:1300001300000000
#01415:1500000000130000
#0141a:0000000000130000
#01413:0013
#01414:0000000000000023
#01419:0000000000000023
#0191a:0000000000140000
#01912:0000000000140013
#01918:12120000
#0191c:0000001200000000
#02015:13
#0201a:00130000
#02012:00000013
#02118:13
#02113:00130000
#0211b:00000013
#02215:1300000000000026
#02212:00000014
#0221a:0000130000140000
#02218:0053
#01012:1300001300000000
#01016:15240024
#01017:0000001300000000
#0101a:0013
#01018:0000000000130000
#01013:0000000000130000
#01014:0000000000000013
#01019:0000000000000013
#01116:001400240000000000240000
#0111b:0013
#01115:0015
#01216:0000001300000000
#0121b:0000001300000000
#01215:0000000000130000
#0121a:0000000000130000
#01219:1500000000000013
#01214:0000000000000013
#01218:0013
#01212:15240024
#01316:00140000000000000000140000000000
#0131b:0013
#01315:0013
#01312:00240024
#01516:000014000000000000140000000000000000000000000000
#01512:00000000000000140000000016000000
#01515:0000000000160000
#0151b:00000013
#01519:00250000
#01518:0026
#01616:00120000
#01612:0000001200000000
#01610:41
#0171b:12120000
#01717:0000001200000000
#01813:12120000
#01817:0000001200000000
#0061a:1414001400000000
#00616:0000140000140000
#00612:00001414
#00618:0000000000000016
#02316:0000000000000015
#0231a:00000014
#02312:0000000000140014
#02416:0013000000000000
#02417:0000130000000014
#0241b:0000001300000000
#02418:0013
#02415:0000000000130000
#0241a:00000014
#02414:0000000000000013
#02412:00240024
#02410:41
#02516:00001300000000130000130000000000
#02517:00130000
#0251b:0000001313000000
#0251a:00000014
#02518:0000000000000013
#02512:00240024
#02615:1500000000000014
#0261a:14240024
#02614:0000001300130000
#02619:0000000000000013
#02617:0013
#02612:00000000000000000000000000000000000000000000000000530000000000000000000000000000005300000000000000000000000000000000000000000000
#02717:0013000013000000
#02715:00140000
#02712:0000000000130000
#02716:00000013
#02714:0000000000000013
#0271a:00240024
#02812:13240000
#02813:0000001300001300
#02817:0000001300001300
#0281a:0000240000130000
#02816:0000000000130000
#0281b:0000000000000013
#02815:2600000000000026
#03012:13000013
#0301b:0000131300001300
#03014:0000000000130000
#03019:0000000000130000
#03016:00140000
#03015:2600002600000000
#03018:0000000000000025
#03013:0000000000000025
#02914:0013000013000000
#02919:0013000013000000
#02916:0000000000130014
#02917:0000001300000000
#0291a:00240024
#02912:00240024
#0311a:0014140000000000
#03112:0014140000000013
#03118:0000001313131300
#03115:00000000000000130000001300000000
#0311b:0000000000000013
#03212:13
#0321b:13
#0321f:11
#03614:00131313
#03619:00131313
#03612:6c
#03713:00141400
#03719:0000140014000025
#03718:0000000000121200
#03716:00000000000000000000001200000000
#0371a:24
#03712:2400000000000025
#05717:15000000000000130000000000000000
#05719:00150015
#05716:00000000001300000000140000000000
#05712:00001515
#05715:0000000000000013
#03816:00120000
#03818:0000221324152616
#03814:0014
#03812:0000000000001626
#03815:0000002300000000
#03813:0000000000250000
#03912:0000001400160023
#03914:00140000
#03916:0014000000000028
#03917:0000001300000000
#0391b:0023000000000000
#03919:00230000
#0391f:0000000000000021
#04112:1313000013130000
#0411b:1300000000000013
#04118:0013000000000000
#04117:0000000000000000000000000000000013000000000000000000000000530000
#0411a:0000001400000000
#04115:0000240000002424
#04110:41
#04119:00000000000000000000000000000000000000000000000000000000000000000000000000000000000000000000000000000000000000000053000000000000
#0421b:0000001300000000
#04216:0013000000130000
#0421a:0024000000240014
#04215:0000002400000024
#04219:00000000000000000000000000000000000000000000000000530000000000000000000000000000000000000000000000000000000000000000000000000000
#04217:0000000000000000000000000053000000000000000000000000000000000000
#04214:00000000000000000053000000000000000000000000000000000000000000000000000000000000005300000000000000000000000000000000000000000000
#04212:0000000000530000000000000000000000000000005300000000000000000000
#04316:1313000000002400
#0431b:0000000013130000
#04312:0000000000530000000000000000000013000000130000000000000000000000
#04314:00000000000000000053000000000000000000000000000000000000000000000000000000000000000000000000000000000000000000002400000000000000
#04318:0000000000000024
#04018:0016000000000013
#0401b:00000013
#04015:00000024
#04012:0069
#0441b:0013000013130000
#04412:0013140000000014
#0441a:0000000000000014
#04417:00240024
#0451b:0000000013130000
#04516:1413
#04512:00000013
#04517:00240024
#0461a:14001424
#04612:14241400
#04615:0014000000000000
#04617:0000000000140000
#04618:00140000
#04614:00000014
#0491b:1313000013130000
#04915:0013000000000000
#04912:1300001400001300
#04917:0000001300000000
#04916:00240024
#05018:00000000000000000000000000000000006400000000000000000000000000000000000000000000130000000000000000000000000000000000000000000000
#05015:00000013
#05016:24240000
#05012:0064000000000000230000000000000024000000000000000000000000000000
#0501a:0000000000000000006400000000000024000000000000000000000000000000
#05017:0000000000000027
#05014:00640000000000000000000000000000000000000000000000000000000000000000000000000000000000000000000000000000000000000000000000000000
#05116:0014000014000014
#0511b:00000000000000130000000000000000
#05112:00140014
#05212:1600000013130013
#0521b:00130013
#05217:0013
#0521a:24
#05216:00240024
#05210:41
#0531b:1300000013130013
#05316:1400240000132400
#05312:0000001300000000
#0541a:14241413
#05416:0014001400140000
#05412:24142400
#05413:00000013
#05419:0000000000000013
#05414:0000000000000013
#05517:00150000
#05513:00000015
#05518:2626
#05512:26
#05819:000000000000000000000000000000000000000000000000000000000000000000000000000000000000000000000000000000000000000000000000000000000000000000000000000000000000000000000000000000000000000000000000000000000000000000000000000000000000000000000000000000000000000000000000000000000000000000000000000000000000000000000000000000000000000000000000000000000000000000000000000000000000000000000000000000000000000000000000000000000000000000000000000000000000000000000000000000000000000000000000130000000000000000000000000000000000000000000000000000000000000000000000000000000000000000000000000000000000000000000000000000000000000000000000000000000000000000000000000000000000000000000000000000000000000000000000000000000000000000000000000000000000000000000000000000000000000000000000000000000000000000000000000000000000000000000000000000000000000000000000000000000000000000000000000000000000000000000000000000000000000000000000000000000000000000000000000000000000000000000000000000000000000000000000000000000000000000000000000000000000000000000000000000000000000000000000000000000000000000000000000000000000000000000000000000000000000000000000000000000000000000000000000000000000000000000000000000000000000000000000000000000000000000000000000000000000000000000000000000000000000000000000000000000000000000000000000000000000000000000000000000000000000000000000000000000000000000000000000000000000000000000000000000000000000000000000000000000000000000000000000000000000000000000000000000000000000000000000000000000000000000000000000000000000000000000000000000000000000000000000000000000000000000000000000000000000000000000000000000000000000000000000000000000000000000000000000000000000000000000000000000000000000000000000000000000000000000000000000000000000000000000000000000000000000000000000000000000000000000000000000000000000000000000000000000000000000000000000000000000000000000000000000000000000000000000000000000000000000000000000000000000000000000000000000000000000000000000000000000000000000000000000000000000000000000000000000000000000000000000000000000000000000000000000000000000000000000000000000000000000000000000000000000000000000000000000000000000000000000000000000000000000000000000000000000000000000000000000000000000000000000000000000000000000000000000000000000000000000000000000000000000000000000000000000000000000000000000000000000000000000000000000000000000000000000000000000000000000000000000000000000000000000000000000000000000000000000000000000000000000000000000000000000000000000000000000000000000000000000000000000000000000000000000000000000000000000000000000000000000000000000000000000000000000000000000000000000000000000000000000000000000000000000000000000000000000000000000000000000000000000000000000000000000000000000000000000000000000000000000000000000000000000000000000000000000000000000000000000000000000000000000000000000000000000000000000000000000000000000000000258500000000000000000000000000000000000000000000000000000000000000000000000000000000000000000000000000000000000000000000000000000000000000000000000000000000000000000000000000000000000000000000000000000000000000000000000000000000000000000000000000000000000000000000000000000000000000000000000000000000000000000000000000000000000000000000000000000000000000000000000000000000000000000000000000000000000000000000000000000000000000000000000000000000000000000000000000000000000000000000000000000000000000000000000000000000000000000000000000000000000000000000000000000000000000000000000000000000000000000000000000000000000000000000000000000000000000000000000000000000000000000000000000000000000000000000000000000000000000000000000000000000000000000000000000000000000000000000000000000000000000000000000000000000000000000000000000000000000000000000000000000000000000000000000000000000000000000000000000000000000000000000000000000000000000000000000000000000000000000000
#05817:23130000
#0581a:0000001400000000
#05818:0014
#05816:0000000000140000
#05812:0000000000130000
#0581b:13
#05813:00130025
#05815:0000002400000000
#05912:000000000000000000000000000000000000000000000000000000000000000000000000000000000000000000000000000000000000000000000000000000000000000000000000000000000000000000000000000000000000000000000000000000000000000000000000000000000000000000000000000000000000000000000000000000000000000000000000000000000000000000000000000000000000000000000000000000000000000000000000000000000000000000000000000000000000000000000000000000000000000000000000000000000000000000000000000000000000000000000000000000000000000000000000000000000000000000000000000000000000000000000000000000000000000000000000000000000000000000000000000000000000000000000000000000000000000000000000000000000000000000000000000000000000000000000000000000000000000000000000000000000000000000000000000000000000000000000000000000000000000000000000000000000000000000000000000000000000000000000000000000000000000000000000000000000000000000000000000000000000000000000000000000000000000000000000000000000000000000000000000000000000000000000000000000000000000000000000000000000000000000000000000000000000000000000000000000000000000000000000000000000000000000000000000000000000000000000000000000000000000000000000000000000000000000000000000000000000000000000000000000000000000000000000000000000000000000000000000000000000000000000000000000000000000000000000000000000000000000000000000000000000000000000000000000000000000000000000000000000000000000000000000000000000000000000000000000000000000000000000000000000000000000000000000000000000000000000000000000000000000000000000000000000000000000000000000000000000000000000000000000000000000000000000000000000000000000000000000000000000000000000000000000000000000000000000000000000000000000000000000000000000000000000000000000000000000000000000000000000000000000000000000000000000000000000000000000000000000000000000000000000000000000000000000000000000000000000000000000000000000000000000000000000000000000000000000000000000000000000000000000000000000000000000000000000000000000000000000000000000000000000000000000000000000000000000000000000000000000000000000000000000000000000000000000000000000000000000000000000000000000000000000000000000000000000000000000000000000000000000000000000000000000000000000000000000000000000000000000000000000000000000000000000000000000000000000000000000000000000000000000000000000000000000000000000000000000000000000000000000000000000000000000000000000000000000000000000000000000000000000000000000000000000000000000000000000000000000000000000000000000000000000000000000000000000000000000000000000000000000000000000000000000000000000000000000000000000000000000000000000000000000000000000000000000000000000000000000000000000000000000000000000000000000000000000000000000000000000000000000000000000000000000000000000000000000000000000000000000000000000000000000000000000000000000000000000000000000000000000000000000000000000000000000000000000000000000000000000000000015650015000000000000000000000000000000000000000000000000000000000000000000000000000000000000000000000000000000000000000000000000000000000000000000000000000000000000000000000000000000000000000000000000000000000000000000000000000000000000000000000000000000000000000000000000000000000000000000000000000000000000000000000000000000000000000000000000000000000000000000000000000000000000000000000000000000000000000000000000000000000000000000000000000000000000000000000000000000000000000000000000000000000000000000000000000000000000000000000000000000000000000000000000000000000000000000000000000000000000000000000000000000000000000000000000000000000000000000000000000000000000000000000000000000000000000000000000000000000000000000000000000000000000000000000000000000000000000000000000000000000000000000000000000000000000000000000000000000000000000000000000000000000000000000000000000000000000000000000000000000000000000000000000000000000000000000000000000000000000000000
#06116:0000001300000000
#0611b:0000001300000000
#06115:0000000000130000
#0611a:0000000000130000
#06114:0000000000000013
#06118:0013
#06119:2500000000000013
#06112:25240024
#06110:41
#06216:0000000000140000
#0621b:0013
#06215:00001300000000130000000000000000
#06218:00000013000013000000000000000000
#06212:0000240000142400
#0631b:1300001300000000
#06315:1500000000130000
#06316:0000241300002400
#06313:0013
#0631a:0000000000130000
#06319:0000000000000013
#06314:0000000000000013
#06412:00000013000013000000000000000000
#0641b:00001300000000130000000000000000
#06415:0015
#06416:0000240000142400
#06517:0000001300000000
#06512:2500001300000000
#06518:0000000000130000
#06513:0000000000130000
#06519:1500000000000013
#06515:0013
#06514:0000000000000013
#0651a:00240024
#06616:0000000000140000
#06612:0013
#06618:00001300000000130000000000000000
#06615:00000013000013000000000000000000
#0661a:0000240000142400
#06716:0000000014000000000000000000000000000000005400000000000000000000
#06719:25000000000000000000000000000000150000000000000015000000000000000000000000000000000000000000000000000000000000000063000000000000
#06712:2500001500000000
#06713:0000000000150000
#0671a:0000000000140000
#06714:0000000000000025
#0671b:0000000000000023
#06717:00000000000000000000000000000000000000000000000000540000000000000000000000000000000000000000000000000000000000000000640000000000
#06715:0000000000000000000000000054000000000000000000000000000000000000
#06718:00000000000000000000000000000000000000000000000000000000000000000000000000000000005400000000000000000000000000000000000000000000
#06814:00000000140000000000000000000000006300000000000000000000000000000000000000000000000000000000000013000000000000000000000000000000
#06818:00000000000000140000000014000000
#0681a:0000000000140000
#06816:0000000000000014
#06812:0000230000000023
#06815:0000000000000000006400000000000000000000000000000000000000000000
#0691b:13
#04812:00160024
#04815:0000000000000014
#04817:00000067
#04715:0013000000131300
#04718:00001300000000000000001300130000
#04712:1400140024000028
#0471a:14241400
#04716:0000001400000000
#0471b:0000000000000023
#0341b:13
#03312:13
#03512:130000000000000000000000000000000000000000000000000000000000000000000000000000000000000000000000000000000000000000000000000000000000000000000000000000000000000000000000000000000000000000000000000000000000000000000000000000000000000000000000000000000000000000000000000000000000000000000000000000000000000000000000000000000000000000000000000000000000000000000000000000000000000000000000000000000000000000000000000000000000000000000000000000000000000000000000000000000000000000000000000000000000000000000000000000000000000000000000000000000000000000000000000000000000000000000000000000000000000000000000000000000000000000000000000000000000000000000000000000000000000000000000000000000000000000000000000000000000000000000000000000000000000000000000000000000000000000000000000000000000000000000000000000000000000000000000000000000000000000000000000000000000000000000000000000000000000000000000000000000000000000000000000000000000000000000000000000000000000000000000000000000000000000000000000000000000000000000000000000000000000000000000000000000000000000000000000000000000000000000000000000000000000000000000000000000000000000000000000000000000000000000000000000000000000000000000000000000000000000000000000000000000000000000000000000000000000000000000000000000000000000000000000000000000000000000000000000000000000000000000000000000000000000000000000000000000000000000000000000000000000000000000000000000000000000000000000000000000000000000000000000000000000000000000000000000000000000000000000000000000000000000000000000000000000000000000000000000000000000000000000000000000000000000000000000000000000000000000000000000000000000000000000000000000000000000000000000000000000000000000000000000000000000000000000000000000000000000000000000000000000000000000000000000000000000000000000000000000000000000000000000000000000000000000000000000000000000000000000000000000000000000000000000000000000000000000000000000000000000000000000000000000000000000000000000000000000000000000000000000000000000000000000000000000000000000000000000000000000000000000000000000000000000000000000000000000000000000000000000000000000000000000000000000000000000000000000000000000000000000000000000000000000000000000000000000000000000000000000000000000000000000000000000000000000000000000000000000000000000000000000000000000000000000000000000000000000000000000000000000000000000000000000000000000000000000000000000000000000000000000000000000000000000000000000000000000000000000000000000000000000000000000000000000000000000000000000000000000000000000000000000000000000000000000000000000000000000000000000000000000000000000000000000000000000000000000000000000000000000000000000000000000000000000000000000000000000000000000000000000000000000000000000000000000000000000000000000000000000000000000000000000000000000000000000000000000000000000000000000000000000000000000000000000000000000000000000000000000000000000000000000000000000000000000000000000000000000000000000000000000000000000000000000000000000000000000000000000000000000000000000000000000000000000000000000000000000000000000000000000000000000000000000000000000000000000000000000000000000000000000000000000000000000000000000000000000000000000000000000000000000000000000000000000000000000000000000000000000000000000000000000000000000000000000000000000000000000000000000000000000000000000000000000000000000000000000000000000000000000000000000000000000000000000000000000000000000000000000000000000000000000000000000000000000000000000000000000000000000000000000000000000000000000000000000000000000000000000000000000000000000000000000000000000000000000000000000000000000000000000000000000000000000000000000000000000000000000000000000000000000000000000000000000000000000000000000000000000000000000000000000000000000000000000000000000000000000000000000000000000000000000000000000000000000000000000000000000000000007c7c7c7c7c
#07112:5c
#05658:00000045
#05652:00000065
#05656:43
#05657:0000004400000000
#00952:00356300
#00956:00240000000000000000240000000000
#00954:00000035
#00854:0000000000000063
#00852:65
#00853:0000000000130000
#00857:0000001300000000
#00859:1500000000000013
#00752:00660014
#00758:00660000
#0075a:00000014
#00754:00260000000000000000000000000000
#02055:63
#0205a:00230000
#02054:0034
#02158:5344
#02153:00230000
#02255:6300000000000016
#02254:0034
#0225a:00230000
#01056:65
#01052:0000001300000000
#01058:0000000000130000
#01054:0000000000000013
#01059:0000000000000063
#0115a:00440000
#01156:002400000000000000000000
#01152:00000013
#01155:0065
#01256:0000001300000000
#0125a:0000000000130000
#01259:6500000000000053
#01254:0000000000000013
#01356:00240000000000000000240000000000
#0135b:0053
#01359:00450000
#01357:00000045
#01455:5500000000130000
#0145b:0000001300000000
#01459:0000000000000013
#01454:0000000000000063
#01552:00350016
#01556:002400000000000000000000
#0155b:00000023
#01558:0066
#01657:12
#00056:0000000000000062
#00154:00220000000000000000000000000000
#00256:0000000000000063
#00353:00230000000000000000000000000000
#00656:0000000000140000
#00658:0000000000000066
#02356:0000000000000065
#02352:0000000000000034
#02457:0000000000000064
#02454:0000000000000033
#02655:5500000000000054
#0265a:44
#02659:0000000000000043
#02755:00540000
#02855:4600000000000036
#03055:4600003600000000
#03058:0000000000000045
#03053:0000000000000035
#03252:13
#0325b:63
#03753:0014
#03759:0000000014000045
#03752:0000000000000035
#05757:25
#05752:0015
#05759:00000015
#03852:0000000000000016
#03858:0000000000000016
#03956:0000000000000048
#03952:0000003400260063
#03957:0000006300000000
#0415a:0000006400440000
#04157:0023
#04155:0000000000000014
#04158:0043000000000000
#0425a:0014000000140064
#04255:0000001400000014
#0435a:0044000000000000
#04356:23
#04354:0000000000000034
#04358:0000000000000044
#04452:0000540000000064
#0445a:0000000000000044
#04552:00330013
#04556:24
#04658:00140000
#04654:00000014
#04955:0033000000000000
#04952:0000005400001300
#04956:00000064
#0505b:13
#05052:00130000
#05057:0000000000000047
#05156:0064000034000000
#0515b:00000000000000230000000000000000
#05152:00340034
#0525a:44
#05356:6400000000630000
#05352:0000001300000000
#05452:00340000
#0545a:4444
#05557:00250000
#05558:4666
#05552:5636
#05553:00000025
#05853:00000035
#05859:000000000000000000000000000000000000000000000000000000000000000000000000000000000000000000000000000000000000000000000000000000000000000000000000000000000000000000000000000000000000000000000000000000000000000000000000000000000000000000000000000000000000000000000000000000000000000000000000000000000000000000000000000000000000000000000000000000000000000000000000000000000000000000000000000000000000000000000000000000000000000000000000000000000000000000000000000000000000000000000000000000000000000000000000000000000000000000000000000000000000000000000000000000000000000000000000000000000000000000000000000000000000000000000000000000000000000000000000000000000000000000000000000000000000000000000000000000000000000000000000000000000000000000000000000000000000000000000000000000000000000000000000000000000000000000000000000000000000000000000000000000000000000000000000000000000000000000000000000000000000000000000000000000000000000000000000000000000000000000000000000000000000000000000000000000000000000000000000000000000000000000000000000000000000000000000000000000000000000000000000000000000000000000000000000000000000000000000000000000000000000000000000000000000000000000000000000000000000000000000000000000000000000000000000000000000000000000000000000000000000000000000000000000000000000000000000000000000000000000000000000000000000000000000000000000000000000000000000000000000000000000000000000000000000000000000000000000000000000000000000000000000000000000000000000000000000000000000000000000000000000000000000000000000000000000000000000000000000000000000000000000000000000000000000000000000000000000000000000000000000000000000000000000000000000000000000000000000000000000000000000000000000000000000000000000000000000000000000000000000000000000000000000000000000000000000000000000000000000000000000000000000000000000000000000000000000000000000000000000000000000000000000000000000000000000000000000000000000000000000000000000000000000000000000000000000000000000000000000000000000000000000000000000000000000000000000000000000000000000000000000000000000000000000000000000000000000000000000000000000000000000000000000000000000000000000000000000000000000000000000000000000000000000000000000000000000000000000000000000000000000000000000000000000000000000000000000000000000000000000000000000000000000000000000000000000000000000000000000000000000000000000000000000000000000000000000000000000000000000000000000000000000000000000000000000000000000000000000000000000000000000000000000000000000000000000000000000000000000000000000000000000000000000000000000000000000000000000000000000000000000000000000000000000000000000000000000000000000000000000000000000000000000000000000000000000000000000000000000000000000000000000000000000000000000000000000000000000000000000000000000000000000000000000000000000000000000000000000000000000000000000000000000000000000000000000000000000000000000000000000556500000000000000000000000000000000000000000000000000000000000000000000000000000000000000000000000000000000000000000000000000000000000000000000000000000000000000000000000000000000000000000000000000000000000000000000000000000000000000000000000000000000000000000000000000000000000000000000000000000000000000000000000000000000000000000000000000000000000000000000000000000000000000000000000000000000000000000000000000000000000000000000000000000000000000000000000000000000000000000000000000000000000000000000000000000000000000000000000000000000000000000000000000000000000000000000000000000000000000000000000000000000000000000000000000000000000000000000000000000000000000000000000000000000000000000000000000000000000000000000000000000000000000000000000000000000000000000000000000000000000000000000000000000000000000000000000000000000000000000000000000000000000000000000000000000000000000000000000000000000000000000000000000000000000000000000000000000000000000000000
#05857:33
#05855:0000003400000000
#05952:000000000000000000000000000000000000000000000000000000000000000000000000000000000000000000000000000000000000000000000000000000000000000000000000000000000000000000000000000000000000000000000000000000000000000000000000000000000000000000000000000000000000000000000000000000000000000000000000000000000000000000000000000000000000000000000000000000000000000000000000000000000000000000000000000000000000000000000000000000000000000000000000000000000000000000000000000000000000000000000000000000000000000000000000000000000000000000000000000000000000000000000000000000000000000000000000000000000000000000000000000000000000000000000000000000000000000000000000000000000000000000000000000000000000000000000000000000000000000000000000000000000000000000000000000000000000000000000000000000000000000000000000000000000000000000000000000000000000000000000000000000000000000000000000000000000000000000000000000000000000000000000000000000000000000000000000000000000000000000000000000000000000000000000000000000000000000000000000000000000000000000000000000000000000000000000000000000000000000000000000000000000000000000000000000000000000000000000000000000000000000000000000000000000000000000000000000000000000000000000000000000000000000000000000000000000000000000000000000000000000000000000000000000000000000000000000000000000000000000000000000000000000000000000000000000000000000000000000000000000000000000000000000000000000000000000000000000000000000000000000000000000000000000000000000000000000000000000000000000000000000000000000000000000000000000000000000000000000000000000000000000000000000000000000000000000000000000000000000000000000000000000000000000000000000000000000000000000000000000000000000000000000000000000000000000000000000000000000000000000000000000000000000000000000000000000000000000000000000000000000000000000000000000000000000000000000000000000000000000000000000000000000000000000000000000000000000000000000000000000000000000000000000000000000000000000000000000000000000000000000000000000000000000000000000000000000000000000000000000000000000000000000000000000000000000000000000000000000000000000000000000000000000000000000000000000000000000000000000000000000000000000000000000000000000000000000000000000000000000000000000000000000000000000000000000000000000000000000000000000000000000000000000000000000000000000000000000000000000000000000000000000000000000000000000000000000000000000000000000000000000000000000000000000000000000000000000000000000000000000000000000000000000000000000000000000000000000000000000000000000000000000000000000000000000000000000000000000000000000000000000000000000000000000000000000000000000000000000000000000000000000000000000000000000000000000000000000000000000000000000000000000000000000000000000000000000000000000000000000000000000000000000000000000000000000000000000000000000000000000000000000000000000000000000000000000000000000000000000000000025000025000000000000000000000000000000000000000000000000000000000000000000000000000000000000000000000000000000000000000000000000000000000000000000000000000000000000000000000000000000000000000000000000000000000000000000000000000000000000000000000000000000000000000000000000000000000000000000000000000000000000000000000000000000000000000000000000000000000000000000000000000000000000000000000000000000000000000000000000000000000000000000000000000000000000000000000000000000000000000000000000000000000000000000000000000000000000000000000000000000000000000000000000000000000000000000000000000000000000000000000000000000000000000000000000000000000000000000000000000000000000000000000000000000000000000000000000000000000000000000000000000000000000000000000000000000000000000000000000000000000000000000000000000000000000000000000000000000000000000000000000000000000000000000000000000000000000000000000000000000000000000000000000000000000000000000000000000000000000000000
#06054:00000015
#06059:00000045
#06256:0000000000240000
#0625b:0053
#06257:00000045
#06355:5500000000330000
#0635b:0000004300000000
#06359:0000000000000043
#06354:0000000000000053
#06152:15
#06159:5500000000000063
#06156:0000003300000000
#0615a:0000000000430000
#06154:0000000000000033
#06455:0065
#06452:00000013
#06557:0000004300000000
#06553:0000000000330000
#06559:0000000000000043
#06554:0000000000000053
#06552:65
#06656:0000000000240000
#06652:0063
#06654:00000035
#06759:45
#06752:6500003500000000
#06756:0024000000000000
#06753:0000000000350000
#06754:0000000000000035
#06757:0000000000000000000000000000000000000000000000000000000000640000
#06858:00000000460000240000000000000000
#06854:00240000000000000000000000000000
#06855:0000000000000000005400000000000000000000000000000000000000000000
#06852:0000000000000013
#06856:0000000000000064
#0695b:23
#04058:0026000000000000
#04852:00260000
#0475b:0000000000000053
#04752:0000340000000038
#0475a:0044
#0345b:63
#03352:63
#03552:63
#03652:1c
#000350:1222
#000390:0000000000000012
#001390:0022
#000361:0000000000000012
#001341:00520000000000000000000000000000
#001361:00220000
#002330:1323
#0023a0:0000000000000013
#0033a0:0023
#002361:0000000000000013
#003331:00530000000000000000000000000000
#003361:00230000
#004320:1424
#0043a0:0000000000000014
#0053a0:0024
#006380:0000000000000016
#007340:00560000000000000000000000000000
#007380:00360000
#007320:00000024
#007321:00160000
#0073a1:00000024
#008321:15
#008361:00230000
#008341:0000000000000013
#009361:00540000000000000000000000000000
#009321:00250000
#009321:0013
#009361:0000000000540000
#009341:00000025
#010361:15
#0103b1:00230000
#010391:0000000000000013
#011361:005400000000000000000000
#0113a1:00240000
#011351:0015
#011321:00000023
#012391:15
#012371:00230000
#012391:0000000000000013
#013361:00540000000000000000000000000000
#013391:00250000
#0133b1:0013
#013361:0000000000540000
#013371:00000025
#014351:15
#014321:00230000
#014341:0000000000000013
#015361:005400000000000000000000
#015321:00250000
#015381:0016
#0153b1:00000053
#016371:22
#016320:12220000
#017370:12220000
#018370:12220000
#0193c0:12220000
#019380:00000013
#020380:0000003300000000
#021380:3324
#021330:00330000
#020351:13
#0203a1:00330000
#020341:0024
#021351:1300003300000000
#022351:33
#0223a1:00330000
#022341:0024
#022380:1300003323000000
#023360:0000000000000015
#0243b0:0023000000000000
#024370:0000000000000014
#0253b0:0023000000000000
#026350:15
#026320:00230000
#026350:0000000000000014
#027320:0023000000000000
#027350:00140000
#027320:0023
#0323b0:13
#032360:0054
#035320:00000000000000000000000000000000000000000000000000000000000000000000000000000000000000000000000000000000000000000000000000000000000000000000000000000000000000000000000000000000000000000000000000000000000000000000000000000000000000000000000000000000000000000000000000000000000000000000000000000000000000000000000000000000000000000000000000000000000000000000000000000000000000000000000000000000000000000000000000000000000000000000000000000000000000000000000000000000000000000000000000000000000000000000000000000000000000000000000000000000000000000000000000000000000000000000000000000000000000000000000000000000000000000000000000000000000000000000000000000000000000000000000000000000000000000000000000000000000000000000000000000000000000000000000000000000000000000000002c
#033321:13
#033361:0054
#035321:00000000000000000000000000000000000000000000000000000000000000000000000000000000000000000000000000000000000000000000000000000000000000000000000000000000000000000000000000000000000000000000000000000000000000000000000000000000000000000000000000000000000000000000000000000000000000000000000000000000000000000000000000000000000000000000000000000000000000000000000000000000000000000000000000000000000000000000000000000000000000000000000000000000000000000000000000000000000000000000000000000000000000000000000000000000000000000000000000000000000000000000000000000000000000000000000000000000000000000000000000000000000000000000000000000000000000000000000000000000000000000000000000000000000000000000000000000000000000000000000000000000000000000000000000000000000000000000000000000000000000000000000000000000000000000000000000000000000000000000000000000000000000000000000000000000000000000000000000000000000000000000000000000000000000000000000000000000000000000000002c
#0343b2:13
#034352:0056
#035322:0000000000000000000000000000000000000000000000000000000000000000000000000000000000000000000000000000000000000000000000000000000000000000000000000000000000000000000000000000000000000000000000000000000000000000000000000000000000000000000000000000000000000000000000000000000000000000000000000000000000000000000000000000000000000000000000000000000000000000000000000000000000000000000000000000000000000000000000000000000000000000000000000000000000000000000000000000000000000000000000000000000000000000000000000000000000000000000000000000000000000000000000000000000000000000000000000000000000000000000000000000000000000000000000000000000000000000000000000000000000000000000000000000000000000000000000000000000000000000000000000000000000000000000000000000000000000000000000000000000000000000000000000000000000000000000000000000000000000000000000000000000000000000000000000000000000000000000000000000000000000000000000000000000000000000000000000000000000000000000000000000000000000000000000000000000000000000000000000000000000000000000000000000000000000000000000000000000000000000000000000000000000000000000000000000000000000000000000000000000000000000000000000000000000000000000000000000000000000000000000000000000000000000000000000000000000000000000000000000000000000000000000000000002c
#035323:13000000000000000000000000000000000000000000000000000000000000000000000000000000000000000000000000000000000000000000000000000000000000000000000000000000000000000000000000000000000000000000000000000000000000000000000000000000000000000000000000000000000000000000000000000000000000000000000000000000000000000000000000000000000000000000000000000000000000000000000000000000000000000000000000000000000000000000000000000000000000000000000000000000000000000000000000000000000000000000000000000000000000000000000000000000000000000000000000000000000000000000000000000000000000000000000000000000000000000000000000000000000000000000000000000000000000000000000000000000000000000000000000000000000000000000000000000000000000000000000000000000000000000000000000000000000000000000000000000000000000000000000000000000000000000000000000000000000000000000000000000000000000000000000000000000000000000000000000000000000000000000000000000000000000000000000000000000000000000000000000000000000000000000000000000000000000000000000000000000000000000000000000000000000000000000000000000000000000000000000000000000000000000000000000000000000000000000000000000000000000000000000000000000000000000000000000000000000000000000000000000000000000000000000000000000000000000000000000000000000000000000000000000000000000000000000000000000000000000000000000000000000000000000000000000000000000000000000000000000000000000000000000000000000000000000000000000000000000000000000000000000000000000000000000000000000000000000000000000000000000000000000000000000000000000000000000000000000000000000000000000000000000000000000000000000000000000000000000000000000000000000000000000000000000000000000000000000000000000000000000000000000000000000000000000000000000000000000000000000000000000000000000000000000000000000000000000000000000000000000000000000000000000000000000000000000000000000000000000000000000000000000000000000000000000000000000000000000000000000002c
#035333:005a
#039373:0000001300000000
#039323:0000000000560000
#039363:0000000000000028
#039322:0000000000000013
#040382:0056000000000000
#040322:0029
#0413a2:0000001400240000
#041372:0053
#0423a2:0000000000000014
#043362:53
#0433a2:0024000000000000
#044322:00140000
#044372:0023
#044322:0000000000000014
#045362:54
#045322:00230000
#0473b2:0000000000000013
#048322:00560000
#048372:00000027
#049322:0000001400000000
#049362:0000000000230000
#049362:00000014
#0503b2:23
#050322:0000000000000014
#051322:0024000000000000
#051363:0014000000002400
#0513b3:00000000000000530000000000000000
#053363:14
#053323:00230000
#053363:0000000000130000
#053323:0000000000005323
#055323:1626
#055373:00550000
#055382:0016
#055332:00000055
#056362:23
#056322:00000015
#057372:55
#057322:00250000
#058392:00000015
#059322:000000000000000000000000000000000000000000000000000000000000000000000000000000000000000000000000000000000000000000000000000000000000000000000000000000000000000000000000000000000000000000000000000000000000000000000000000000000000000000000000000000000000000000000000000000000000000000000000000000000000000000000000000000000000000000000000000000000000000000000000000000000000000000000000000000000000000000000000000000000000000000000000000000000000000000000000000000000000000000000000000000000000000000000000000000000000000000000000000000000000000000000000000000000000000000000000000000000000000000000000000000000000000000000000000000000000000000000000000000000000000000000000000000000000000000000000000000000000000000000000000000000000000000000000000000000000000000000000000000000000000000000000000000000000000000000000000000000000000000000000000000000000000000000000000000000000000000000000000000000000000000000000000000000000000000000000000000000000000000000000000000000000000000000000000000000000000000000000000000000000000000000000000000000000000000000000000000000000000000000000000000000000000000000000000000000000000000000000000000000000000000000000000000000000000000000000000000000000000000000000000000000000000000000000000000000000000000000000000000000000000000000000000000000000000000000000000000000000000000000000000000000000000000000000000000000000000000000000000000000000000000000000000000000000000000000000000000000000000000000000005500000000000000000000000000000000000000000000000000000000000000000000000000000000000000000000000000000000000000000000000000000000000000000000000000000000000000000000000000000000000000000000000000000000000000000000000000000000000000000000000000000000000000000000000000000000000000000000000000000000000000000000000000000000000000000000000000000000000000000000000000000000000000000000000000000000000000000000000000000000000000000000000000000000000000000000000000000000000000000000
#060392:00000025
#058393:000000000000000000000000000000000000000000000000000000000000000000000000000000000000000000000000000000000000000000000000000000000000000000000000000000000000000000000000000000000000000000000000000000000000000000000000000000000000000000000000000000000000000000000000000000000000000000000000000000000000000000000000000000000000000000000000000000000000000000000000000000000000000000000000000000000000000000000000000000000000000000000000000000000000000000000000000000000000000000000000000000000000000000000000000000000000000000000000000000000000000000000000000000000000000000000000000000000000000000000000000000000000000000000000000000000000000000000000000000000000000000000000000000000000000000000000000000000000000000000000000000000000000000000000000000000000000000000000000000000000000000000000000000000000000000000000000000000000000000000000000000000000000000000000000000000000000000000000000000000000000000000000000000000000000000000000000000000000000000000000000000000000000000000000000000000000000000000000000000000000000000000000000000000000000000000000000000000000000000000000000000000000000000000000000000000000000000000000000000000000000000000000000000000000000000000000000000000000000000000000000000000000000000000000000000000000000000000000000000000000000000000000000000000000000000000000000000000000000000000000000000000000000000000000000000000000000000000000000000000000000000000000000000000000000000000000000000000000000000000000000000000000000000000000000000000000000000000000000000000000000000000000000000000000000000000000000000000000000000000000000000000000000000000000000000000000000000000000000000000000000000000000000000000000000000000000000000000000000000000000000000000000000000000000000000000000000000000000000000000000000000000000000000000000000000000000000000000000000000000000000000000000000000000000000000000000000000000000000000000000000000000000000000000000000000000000000000000000000000000000000000000000000000000000000000000000000000000000000000000000000000000000000000000000000000000000000000000000000000000000000000000000000000000000000000000000000000000000000000000000000000000000000000000000000000000000000000000000000000000000000000000000000000000000000000000000000000000000000000000000000000000000000000000000000000000000000000000000000000000000000000000000000000000000000000000000000000000000000000000000000000000000000000000000000000000000000000000000000000000000000000000000000000000000000000000000000000000000000000000000000000000000000000000000000000000000000000000000000000000000000000000000000000000000000000000000000000000000000000000000000000000000000000000000000000000000000000000000000000000000000000000000000000000000000000000000000000000000000000000000000000000000000000000000000000000000000000000000000000000000000000000000000000000000000000000000000000000000000000000000000000000000000000000000000000000000000000000000000000000000001500000000000000000000000000000000000000000000000000000000000000000000000000000000000000000000000000000000000000000000000000000000000000000000000000000000000000000000000000000000000000000000000000000000000000000000000000000000000000000000000000000000000000000000000000000000000000000000000000000000000000000000000000000000000000000000000000000000000000000000000000000000000000000000000000000000000000000000000000000000000000000000000000000000000000000000000000000000000000000000000000000000000000000000000000000000000000000000000000000000000000000000000000000000000000000000000000000000000000000000000000000000000000000000000000000000000000000000000000000000000000000000000000000000000000000000000000000000000000000000000000000000000000000000000000000000000000000000000000000000000000000000000000000000000000000000000000000000000000000000000000000000000000000000000000000000000000000000000000000000000000000000000000000000000000000000000000000000000000000000
#059323:000000000000000000000000000000000000000000000000000000000000000000000000000000000000000000000000000000000000000000000000000000000000000000000000000000000000000000000000000000000000000000000000000000000000000000000000000000000000000000000000000000000000000000000000000000000000000000000000000000000000000000000000000000000000000000000000000000000000000000000000000000000000000000000000000000000000000000000000000000000000000000000000000000000000000000000000000000000000000000000000000000000000000000000000000000000000000000000000000000000000000000000000000000000000000000000000000000000000000000000000000000000000000000000000000000000000000000000000000000000000000000000000000000000000000000000000000000000000000000000000000000000000000000000000000000000000000000000000000000000000000000000000000000000000000000000000000000000000000000000000000000000000000000000000000000000000000000000000000000000000000000000000000000000000000000000000000000000000000000000000000000000000000000000000000000000000000000000000000000000000000000000000000000000000000000000000000000000000000000000000000000000000000000000000000000000000000000000000000000000000000000000000000000000000000000000000000000000000000000000000000000000000000000000000000000000000000000000000000000000000000000000000000000000000000000000000000000000000000000000000000000000000000000000000000000000000000000000000000000000000000000000000000000000000000000000000000000000000000000000000000000000000000000000000000000000000000000000000000000000000000000000000000000000000000000000000000000000000000000000000000000000000000000000000000000000000000000000000000000000000000000000000000000000000000000000000000000000000000000000000000000000000000000000000000000000000000000000000000000000000000000000000000000000000000000000000000000000000000000000000000000000000000000000000000000000000000000000000000000000000000000000000000000000000000000000000000000000000000000000000000000000000000000000000000000000000000000000000000000000000000000000000000000000000000000000000000000000000000000000000000000000000000000000000000000000000000000000000000000000000000000000000000000000000000000000000000000000000000000000000000000000000000000000000000000000000000000000000000000000000000000000000000000000000000000000000000000000000000000000000000000000000000000000000000000000000000000000000000000000000000000000000000000000000000000000000000000000000000000000000000000000000000000000000000000000000000000000000000000000000000000000000000000000000000000000000000000000000000000000000000000000000000000000000000000000000000000000000000000000000000000000000000000000000000000000000000000000000000000000000000000000000000000000000000000000000000000000000000000000000000000000000000000000000000000000000000000000000000000000000000000000000000000000000000000000000000000000000000000000000000000000000000000000000000000000000000000000000000000000055000000000000000000000000000000000000000000000000000000000000000000000000000000000000000000000000000000000000000000000000000000000000000000000000000000000000000000000000000000000000000000000000000000000000000000000000000000000000000000000000000000000000000000000000000000000000000000000000000000000000000000000000000000000000000000000000000000000000000000000000000000000000000000000000000000000000000000000000000000000000000000000000000000000000000000000000000000000000000000000000000000000000000000000000000000000000000000000000000000000000000000000000000000000000000000000000000000000000000000000000000000000000000000000000000000000000000000000000000000000000000000000000000000000000000000000000000000000000000000000000000000000000000000000000000000000000000000000000000000000000000000000000000000000000000000000000000000000000000000000000000000000000000000000000000000000000000000000000000000000000000000000000000000000000000000000000000000000000000000000000
#060343:00000025
#061393:15
#061373:00230000
#061393:0000000000000013
#0623b3:0023000000000000
#0623b3:0013
#062363:0000000000540000
#062373:00000025
#063353:15
#063323:00230000
#063343:0000000000000013
#064323:0023000000000000
#064353:0015
#064323:00000023
#065323:15
#065363:00230000
#065343:0000000000000013
#066323:0023000000000000
#066323:0013
#066363:0000000000540000
#066343:00000025
#067323:15250000
#067363:0054000000000000
#067373:0000000000000000000000000000000000000000000000000000000000140000
#068343:00540000000000000000000000000000
#068383:00260000
#068353:0000000000000000001400000000000000000000000000000000000000000000
#068383:00000000000000540000000000000000
#068323:0000000000260000
#068363:0000000000000014
#0693b3:53
#071323:2c
#026940:0000001300000000
#026920:00000000000000000000000000000000000000000000000000230000000000000000000000000000000000000000000000000000000000000000000000000000
#026940:0000000000130000
#026920:00000000000000000000000000000000000000000000000000000000000000000000000000000000002300000000000000000000000000000000000000000000
#0419b0:0000000000000013
#041970:0000000000000000000000000000000000000000000000000000000000230000
#042960:0013000000000000
#042920:0000000000230000000000000000000000000000000000000000000000000000
#0429b0:0000001300000000
#042970:0000000000000000000000000023000000000000000000000000000000000000
#042960:0000000000130000
#042920:0000000000000000000000000000000000000000002300000000000000000000
#043960:0013000000000000
#043920:0000000000230000000000000000000000000000000000000000000000000000
#050960:14
#050920:0024000000000000000000000000000000000000000000000000000000000000
#050960:00140000
#0509a0:0000000000000000002400000000000000000000000000000000000000000000
#067990:0000001500000000
#067950:0000000000000000000000000024000000000000000000000000000000000000
#0679a0:0000000000140000
#067960:0000000000000000000000000000000000000000002400000000000000000000
#0679b0:0000000000000013
#067970:0000000000000000000000000000000000000000000000000000000000240000
#068920:00130000
#068950:0000000000000000002400000000000000000000000000000000000000000000
