This file was generated by Ched 2.7.0.0.
#TITLE ""
#ARTIST ""
#DESIGNER ""
#DIFFICULTY 0
#PLAYLEVEL
#SONGID ""
#WAVE ""
#WAVEOFFSET 0
#JACKET ""
#REQUEST "ticks_per_beat 480"
#00002: 4
#BPM01: 184
#00008: 01
#TIL00: ""
#VOLUME: ""
#HISPEED 00
#MEASUREHS 00
#00012:0000000000000014
#0021a:0000000000000014
#00414:14
#00418:0014
#00514:14
#00518:0014
#00714:14
#00712:0000001400000000
#00814:0014
#0081a:24
#00810:41
#01012:14
#01018:0014
#0121a:14
#01212:0014
#01412:14
#0141a:0014
#01618:14
#0161a:0014
#01610:41
#01814:14
#01812:0014
#02018:14
#02114:14
#0221a:14
#02414:00140000
#0241a:1414
#02410:41
#02512:1414
#02518:00140000
#0261a:1414
#02712:1414
#02818:1414
#02814:00140014
#0291a:1414
#02912:00140014
#03018:0000000000000014
#0301a:24
#03614:14
#03618:0014
#03712:14
#03814:0000140000140000
#03818:0000001400000026
#0401a:00140000
#04018:00000014
#04014:0014
#04112:14140000
#04118:00001414
#04110:41
#04812:00140000
#04818:0014
#04814:00000014
#0491a:14140000
#04912:00001414
#05018:14
#05014:00000014
#0501a:00340000
#05114:14
#05112:00340000
#05218:1414
#05214:00140014
#05210:41
#0531a:1414
#05312:00140014
#05518:16
#05512:0016
#05618:00000014
#05814:00000014
#05912:00000014
#06112:0014
#0611a:24
#06110:41
#06218:1414
#06214:00140000
#06312:14
#0631a:0014
#06414:1414
#06418:00140000
#0651a:1414
#06614:1414
#06618:00140000
#0671a:14
#06718:0000000000000014
#06812:0000000000000016
#04212:14
#04418:00140000
#0441a:00000014
#04414:0014
#04412:14
#04514:14140000
#0451a:00001414
#04614:14
#04718:1426
#04714:00140000
#0431a:14
#0321f:11
#03912:0000002600000000
#0391f:0000000000000021
#05418:24240000
#05414:00002424
#07112:54
#00052:0000000000000064
#0025a:0000000000000054
#00754:64000014
#00752:0000002400000000
#01658:64
#0165a:0024
#01854:54
#01852:0024
#02058:64
#02154:54
#02258:0000000000000014
#0225a:64
#03058:0000000000000064
#0305a:64
#03654:14
#0375a:0000000000000014
#03952:0000000000000016
#04758:0000000000000016
#0505a:0014
#05058:64
#05154:54
#05152:0014
#05558:16
#05552:0016
#05658:00000064
#0575a:0014
#05854:00000054
#06055:00000014
#05952:00000064
#0685a:00140000
#06852:0000000000000066
#06758:0000000000000064
#0675a:64
#04252:64
#04654:64
#0435a:64
#000320:1400000000000034
#001340:0024
#0023a0:1400000000000034
#003380:0024
#006340:14343434
#007340:34000024
#007320:0000005400000000
#009380:1424
#011340:1424
#013380:14
#0133a0:0024
#015340:14
#015320:0024
#016380:14
#0163a0:0054
#017380:24
#018340:14
#018320:0054
#019340:24
#020380:14
#0203a0:0024
#021340:14
#021320:0024
#0223a0:14
#022380:0000000034000024
#0303a0:14
#030380:0000003400000034
#0313a0:0024
#032320:14
#033340:0024
#034380:14
#0353a0:0024
#0373a0:0000000014000024
#039320:0000001600000026
#042320:14
#042340:0024
#0433a0:14
#043380:0024
#046340:14
#046320:0024
#047380:0000000016000026
#050380:14
#0503a0:00342400
#051340:14
#051320:00342400
#056380:14000034
#0563a0:0000003400000000
#0573a0:0024
#058340:14000034
#058320:0000003400000000
#059320:00000034
#060350:00000024
#0673a0:14
#067380:0000003400340034
#0683a0:00240000
#068320:0000000000000016
#071320:24
