This file was generated by Ched 2.7.0.0.
#TITLE ""
#ARTIST ""
#DESIGNER ""
#DIFFICULTY 0
#PLAYLEVEL
#SONGID ""
#WAVE ""
#WAVEOFFSET 0
#JACKET ""
#REQUEST "ticks_per_beat 480"
#00002: 4
#BPM01: 176
#00008: 01
#TIL00: ""
#VOLUME: ""
#HISPEED 00
#MEASUREHS 00
#00119:14
#00213:14
#0031a:14
#00414:14
#00518:14
#00612:14
#00718:14
#00814:14
#0091a:14
#00910:41
#0101a:14
#01114:14
#01214:14
#01318:14
#01418:14
#01512:14
#01612:14
#02412:15
#02512:0016
#02518:26
#02712:16
#02718:0016
#02812:16
#02818:0016
#02918:0016
#02912:26
#02910:41
#03118:16
#03112:0016
#03312:0016
#03512:16
#03518:0016
#03612:16
#03618:0016
#03718:0016
#03712:26
#03918:16
#03912:0016
#03910:41
#04214:14
#04318:14
#04412:14
#05118:0014
#05114:24
#05214:14
#05218:0014
#0521f:00000011
#05918:0015
#06013:15
#06018:0015
#06118:0016
#06112:26
#0611f:21
#06110:0000000000000041
#06318:16
#06312:0016
#06418:16
#06412:0016
#06512:0016
#06518:26
#06712:16
#06718:0016
#06918:0016
#07118:16
#07112:0016
#07218:16
#07212:0016
#07312:0016
#07318:26
#07512:16
#07518:0016
#07712:0016
#07718:26
#07912:16
#07818:26
#01910:41
#04910:41
#017390:15
#018370:35
#019390:35
#020370:35
#021390:35
#022370:35
#023390:25
#026380:1626
#030320:1626
#032380:16
#033380:26
#034380:1626
#038320:1626
#040380:16
#041380:26
#045380:14
#046380:24
#047320:14
#048320:24
#0493a0:14
#0503a0:24
#053330:15
#054320:35
#055340:35
#056320:35
#057340:35
#058320:35
#059330:25
#062320:1626
#066380:1626
#068320:16
#069320:26
#070320:1626
#074380:1626
#076320:1626
#080380:1600003600002600
