This file was generated by Ched 2.7.0.0.
#TITLE ""
#ARTIST ""
#DESIGNER ""
#DIFFICULTY 0
#PLAYLEVEL
#SONGID ""
#WAVE ""
#WAVEOFFSET 0
#JACKET ""
#REQUEST "ticks_per_beat 480"
#00002: 4
#BPM01: 176
#00008: 01
#TIL00: ""
#VOLUME: ""
#HISPEED 00
#MEASUREHS 00
#0011b:0013
#00115:00000013
#00118:0000000000000013
#0011a:1414001400000000
#00112:2424002400000000
#00119:00000000000000000053000000000000
#00117:0000000000530000
#00418:0000000013131300
#00415:00000000000000000013000000001300
#00412:1414001400000000
#0041a:2424002400000000
#00512:2413001300000000
#00518:0013
#00515:00000000000000000013000000000000
#0051b:0000530000000013
#00517:0013000000000000
#0051a:24
#00519:00000053000000000000000000000000
#00615:00001300000000000013000000000000
#00618:00000013000013001300000000000000
#00612:00130000
#00916:14141414
#00910:41
#01117:00130013000000000000000000000000
#01112:2414140000000000
#01116:00000000000000000013001300000000
#0111a:0000000024141400
#01217:00130013001300130000000000000000
#01212:2414241424000000
#01216:0000000000140014
#0121a:00000014
#01318:0013000013001313
#01315:00130000
#0131b:2300001300000000
#01312:2300000000000013
#01418:00130013
#01415:0000001300130000
#01412:0013
#0141b:0013000013000013
#01518:00001300000000130000130000000013
#01515:00000013000013000000001300001300
#01512:2424
#0151a:00240024
#01618:0013130000130000
#01615:00000013000000001300000000000000
#01612:2400001300001300
#0161b:00000013
#01712:0000001300000000
#01715:0013
#01718:0000000000130000
#0171b:0000000000000013
#01716:1300000000000013
#0181b:0013
#01818:0000000000130000
#01815:00000013
#01918:0013
#01915:0000000000130000
#01912:0000000000000013
#01917:1300000000000013
#0191b:0000001300000000
#01910:41
#02012:0013
#02015:0000000000130000
#02018:00000013
#02115:0013
#02118:0000000000130000
#0211b:0000000000000013
#02116:1300000000000013
#02112:0000001300000000
#0221b:0013
#02216:0013
#02217:00000013
#02212:00000013
#02219:0000000000000013
#02214:0000000000000013
#0231b:1300001313000013
#02316:13000000000000130000000000000000
#02312:0013130000131300
#02317:00000013000000000000001300000000
#02315:0000000000000013
#0251b:00130000
#02516:00130000
#02515:00000000000000130000000000000000
#02518:0013
#02517:0000000000000013
#02512:0000000000130013
#0261b:0013000013000000
#02618:00130000
#02615:0000001300000000
#02612:00001313
#02617:00000013
#02718:00000013000000001300000000000000
#02715:00000000130000130000000000000000
#0271b:0000001300130013
#02716:0000000000130000
#02818:0000000000000013
#02812:0000000000000013
#0281a:00131300
#02817:0000001300000000
#02816:0000000000242400
#00315:00000013
#00318:0000000000000013
#0031b:0013
#0031a:1414001400000000
#00312:2424002400000000
#00319:00000000000000000053000000000000
#00317:0000000000530000
#0021b:0013
#00212:1414001400001300
#0021a:2424002400000000
#00219:00000000000000000053000000000000
#00217:0000000000530000
#00214:00000000000000000000000000530000
#00216:0000000000000053
#0071b:0013001300000000
#00715:0013
#00718:00000000000000000013000000000000
#00712:2300530000000013
#00716:0013000000000000
#00714:00000053000000000000000000000000
#00818:0013000000000000
#00815:00000013000013000000000000000000
#0081b:00130000
#00816:00000000000000001400001400001400
#0081a:0000000024000024
#00812:00000000000000000000002400000000
#01016:14141414
#02912:0000130000000013
#02918:00000000130000130000000000000000
#02917:0000000000000013
#0291b:2300000000130000
#02915:23
#02910:41
#0301b:0013000013000000
#03018:00130000
#03015:0000001300000000
#03012:00001313
#0311b:1313000013130000
#03116:00130000000000000013000000000000
#03112:0000131300000000
#03117:00000000001300000000000000000000
#03115:00000013
#03118:0000000000000013
#03212:1414000000001414
#03216:00140014000000140014000000140014
#0321a:0000001414000000
#03312:24130000
#03317:00130000
#03318:00000000000000130000000000000000
#03315:0013
#03316:0000000000000013
#0331b:0000000000130013
#03412:0013000013000000
#03415:00130000
#03418:0000001300000000
#0341b:00001313
#03416:00000013
#03515:00000013000000001300000000000000
#03518:00000000130000130000000000000000
#03512:0000001300130013
#03517:0000000000130000
#03615:0000000000000013
#0361b:0000000000000013
#03613:00131300
#03616:0000001300242400
#0371b:0000130000000013
#03715:00000000130000130000000000000000
#03716:0000000000000013
#03712:2300000000130000
#03718:23
#03812:0013000013000000
#03815:00130000
#03818:0000001300000000
#0381b:00001313
#03912:1313000013130000
#03917:00130000000000000013000000000000
#0391b:0000131300000000
#03916:00000000001300000000000000000000
#03918:00000013
#03915:0000000000000013
#03910:41
#0401a:1414000000001414
#04016:00140014000000140014000000140014
#04012:0000001414000000
#04112:00140014
#0411a:2414
#04116:0000000000140014
#04216:1400140000140014
#0421a:0014
#04212:00000014
#0431a:14140014
#04312:1414
#04316:0000000000140014
#04416:1400140000140000
#04412:0014
#0451b:0000001323000000
#04512:00000013
#04517:00000013
#04516:0023
#0451a:24
#04612:00001323
#0461a:14
#04616:13
#04617:00000023
#04714:001400000014001400000014
#04718:001414001414
#0471a:2424
#04712:00240024
#0481a:143400000000140000000000
#04812:00140000
#04814:00000013
#04819:00000013
#04816:000000000034000000000000
#0491b:0000001323000000
#04912:14
#04918:00000013
#04915:0000000000000013
#04917:13
#04916:0023
#04910:41
#05012:13130000
#0501b:13001323
#05018:0000000000130000
#05015:00000000000000000000001300000000
#05116:0013000000130000
#05117:0000001300000013
#05112:24141414
#0511a:24141414
#05215:00001300000000130000000013000000
#0521a:14001414
#05212:1400140000140000
#05218:00000013000013000000130000000000
#0521f:00000011
#05318:0013001300130023
#0531b:23131313
#05315:00000000130000000013000000001300
#05312:23000000000000000000001300000000
#05418:0013130000000000
#05412:00000013000000000000000000000000
#05415:00000000000013001300001300000000
#0541b:00000000000000130000130000000000
#0541a:00000013
#05414:00000000000000000000000000130000
#05419:0000000000000013
#05413:00000000000000000000000000000013
#05515:0013001300130023
#05512:00131313
#05518:23000000130000000013000000001300
#0551b:00000000000000000000001300000000
#05615:0013130000000000
#0561b:00000013000000000000000000000000
#05618:0000001313000026
#05612:00000000000000130000260000000000
#05712:1414000014000013
#0571a:1414000014000000
#05718:00000000130013000000001300000000
#05715:00000000001300000000130013000000
#0571b:0000000000000013
#05812:0013001300000013
#0581b:00131300
#05815:00131313
#05818:0000001300130000
#0591b:13531353
#05912:00135313
#05919:00530053000000000053005300000000
#05917:0053000000530000
#05914:00000000005300530000000000530053
#05916:0000005300000053
#06018:1414000000000023
#06014:00140014000000000000000000000000
#0601a:0000141400002400
#06012:53000000001400140000000024000000
#06016:0000000024240000
#06015:00000000000000000000000000000023
#0611a:0000140000140000
#06115:00000000000000130000000000000000
#06117:0000000000000013
#06112:0000140000140013
#06118:2613
#0611f:21
#06110:0000000000000041
#0621b:0013000000001300
#06218:00000000130000130000000000000000
#06215:0000001300000000
#06212:0013
#06216:13000013
#06318:00000013000000000000000000000000
#06315:00130000
#0631b:0000001313000013
#06316:00000000000000130000000000000000
#06317:0000000000130000
#06312:0000000000130000
#06416:0000000000000014
#06418:0013
#06412:0013001300000000
#0641b:00130000
#0641a:0000000000242400
#06512:2400130000000013
#06518:00000000130000130000000000000000
#06517:0000000000000013
#0651b:0000000000130000
#06515:0000000013130000
#0651a:24
#0661b:0013000000001300
#06618:00000000130000130000000000000000
#06615:0000001300000000
#06612:0013
#06616:13
#0671a:1414000014140000
#06716:00140000001400000014000000000000
#06712:0000141400000000
#06715:00000013
#06718:0000000000000013
#06812:1414000000001414
#06816:00140014000000140014000000140014
#0681a:0000001414000000
#06916:00140014
#06912:2414
#06918:0026002600260026
#07012:1414
#07016:00140014
#07018:0026002600260026
#07112:1414
#07116:00140014
#07118:0026002600260026
#07212:14001424
#07216:0000140000230000
#07218:0026002600000000
#0721a:0000000000240000
#07217:00000023
#07316:00140014
#0731a:2414
#07312:0026002600260026
#0741a:1414
#07416:00140014
#07412:0026002600260026
#0751a:1414
#07516:00140014
#07512:0026002600260026
#0761a:1414000000002400
#07616:00140014000000140014000000000000
#07612:0000001414002400
#07718:00001300000000130013000000000000
#07715:00000013000013000000130000000000
#07716:0000000000000014
#07712:2424
#0771a:00240024
#07818:00001300000013000013000000000000
#07815:00000013000000001300000000000000
#0781b:00130000
#07812:2400001300000013
#0781a:24
#07918:0013000013000000
#07915:00000013000013000013000000000000
#02412:23232300
#02418:23232300
#0241b:0023002300002300
#02415:0023002300000000
#02416:00000023
#08012:2424000000002424
#08016:00240024000000240024000000240024
#0801a:0000002424000000
#00018:0000000000530000
#0175b:0000000000000053
#01756:0000000000000053
#01952:0000000000000063
#01957:0000000000000063
#0215b:0000000000000053
#02156:0000000000000053
#02452:0013
#02458:0013
#0245b:00000053
#02456:00000053
#02557:13
#02552:1300000000130053
#02558:0053
#0255b:0000000000130000
#0265b:0053
#02657:00000053
#02652:00000053
#0275b:1300000000000053
#02756:1300000000530000
#02755:00130000
#02855:0013
#02955:1300000000130000
#0295b:1300000000130000
#02952:0000000000000053
#0055b:0000000000000013
#00652:00530000
#00752:0000000000000013
#0085b:00630000
#00956:00440034
#01056:00440034
#01652:00000013
#0165b:00000013
#0305b:0053
#03052:00000013
#03057:00000013
#03256:00000014000000000014000000000000
#03352:1400000000130000
#03355:0063
#0335b:0000000000130063
#03452:0063
#03456:00000063
#0345b:00000063
#03558:00130000
#03552:1300000000000063
#03557:1300000000630000
#0375b:0000000000000063
#03752:1300000000130000
#03758:1300000000130000
#03852:0063
#0385b:00000013
#03856:00000013
#04056:00000014000000000014000000000000
#03658:0013
#0415a:5454
#04152:00540064
#04156:0000000000240024
#04256:54540000
#0435a:00640054
#04352:5464
#04356:0000000000240024
#04456:64640000
#0465a:54
#04657:00000013
#04652:00000013
#04856:0014
#0485a:5414
#04852:00540000
#04952:64
#04956:0013
#0495b:0013
#0505b:53000013
#05052:00630000
#0525a:00000014
#05355:0000000000000053
#05558:0000000000000063
#05652:0000000000160000
#05658:0000000000000016
#0575b:0000000000000053
#06158:46
#06152:0000000000340053
#0615a:0000000000440000
#06252:0063
#06256:23000063
#0625b:00000063
#06355:00130000
#0635b:0000000000000053
#06352:1300000000530000
#06357:13
#06552:1400000000000053
#0655b:0000000000130000
#0655a:14
#06555:0000000000130000
#06652:0063
#0665b:00000013
#06656:23000013
#06856:00000014000000000014000000000000
#06455:0013
#06458:0013
#06452:0053005300000000
#0645b:00530000
#06958:0046004600460046
#07058:0046004600460046
#07158:0046004600460046
#07258:0046004600000000
#07352:0036003600360036
#07452:0036003600360036
#07552:0036003600360036
#07656:00000014000000000014000000000000
#0765a:00000054
#07755:0000000000530000
#07852:0000000000000013
#08056:00000014000000000014000000000014
#04556:0013
#0455b:0013
#0455a:14
#000380:0000001300230000
#0003b0:0000000000000000000000000053000000000053000000000000000000000000
#005380:0000000000132300
#005351:0000000000001323
#006321:00130000
#006351:0000002300000000
#0063b1:0000000000132300
#006350:0000000000001323
#006381:0000000000000013
#007381:23
#007351:0000000000132300
#007380:0000000000001323
#0083b0:00130000
#008380:0000002300000000
#009320:13230000
#0093b0:00001323
#010320:13230000
#0103b0:00001323
#013350:0013
#013320:00000000000000000000003323000000
#0173b0:13
#017390:00330000000000000000000000000000
#017370:0033002300000000
#0173b0:0000000000000013
#018370:00230000
#017361:0000000000000013
#018321:00230000
#019321:13
#019341:00330000000000000000000000000000
#019361:0033002300000000
#019321:0000000000000013
#020361:00230000
#019370:0000000000000013
#0203b0:00230000
#0213b0:13
#021390:00330000000000000000000000000000
#021370:0033002300000000
#0213b0:0000000000000013
#022370:00230000
#021361:0000000000000013
#022321:00230000
#0243b1:00000013
#025371:23
#024360:00000013
#025320:23
#025380:0013
#0253b0:0000000000230000
#025320:0000000000000013
#026360:0023000000000000
#0263b0:0013
#026370:00000033
#0273b0:23
#026321:00000013
#027361:23
#027361:0000000000130000
#027321:0000000000000023
#0273b0:0000000000000013
#028370:0023000000000000
#028321:0013003300000000
#028351:00332300
#029351:0000000013230000
#029321:0000000000000013
#030361:0023000000000000
#0303b1:0013
#030371:00000023
#033351:0013
#033321:0000000000230000
#0333b1:0000000000000013
#034371:0023000000000000
#034321:0013
#034361:00000033
#035321:23
#0343b0:00000013
#035370:23
#035370:0000000000130000
#0353b0:0000000000000023
#035321:0000000000000013
#036361:0023000000000000
#0363b0:0013003300000000
#036380:00332300
#037380:0000000013230000
#0373b0:0000000000000013
#038370:0023000000000000
#038320:0013
#038360:00000023
#0413a0:14
#041360:0054240000000000
#041321:00140000
#041361:0000005424000000
#0413a0:00001424
#041360:0000000000540000
#041321:00000014
#041361:0000000000000054
#042321:24
#042360:14
#0423a0:0054240000000000
#042361:00140000
#042321:0000005424000000
#043321:14
#043361:0054240000000000
#0433a0:00140000
#043360:0000005424000000
#043321:00001424
#043361:0000000000540000
#0433a0:00000014
#043360:0000000000000054
#0443a0:24
#044361:14
#044321:0054240000000000
#044360:00140000
#0443a0:0000005424000000
#0443a0:00000014
#0453a0:24
#044321:00000014
#045321:34
#045361:0053003323000000
#0463a1:14
#046371:0053000033002300
#0483a1:143400000000000000000000
#048361:00240000
#048320:00140000
#048360:000000000034240000000000
#049320:14
#049360:0053003323000000
#0503b0:13
#050370:00230000
#050321:00130000
#050361:0023
#053351:0000000000000013
#054321:0023000000000000
#055381:0000000000000013
#0563b1:0023000000000000
#0573b1:0000000000000013
#058381:0023000000000000
#061321:0000000000000013
#062361:53
#062321:0023000000000000
#062321:0013
#062361:00000033
#063321:23
#0623b0:00000013
#063370:23
#063320:0000000000130000
#063360:0000000000000023
#0633b1:0000000000000013
#064371:0023000000000000
#064320:0013000000000000
#064350:00230000
#0643b1:00130000
#064381:0000002300000000
#064320:0000001300000000
#064350:0023
#065320:0000000000000013
#066360:53
#066320:0023000000000000
#066320:0013
#066360:00000023
#0763a0:00000014
#076360:0000000000000054
#077360:24
#077350:0000000000130000
#077320:00000023
#078350:0000000000132300
#078381:0000000000001323
#0793b1:0000132300000000
#0793b1:0000000000132300
#079350:0000000000001323
#079381:0000000000000013
#080381:23
#0019b0:0013
#001970:0000000000230000
#0029b0:0013
#002970:0000000000230000
#002920:00000013
#002960:0000000000000023
#0039b0:0013
#003970:0000000000230000
#005970:0013000000000000
#0059b0:00230000
#007960:0013000000000000
#007920:00230000
#0599b0:13230000
#059970:0053000000000000
#059921:00132300
#059961:0000005300000000
#0599b0:00001323
#059970:0000000000530000
#059921:00000013
#059961:0000000000000053
#060921:23
