This file was generated by Ched 2.7.0.0.
#TITLE ""
#ARTIST ""
#DESIGNER ""
#DIFFICULTY 0
#PLAYLEVEL
#SONGID ""
#WAVE ""
#WAVEOFFSET 0
#JACKET ""
#REQUEST "ticks_per_beat 480"
#00002: 4
#BPM01: 176
#00008: 01
#TIL00: ""
#VOLUME: ""
#HISPEED 00
#MEASUREHS 00
#00118:0000000000000013
#0011a:2400002400000000
#00114:0024000000000000
#00112:00000000000000000033000000000000
#00515:0000001300000013
#00512:0013000000130000
#00518:00130013
#0051b:2313
#01216:0014001400140014
#0121a:00240014
#01212:2424
#01415:00130013
#01418:0000001300130000
#01412:0013
#0141b:0013000000000013
#01618:0013000000130000
#01615:00131300
#0161b:0000001300000000
#01612:24000013
#01815:00131313
#01818:0000001300130000
#0251b:0000130000000013
#02515:00000000000000130000000000000000
#02512:0000000000130000
#02518:0013
#02615:00130013
#02612:0013
#02618:0000001300000000
#02718:0000130000130000
#02715:0013
#02815:0000001300000013
#02818:00130000
#0281b:0013
#02812:0013000000000000
#02912:0000130000000013
#02918:23000000000000130000000000000000
#0291b:0000000000130000
#02915:0013
#02910:41
#03018:00130000
#03015:0000001300000000
#0301b:0013
#03112:1313000000000000
#03118:0000131300001300
#03115:0000000013130013
#04512:00000013
#04515:0000001300000000
#04518:0013
#0451a:24
#0481a:14340000000000340000000000000000
#04817:00140000
#05115:0013000000130000
#05112:0000001300000013
#05118:00140014
#0511a:2414
#05216:0014001400000000
#0521a:14001414
#05212:0000140000140000
#0521f:00000011
#05318:0013000000000013
#05315:00130000
#0531b:0000001300000000
#05312:23000000000000001333333300000000
#05418:0000001313000000
#05415:00000000130000130000130000000000
#05412:00000000000000000000003333333333
#05518:0013000000000000
#05515:00000000130000001333333300000000
#0551b:0000001300000013
#05615:00000000130000130000000000000000
#05618:0000001313000000
#05613:0000000000240000
#05619:0000000000000024
#05714:14
#05718:0014000000000013
#0571a:0014
#05815:0000130000000013
#05818:0000001300001300
#05812:0013
#0581b:0000000000130000
#06118:00000000000000140000000000000000
#06112:0000140000000014
#06114:0014
#0611a:2400000000140000
#0611f:21
#06110:0000000000000041
#06218:00140000
#06214:0000001400000000
#06216:00000014
#0621a:0014
#06418:0000001400000014
#0641a:0014000000000000
#06414:00140000
#06412:0014
#06312:0000140000140000
#06316:0014
#07715:0013000000130000
#07718:0000001300000000
#07716:0000000000000014
#0771a:2424
#07712:00240024
#00318:0000000000000013
#0031a:2400002400000000
#00314:0024000000000000
#00312:00000000000000000033000000000000
#00415:0000000000000013
#00412:2400002400000000
#00418:0024000000000000
#0041b:00000000000000000033000000000000
#0061b:0013000000000000
#00618:0000130000000013
#00615:0000001300000000
#00612:00000000000000000033000000000000
#00718:0000001300000013
#0071b:0013000000130000
#00715:00130013
#00712:2313
#00812:00001300000000000000002400000000
#00815:00130000
#00818:0000001300000000
#0081a:0000000024000024
#00912:13
#00915:00130000
#00914:00000013
#00919:00000013
#00910:41
#0101b:13
#01018:00130000
#01014:00000013
#01019:00000013
#01116:0014000000140000
#0111a:00142400
#01112:24000014
#01318:0013000000000000
#01315:00130000
#0131b:0000001300000000
#01312:2413
#01518:1313
#01515:00130013
#01512:2424
#0151a:00240024
#0171b:1300000000000013
#01716:0013000000000000
#01719:00130000
#01714:0000001300000000
#01717:0013
#01712:0000000000130000
#02018:00131313
#02015:0000001300130000
#01912:1300000000000013
#01917:0013000000000000
#01914:00130000
#01919:0000001300000000
#01916:0013
#0191b:0000000000130000
#01910:41
#02215:0000130013000013
#02218:0000001300001300
#0211b:1300000000000013
#02116:0013000000000000
#02119:00130000
#02114:0000001300000000
#02117:0013
#02112:0000000000130000
#0231b:1313
#02315:0013000000130000
#02318:00130013
#02312:0000001300000013
#03218:16
#03212:0000001600000000
#0321a:00000024
#03312:0000130000000013
#03318:00000000000000130000000000000000
#0331b:0000000000130000
#03315:0013
#03418:00130013
#0341b:0013
#03415:0000001300000000
#03515:0000130000130000
#03518:0013
#03618:0000001300000013
#03615:00130000
#03612:0013
#0361b:0013000000000000
#0371b:0000130000000013
#03715:23000000000000130000000000000000
#03712:0000000000130000
#03718:0013
#03815:00130000
#03818:0000001300000000
#03812:0013
#0391b:1313000000000000
#03915:0000131300001300
#03918:0000000013130013
#03910:41
#04012:16000014
#04018:0000001600000000
#04116:0014
#0411a:24
#04212:14
#0421a:0014
#04216:00000014
#04312:14
#04316:0014
#0441a:14
#04412:0014
#04416:00000014
#04618:1313
#04612:0013
#04615:00000013
#0461b:00000013
#0491b:00000013
#04918:0000001300000000
#04915:0000000013000013
#04912:14
#04910:41
#0501b:13
#05015:0013
#05012:00000013
#05018:0000000000130000
#05912:1414000000000000
#05918:0000141400000000
#05914:0000000014140000
#0591a:0000000000001414
#06012:14
#06018:0014000000240000
#06014:00142424
#0601a:0000001400000000
#0651a:00140000
#06514:00000000000000140000000000000000
#06518:0000000014000014
#06512:2400000000140000
#06614:00141400
#06618:0000001400000000
#06612:00000014
#06718:0014000000140000
#06714:00140014
#0671a:0000001400000014
#06712:0014
#06812:16000014
#06818:0000001600000000
#06814:0000000000000014
#0691a:0000140000000014
#06914:00000000000000140000000000000000
#06918:0014
#06912:2400000000140000
#07014:00140000
#07018:0000001400000000
#07016:00000014
#07012:0014
#07214:0000001400000014
#07212:0014000000000000
#07218:00140000
#0721a:0014
#0711a:0000140000140000
#07116:0014
#07112:0000001400000000
#07312:00140000
#07318:00000000000000140000000000000000
#07314:0000000014000014
#0731a:2400000000140000
#07418:00141400
#07414:0000001400000000
#0741a:00000014
#07514:0014000000140000
#07518:00140014
#07512:0000001400000014
#0751a:0014
#0761a:14
#07612:00000024
#07818:0014001400000000
#07814:00140000
#07812:2400000014000014
#07816:0000000000140000
#0781a:24000014
#0791a:0014000014000000
#07916:00140000
#07912:0000001400000014
#07914:0000000000140000
#07918:00000014
#02419:24242400
#02413:0024002400000000
#02412:00000024
#0801a:24646464000000000000000000000000
#08012:00000000000024646464000000000000
#08016:00000000000000000000000024646464
#00212:2400002400000000
#00218:00002400000000000033000000000000
#00215:00000000000000000000000000330000
#04712:003434003434003434003434
#02459:0014
#02452:00000054
#0255b:0000000000000053
#02555:14
#02652:0063
#02655:00000063
#02752:13
#02758:0000000000630000
#0275b:0000000000000013
#02958:13
#02952:0000000000000053
#00555:0000000000000013
#01652:00000013
#0305b:0053
#03058:00000013
#0485a:5444
#04857:00240000
#0525a:00000014
#05358:0000000000000063
#05352:0053
#0555b:0000000000000063
#05555:0053
#05758:0000000000000053
#06152:0000000000000054
#0615a:14
#06352:0000000000540000
#0635a:14
#06356:0000000000000014
#00758:0000000000000013
#00952:53
#00955:00530000
#0105b:63
#01058:00630000
#01352:0053
#0175b:0000000000000053
#01952:0000000000000063
#0215b:0000000000000053
#03258:46
#03252:0000003600000000
#0325a:00000054
#03357:14
#03352:0000000000000063
#0345b:0053
#03458:00000053
#03555:0000000000530000
#0355b:13
#03552:0000000000000013
#0375b:0000000000000063
#03755:13
#03852:0063
#03855:00000013
#04052:36000054
#04058:0000004600000000
#04156:0054
#0415a:54
#04252:54
#04352:64
#04356:0064
#0445a:64
#04658:53
#0505b:63
#04952:14
#05455:0000000000530000
#06256:00000054
#0625a:0054
#06558:0000000000000064
#06552:14
#06652:00000064
#06654:0064
#06852:36000054
#06858:0000004600000000
#06854:0000000000000024
#0695a:0000000000000064
#06952:34
#0715a:0000000000640000
#07156:0000000000000014
#07152:14
#07056:00000064
#07052:0064
#07354:0000000000000054
#0735a:14
#0745a:00000054
#07458:0054
#0765a:54
#07852:0000000000000014
#0805a:00000014000000000000000000000000
#08052:00000000000000000014000000000000
#08056:00000000000000000000000000000014
#0455a:14
#001320:00000000000000001333000000000000
#001350:0000000000332300
#0023b0:0013
#002380:00000000000000000033230000000000
#002320:00000013
#002350:00000000000000000000000000332300
#003320:00000000000000001333000000000000
#003350:0000000000332300
#0043b0:00000000000000001333000000000000
#004380:0000000000332300
#006320:00000000000000001333000000000000
#006350:0000000000332300
#009320:1323
#009350:00330000
#0103b0:1323
#010380:00330000
#013320:0013
#013350:0000000000003323
#0173b0:0000000000000013
#018380:0023000000000000
#019320:0000000000000013
#020350:0023000000000000
#0213b0:0000000000000013
#022380:0023000000000000
#024320:00000014
#025350:24
#0253b0:0000000000000013
#026380:0023000000000000
#026320:0013
#026350:00000033
#027320:23
#027380:0000000000130000
#0273b0:0000000000000023
#029320:0000000000000013
#030350:0023000000000000
#0303b0:0013
#030380:00000023
#0323a0:00000014
#033370:24
#033320:0000000000000013
#034350:0023000000000000
#0343b0:0013
#034380:00000033
#0353b0:23
#035350:0000000000130000
#035320:0000000000000023
#0373b0:0000000000000013
#038380:0023000000000000
#038320:0013
#038350:00000023
#040320:00000014
#041360:24
#0413a1:14000034
#041361:00343400
#0423a1:24
#042320:14
#042360:00342400
#043320:14000034
#043360:00343400
#044320:24
#0443a1:14
#044361:00342400
#046381:13
#0463b1:00230000
#047321:143434003434343434003434
#047351:00340034
#048321:24
#0483a0:14340000000000342400000000000000
#048370:00340000
#0503b0:13
#050380:00230000
#053320:00000000000000001333333300000000
#053350:00000023
#053380:0000000000000013
#0543b0:0023000000000000
#054350:0000000000130000
#054320:00000000000000000000003333333333
#055320:23
#055350:00000000000000001333333300000000
#055320:00000023
#0553b0:0000000000000013
#056380:0023000000000000
#057340:00140000
#057330:00000000003400000000000000000000
#057320:0000002400000000
#057320:0000000000140000
#057330:00000000000000000000003400000000
#057340:00000024
#057380:0000000000000013
#0583b0:0023000000000000
#061320:0000000000000014
#062340:0024000000000000
#0623a0:0014
#062360:00000034
#0633a0:24
#063320:0000000000140000
#063360:0000000000000024
#065380:0000000000000014
#0663a0:0024000000000000
#066340:0014
#066320:00000034
#067340:24
#068320:00000014
#068340:0000000000000054
#069320:24
#0693a0:0000000000000014
#070380:0024000000000000
#070320:0014
#070360:00000034
#071320:24
#0713a0:0000000000140000
#071360:0000000000000024
#073340:0000000000000014
#074320:0024000000000000
#074380:0014
#0743a0:00000034
#075380:24
#0763a0:14
#076360:0024
#0809a0:14000024000000000000000000000000
#080920:00000000000014000024000000000000
#080960:00000000000000000000000014000024
