This file was generated by Ched 2.7.0.0.
#TITLE ""
#ARTIST ""
#DESIGNER ""
#DIFFICULTY 0
#PLAYLEVEL
#SONGID ""
#WAVE ""
#WAVEOFFSET 0
#JACKET ""
#REQUEST "ticks_per_beat 480"
#00002: 4
#BPM01: 176
#00008: 01
#TIL00: ""
#VOLUME: ""
#HISPEED 00
#MEASUREHS 00
#00115:00000000000000000013000013000000
#00118:0000000000140014
#00117:1300001300000000
#00116:0013000000000000
#0011b:0013
#00112:2400002400000000
#0011a:0024000000000000
#00418:0000000012120000
#00416:13000000000013000012000000001200
#00417:0013000000001200
#0041a:2400002400000000
#00412:0024000000000000
#00512:2400001300000000
#00518:0013000000000013
#00515:00000013000000000013000000000000
#0051b:00131300
#0051a:24
#0061b:00001300000000000053000000000000
#00615:00000013000000000000000000000000
#00618:000000000000000000000000000000000000000000000000000000000000000000000000000000000000000000000000000000000000000000000000000000000000000000000000000000000000000000000000000000000000000000000000000000000000000000000000000000000000000000000000000000000000000000000000000000000000000000000000000000000000000000000000000000000000000000000000000000000000000000000000000000000000000000000000130000000000000000000000000000000000000000000000000000000000000000000000000000000000000000000000537300000000000000000000000000000000000000000000000000000000000000000000000000000000000000000000000000000000000000000000000000000000000000000000000000000000000000000000000000000000000000000000000000000000000000000000000000000000000000000000000000000000000000000000000000000000000000000000
#00712:16131300
#0071b:0000001300000000
#00715:0013000000000013
#00718:00000013000000000013000000000000
#01116:00140014000000000014001400000000
#01112:2616160000001400
#01118:0000000026161600
#0111a:00140000
#0111b:53
#01518:2613000000000000
#01518:26
#01515:00000013000000000000000029001300
#01517:0000271300000000
#01514:00000000000000130000000000000000
#01516:0000000028130000
#01513:00000000000000000000001300000000
#01512:53000000000000000000000000000013
#01616:00001200000000120000120000000000
#01612:00000014
#01618:00000012000012000000001200000000
#01613:00135300
#0161a:00531354
#0161b:23
#0261b:00130000
#02615:0000001400000000
#0261a:00000000000000130000000000000000
#02614:0014
#02613:0000000000140000
#02618:00000000000000000000001300000000
#02612:14000024
#02617:13
#02616:00140000
#0271b:0000000000130000
#02716:1400001400140000
#02712:00001400000000141400000000000000
#0271a:14000014140000000000000000000000
#02717:0000000000000013
#02818:0000000013000013
#02815:0000000013000013
#0281b:0013001300000000
#02812:0013001300242400
#02816:00140000
#0281a:0000000000242400
#00818:00001300000000001300002600001300
#00815:00000013000013000000001300000000
#0081b:00130000
#00812:0000000026000026
#0291a:24000000000000140000140000000000
#02912:24141400
#02917:00130000
#02910:41
#02914:00000000000000000000000000000000000000000000000000000000000000000054000000000000000000000000000000000000000000000000000000000000
#02916:000000000000000000000000000000000000000000000000000000000000000000000000000000000000000000000000000000000000000000000000000000000000000000000000000000000000000000000000000000000000000000000000000000000000000000000000000000000000000000000000000000000000000000000000000000000000000000000000000000000000000000000000000000000000000000000000000000000000000000000000000000000000000000000000000000000000000000000000000000000000000000000000000000000000000000000000000000000000000000000000000000000000000000000000000000000000000000000000000000000000000000000000000000000000000000000000000000000000000000000000000000000000000000000000000000000000000000000000000000000000000000000000000000000000000000000000000000000000000000000000000000000000000000000000000000000000000000000000000000000000000000000000000000000000000000000000000000000000000000000000000000000000000000000000000000000000000000000000000000000000000000000000000000000000000000000000000000000000000000000000000000000000000000000000000000000000000000000000000000000000000000000000000000000000000000000000000000000000000000000000000000000000000000000000000000000000000000000000000000000000000000000000000000000000000000000000000000000000000000000000000000000000000000000000000000000000000000000000000000000000000000000000000000000000000000000000000000000000000000000000000000000000000000000000000000000000000000000000000000000000000000000000000000000000000000000000000000000000000000000000000000000000000000000000000000000000000000000000000000000000000000000000000000000000000000000000000000000000000000000000000000000000000000000000000000000000000000000000000000000000000000000000000000000000000000000000000000000000000000000000000000000000000000000000000000000000000000000000000000000000000000000000000000000000000000000000000000000000000000000000000000000000000000000000000000000000000000000000000000000000000000000000000000000000000000000000000000000000000000000000000000000000000000000000000000000000000000000000000000000000000000000000000000000000000000000000000000000000000000000000540000000074000000000000000000000000000000000000000000000000000000000000000000000000000000000000000000000000000000000000000000000000000000000000000000000000000000000000000000000000000000000000000000000000000000000000000000000000000000000000000000000000000000000000000000000000000000000000000000000000000000000000000000000000000000000000000000000000000000000000000000000000000000000000000000000000000000000000000000000000000000000000000000000000000000000000000000000000000000000000000000000000000000000000000000000000000000000000000000000000000000000000000000000000000000000000000000000000000000000000000000000000000000000000000000000000000000000000000000000000000000000000000000000000000000000000000000000000000000000000000000000000000000000000000000000000000000000000000000000000000000000000000000000000000000000000000000000000000000000000000000000000000000000000000000000000000000000000000000000000000000000000000000000000000000000000000000000000000000000000000000000000000000000000000000000000000000000000000000000000000000000000000000000000000000000000000000000000000000000000000000000000000000000000000000000000000000000000000000000000000000000000000000000000000000000000000000000000000000000000000000000000000000000000000000000000000000000000000000000000000000000000000000000000000000000000000000000000000000000000007474740000000000000000000000000000000000000000000000000000000000000000000000000000000000000000000000000000000000000000000000000000000000000000000000000000000000000000000000000000000000000000000000000000000000000000000000000000000000000000000000000000000000000000000000000000000000000000000000000000000000000000000000000000000000000000000000000000000000000000000000000000000000000000000000000000000000000000000000000000000000000000000000000000000000000000000000000000000000000000
#0311a:1414000014140000
#03112:00140000000000000014000013000000
#03117:00000013
#0311b:0000000000000013
#03114:0000141400000000
#03118:00000000001400000000000000000000
#03116:0000000000000013
#03212:16001600000000000000000016161616
#03214:00160016000000000000000000000000
#03218:0000001616000000
#03217:00000000000000160016000000000000
#05115:0013000000000000
#05117:0000001317000000
#05112:24161417
#0511a:00140014
#05116:0000000000130014
#05118:26
#05215:00001300000000130000160000000000
#05216:1818
#05212:14181414
#05218:00000013000013000000000000000000
#0521a:00140014
#0521f:00000011
#0531b:13
#05316:24001400140014000014001400002400
#05312:0000130000140000
#0531a:0000000014001414
#05418:0000000000130000
#05412:0014140000000000
#05416:00000014000000140000000013000000
#0541a:0000001414000000
#0541b:00000000000000000000001300000000
#05414:0000000000000013
#05419:00000000000000000000000000130000
#05417:00000000000000000000000000000013
#0571b:00130000
#05718:00000000001300000000000013000000
#05715:00000000000013000000001300000000
#05712:1414000014130014
#0571a:1414000014000014
#0581a:00141400
#05812:0014001400140014
#05816:0000001400001400
#05818:0000000000140014
#06916:0000141400001414
#0691a:0014000014140000
#06912:0028002400280024
#06918:26
#0701a:1414000014140000
#07016:0000141400001414
#07012:0028002400280024
#07716:00001400000014000014000000001400
#07712:00000014000000002400140000000000
#0771a:00000000240000140000140024000000
#00212:0024000000001300
#00214:0000000000000014
#00216:1300001300000000
#00217:0013000000000000
#00213:0013
#00219:00000000000000000013000000000000
#00215:0000000000140000
#00218:00000000000000000000000000130000
#0021a:2400002400000000
#00315:00000000000000000013000013000000
#00318:0000000000140014
#00317:1300001300000000
#00316:0013000000000000
#0031b:0013
#00312:2400002400000000
#0031a:0024000000000000
#0091b:1353535353535353
#00916:0014
#00912:14
#00910:41
#0091a:00530053005300530053005300530053
#01212:00160000000000000016000000161616
#01218:26001600260016162600161626000000
#01214:00000016000000000000000000000000
#01216:00000000001600000000000000000000
#01715:1313000000000000
#01718:00130000000000000000000000000000
#01716:0000001300130000
#01717:0000000013000013
#0171b:0000001300130000
#01712:0000000013000013
#0181b:13130000
#01818:0000001300000000
#01815:0013
#01812:0000130000140000
#01816:13000000000000000000001400000000
#0181a:00000014
#01918:1313000000000000
#01915:00130000000000000000000000000000
#01917:0000001300130000
#01916:0000000013000013
#01912:0000001300130000
#0191b:0000000013000013
#01910:41
#02012:13130014
#02015:0000001300000000
#02018:0013
#0201a:0000000000140000
#02016:00000000000000000000001400000000
#02017:13
#0201b:00130000
#02115:1313000000000000
#02118:00130000000000000000000000000000
#02116:0000001300130000
#02117:0000000013000013
#0211b:0000001300130000
#02112:0000000013000013
#0221a:00141414
#0221b:13
#02216:1300001400000000
#02212:00141414
#02217:0000000000000014
#02215:00000000000000000000000000000014
#0231a:1400001414000014
#02312:1414140000141400
#02317:00000013000000000000001300000000
#02316:00000000000000130000000000001300
#01016:0014
#01012:14
#0101b:5353535353535353
#0101a:00530053005300530053005300530053
#01318:16
#01316:00541400
#0131a:00000054
#0141a:14000054
#01416:00541400
#02412:2400240024000014
#02416:2424242424002414
#0241a:0024002400002400
#02512:000000000000000000000000000000000000000000000000000000000000000000000000000000000000000000000000000000000000000000000000000000000000000000000000000000000000000000000000000000000000000000000000130000000000000000000000000000000000000000000000000000000000000000000000000000000000000000000000000000000000000000000000000000000000000000000000000000000000000000000000000000000000000000000000000000000000000000000000547400000000000000000000000000000000000000000000000000000000000000000000000000000000000000000000000000000000000000000000000000000000000000000000000000000000000000000000000000000000000000000000000000000000000000000000000000000000000000000000000000000000000000000000000000000000000000000000000000000000000000000000000000000000000000000000000000000000000000000000
#02516:0000140014140014
#0251a:00000000000000140000000000000000
#0251b:0000000000000013
#02514:00000000000000000000000000000000000000000000000000000000000000000054000000000000000000000000000000000000000000000000000000000000
#0301a:00141424
#03012:00141400
#03018:0000001300000000
#03016:00000014
#03512:14000014140000000000130000000000
#03516:1400001400140013
#0351a:00001400000000141400000000000000
#03615:0000000013000013
#03618:0000000013000013
#03612:0013001300242400
#0361b:0013001300000000
#03616:00140000
#0361a:0000000000242400
#0331b:00130000
#03316:0000140014140014
#03312:26000000000000140000000000001300
#03318:00000000000000000000000000000000000000000000000000000000000000000054000000000000000000000000000000000000000000000000000000000000
#0331a:000000000000000000000000000000000000000000000000000000000000000000000000000000000000000000000000000000000000000000000000000000000000000000000000000000000000000000000000000000000000000000000000000000000000000000000000000000000000000000000000000000000000000000000000000000000000000000000000000000000000000000000000000000000000000000000000000000000000000000000000000000000000000000000000000000000000000000000000547400000000000000000000000000000000000000000000000000000000000000000000000000000000000000000000000000000000000000000000000000000000000000000000000000000000000000000000000000000000000000000000000000000000000000000000000000000000000000000000000000000000000000000000000000000000000000000000000000000000000000000000000000000000000000000000000000000000000000000000
#0341a:14000024
#03416:13140000
#03412:00130000
#03417:0000001400000000
#03413:00000000000000130000000000000000
#03418:0014
#03419:0000000000140000
#03415:00000000000000000000001300000000
#03712:24000000000000140000140000000000
#0371a:24141400
#03716:000000000000000000000000000000000000000000000000000000000000000000000000000000000000000000000000000000000000000000000000000000000000000000000000000000000000000000000000000000000000000000000000000000000000000000000000000000000000000000000000000000000000000000000000000000000000000000000000000000000000000000000000000000000000000000000000000000000000000000000000000000000000000000000000000000000000000000000000000000000000000000000000000000000000000000000000000000000000000000000000000000000000000000000000000000000000000000000000000000000000000000000000000000000000000000000000000000000000000000000000000000000000000000000000000000000000000000000000000000000000000000000000000000000000000000000000000000000000000000000000000000000000000000000000000000000000000000000000000000000000000000000000000000000000000000000000000000000000000000000000000000000000000000000000000000000000000000000000000000000000000000000000000000000000000000000000000000000000000000000000130000000000000000000000000000000000000000000000000000000000000000000000000000000000000000000000000000000000000000000000000000000000000000000000000000000000000000000000000000000000000000000000000000000000000000000000000000000000000000000000000000000000000000000000000000000000000000000000000000000000000000000000000000000000000000000000000000000000000000000000000000000000000000000000000000000000000000000000000000000000000000000000000000000000000000000000000000000000000000000000000000000000000000000000000000000000000000000000000000000000000000000000000000000000000000000000000000000000000000000000000000000000000000000000000000000000000000000000000000000000000000000000000000000000000000000000000000000000000000000000000000000000000000000000000000000000000000000000000000000000000000000000000000000000000000000000000000000000000000000000000000000000000000000000000000000000000000000000000000000000000000000000000000000000000000000000000000000000000000000000000000000000000000000000000000000000000000000000000000000000000000000000000000000000000000000000000000000000000000000000540000000074000000000000000000000000000000000000000000000000000000000000000000000000000000000000000000000000000000000000000000000000000000000000000000000000000000000000000000000000000000000000000000000000000000000000000000000000000000000000000000000000000000000000000000000000000000000000000000000000000000000000000000000000000000000000000000000000000000000000000000000000000000000000000000000000000000000000000000000000000000000000000000000000000000000000000000000000000000000000000000000000000000000000000000000000000000000000000000000000000000000000000000000000000000000000000000000000000000000000000000000000000000000000000000000000000000000000000000000000000000000000000000000000000000000000000000000000000000000000000000000000000000000000000000000000000000000000000000000000000000000000000000000000000000000000000000000000000000000000000000000000000000000000000000000000000000000000000000000000000000000000000000000000000000000000000000000000000000000000000000000000000000000000000000000000000000000000000000000000000000000000000000000000000000000000000000000000000000000000000000000000000000000000000000000000000000000000000000000000000000000000000000000000000000000000000000000000000000000000000000000000000000000000000000000000000000000000000000000000000000000000000000000000000000000000000000000000000000000000007474740000000000000000000000000000000000000000000000000000000000000000000000000000000000000000000000000000000000000000000000000000000000000000000000000000000000000000000000000000000000000000000000000000000000000000000000000000000000000000000000000000000000000000000000000000000000000000000000000000000000000000000000000000000000000000000000000000000000000000000000000000000000000000000000000000000000000000000000000000000000000000000000000000000000000000000000000000000000000000
#03718:00000000000000000000000000000000000000000000000000000000000000000054000000000000000000000000000000000000000000000000000000000000
#03912:1414000014140013
#0391a:00140000000000000014000000000000
#03916:00000013
#03918:0000141400000000
#03914:00000000001400000000000000000000
#0391b:00000013
#03917:0000000000000013
#03910:41
#03812:00141424
#0381a:00141400
#03815:0000001300000000
#03816:00000014
#04018:1616000000001600
#04016:00160016000000000000000000000000
#04012:0000001616001616
#04013:00000000000000160016000000000000
#04116:0000141400001414
#0411a:0000140014000014
#04112:2600001400001400
#04212:14140000
#0421a:00000014000000000000000000000000
#04218:0000000000000054000000000000000022000000000000002200000000000000
#04216:00640000
#04316:0000141400001414
#0431a:1400001400001400
#04312:0000140014000014
#0441a:14140000
#04412:00000014000000000000000000000000
#04416:00642222
#04414:0000000000000054000000000000000000000000000000000000000000000000
#0451a:0000001424000000
#04516:0000001323000000
#04518:0000000000000013
#04515:00000000000000000000000000000013
#04517:23
#04618:13
#0461a:00140024
#04612:00142400
#04616:0000000014141414
#04715:001600000016001600000016
#04718:001616001616
#04712:26262626
#04815:0000000000160000
#0481a:00142414
#04812:26360000000000000000000024000000
#04912:0000001424000000
#04917:0000001323000000
#04915:0000000000000013
#04918:00000000000000000000000000000013
#04916:23
#0491a:24
#04910:41
#05015:13
#05012:00140024
#0501a:00142400
#05016:0014
#05014:0000000000140000
#05018:00000000000000000000001400000000
#05516:00001400140014000014001400002400
#0551b:00130000
#05512:2400000014001414
#0551a:2400000000140000
#0561a:0014140000000000
#05616:00000014000000140000280000000000
#05612:0000001414000028
#0591a:14141414
#05915:00130013000000000000000000000000
#05918:0013001300130013
#05914:00000000001300130000000000000000
#05913:00000000000000000013001300000000
#05912:00000000000000000000000000130013
#06015:16161616000000002600260000000023
#06018:0000161600000023
#06012:00000000001600160000000024000000
#0601a:00000024
#06212:0000001414000000
#06216:14000000240000140000001424000000
#0621a:0014140000142400
#06312:1400140000140014
#0631a:14000000000000141400140000001400
#06316:0014241400002400
#06415:0000000000000013
#06418:0000000000000013
#06412:0014001400242400
#0641a:0000140014242400
#06416:0000241414000000
#06718:16001600001600001600160000000000
#06712:00160000000016000016000013000000
#06714:0000000000000013
#06719:0000000000000013
#06716:00240024
#0681a:14000014
#06818:00161616000000000000000000161616
#06812:00000000000014161616000000000000
#0611a:2400140014000014
#06112:24000000000000140000140000001400
#06116:000000000000000000000000000000000000000000000000000000000000000000000000000000000000000000000000000000000000000000000000000000000000000000000000000000000000000000000000000000000000000000000000240000000000000000000000000000000000000000000000000000000000000000000000000000000000000000000000000000000000000000000000000000000000000000000000000000000000000000000000000000000000000000000000000000000000000000000000547400000000000000000000000000000000000000000000000000000000000000000000000000000000000000000000000000000000000000000000000000000000000000000000000000000000000000000000240000000000000000000000000000000000000000000000000000000000000000000000000000000000000000000000000000000000000000000000000000000000000000000000000000000000000000000000000000000000000000000000
#0611f:21
#06110:0000000000000041
#06118:00000000000000000000000000000000000000000000000000000000000000000054000000000000000000000000000000000000000000000000000000000000
#06612:00141424
#06615:0000001300000000
#0661a:0014
#06616:141400000000000000000000000000000000000000000000000000000000000000000000000000000000000000000000000000000000000000000000000000000000000000000000000000000000000000000000000000000000000000000000240000000000000000000000000000000000000000000000000000000000000000000000000000000000000000000000000000000000000000000000000000000000000000000000000000000000000000000000000000000000000000000000000000000000000000000000000000000000000000000000000000000000000000000000000000000000000000000000000000000000000000000000000000000000000000000000000000000000000000000000000000000000000000000000240000000000000000000000000000000000000000000000000000000000000000000000000000000000000000000000000000000000000000000000000000000000000000000000000000000000000000000000000000000000000000000000
#06512:2400140014000014
#0651a:24000000000000140000140000001400
#06516:000000000000000000000000000000000000000000000000000000000000000000000000000000000000000000000000000000000000000000000000000000000000000000000000000000000000000000000000000000000000000000000000240000000000000000000000000000000000000000000000000000000000000000000000000000000000000000000000000000000000000000000000000000000000000000000000000000000000000000000000000000000000000000000000000000000000000000000000547400000000000000000000000000000000000000000000000000000000000000000000000000000000000000000000000000000000000000000000000000000000000000000000000000000000000000000000240000000000000000000000000000000000000000000000000000000000000000000000000000000000000000000000000000000000000000000000000000000000000000000000000000000000000000000000000000000000000000000000
#06514:00000000000000000000000000000000000000000000000000000000000000000054000000000000000000000000000000000000000000000000000000000000
#0711a:1414000014140000
#07116:0000141400001414
#07112:0028002400280024
#0721a:1414000014002400
#07216:0000141400242400
#07212:0028002400240000
#07316:0028141400281414
#07312:2414000014140000
#0731a:0000002400000024
#07412:1414000014140000
#07416:0028141400281414
#0741a:0000002400000024
#07512:1414000014140000
#07516:00140014140014000014001414001400
#0751a:00000000001400140000000000140014
#07612:16161616000000000000000024000000
#07618:00000000000016161616000000000000
#0761a:00000024
#07616:000000000000000000000000000000000000000000000000000000000000000000000000000000000000000000000000000000000000000000000000000000000000000000000000000000000000000000000000000000000000000000000000000000000000000000000000000000000000000000000000000000000000000000000000000000000000000000000000000000000000000000000000000000000000000000000000000000000000000000000000000000000000000000000000000000000000000000000000000000000000000000000000000000000000000000000000000000000000000000000000000000000000000000000000000000000000000000000000000000000000000000000000000000000000000000000000000000000000000000000000000000000000000000000000000000000000000000000000000000000000000000000000000000000000000000000000000000000000000000000000000000000000000000000000000000000000000000000000000000000000000000000000000000000000000000000000000000000000000000000000000000000000000000000000000000000000000000000000000000000000000000000000000000000000000000000000000000000000000000000000000000000000000000000000000000000000000000000000000000000000000000000000000000000000000000000000000000000000000000000000000000000000000000000000000000000000000000000000000000000000000000000000000000000000000000000000000000000000000000000000000000000000000000000000000000000000000000000000000000000000000000000000000000000000000000000000000000000000000000000000000000000000000000000000000000000000000000000000000000000000000000000000000000000000000000000000000000000000000000000000000000000000000000000000000000000000000000000000000000000000000000000000000000000000000000000000000000000000000000000000000000000000000000000000000000000000000000000000000000000000000000000000000000000000000000000000000000000000000000000000000000000000000000000000000000000000000000000000000000000000000000000000000000000000000000000000000000000000000000000000000000000000000000000000000000000000000000000000000000000000000000000000000000000000000000000000000000000000000000000074
#0781b:0000001300000000
#07815:0013000000000013
#07818:00000013000000000013000000000000
#07812:24131300
#0781a:24
#07912:00001300000000000053000000000000
#07918:00000013000000000000000000000000
#07915:000000000000000000000000000000000000000000000000000000000000000000000000000000000000000000000000000000000000000000000000000000000000000000000000000000000000000000000000000000000000000000000000000000000000000000000000000000000000000000000000000000000000000000000000000000000000000000000000000000000000000000000000000000000000000000000000000000000000000000000000000000000000000000000000130000000000000000000000000000000000000000000000000000000000000000000000000000000000000000000000537300000000000000000000000000000000000000000000000000000000000000000000000000000000000000000000000000000000000000000000000000000000000000000000000000000000000000000000000000000000000000000000000000000000000000000000000000000000000000000000000000000000000000000000000000000000000000000000
#08018:26262600000000000000000000000000
#08012:0000002c00002626262c00002c2c2c2c
#00018:0000000000520000
#00016:0000000000520000
#02952:14140000
#0295a:1400000000140000
#02956:000000000000000000000000000000000000000000000000000000000000000000000000000000000000000000000000000000000000000000000000000000000000000000000000000000000000000000000000000000000000000000000000000000000000000000000000000000000000000000000000000000000000000000000000000000000000000000000000000000000000000000000000000000000000000000000000000000000000000000000000000000000000000000000000000000000000000000000000000000000000000000000000000000000000000000000000000000000000000000000000000000000000000000000000000000000000000000000000000000000000000000000000000000000000000000000000000000000000000000000000000000000000000000000000000000000000000000000000000000000000000000000000000000000000000000000000000000000000000000000000000000000000000000000000000000000000000000000000000000000000000000000000000000000000000000000000000000000000000000000000000000000000000000000000000000000000000000000000000000000000000000000000000000000000000000000000000000000000000000000000000000000000000000000000000000000000000000000000000000000000000000000000000000000000000000000000000000000000000000000000000000000000000000000000000000000000000000000000000000000000000000000000000000000000000000000000000000000000000000000000000000000000000000000000000000000000000000000000000000000000000000000000000000000000000000000000000000000000000000000000000000000000000000000000000000000000000000000000000000000000000000000000000000000000000000000000000000000000000000000000000000000000000000000000000000000000000000000000000000000000000000000000000000000000000000000000000000000000000000000000000000000000000000000000000000000000000000000000000000000000000000000000000000000000000000000000000000000000000000000000000000000000000000000000000000000000000000000000000000000000000000000000000000000000000000000000000000000000000000000000000000000000000000000000000000000000000000000000000000000000000000000000000000000000000000000000000000000000000000000000000000000000000000000000000000000000000000000000000000000000000000000000000000000000000000000000000000000000000000000000000000000000000000000000000000000000000000000000000000000000000000000000000000000000000000000000000000000000000000000000000000000000000000000000000000000000000000000000000000000000000000000000000000000000000000000000000000000000000000000000000000000000000000000000000000000000000000000000000000000000000000000000000000000000000000000000000000000000000000000000140000000000000000000000000000000000000000000000000000000000000000000000000000000000000000000000000000000000000000000000000000000000000000000000000000000000000000000000000000000000000000000000000000000000000000000000000000000000000000000000000000000000000000000000000000000000000000000000000000000000000000000000000000000000000000000000000000000000000000000000000000000000000000000000000000000000000000000000000000000000000000000000000000000000000000000000000000000000000000000000000000000000000000000000000000000000000000000000000000000000000000000000000000000000000000000000000000000000000000000000000000000000000000000000000000000000000000000000000000000000000000000000000000000000000000000000000000000000000000000000000000000000000000000000000000000000000000000000000000000000000000000000000000000000000000000000000000000000000000000000000000000000000000000000000000000000000000000000000000000000000000000000000000000000000000000000000000000000000000000000000054540000000000000000000000000000000000000000000000000000000000000000000000000000000000000000000000000000000000000000000000000000000000000000000000000000000000000000000000000000000000000000000000000000000000000000000000000000000000000000000000000000000000000000000000000000000000000000000000000000000000000000000000000000000000000000000000000000000000000000000000000000000000000000000000000000000000000000000000000000000000000000000000000000000000000000000000000000000000000000
#02756:5400002400540000
#0275a:00540000
#02752:0024000000000000
#02757:0000000000000043
#0085b:00630000
#00852:0000000036000036
#00858:00000000000000000000004600000000
#0525a:00000014
#05252:00380014
#05256:4848
#0535a:0000000000000054
#0615a:44440000
#06152:3400000000000064
#06156:0000000000440000
#06952:0038003400380034
#06958:46
#0765a:00000054
#07652:00000046000000000000000064000000
#07658:00000000000000000036000000000000
#00158:0000000000140014
#00254:0000000000000014
#00255:0000000000140000
#00358:0000000000140014
#0055b:00530000
#00558:0000000000000013
#00555:0000000000000013
#00752:36630000
#00755:0000000000000013
#00758:0000000000000013
#00952:54000014
#00956:00145400
#01152:00160000
#01158:00000016
#01558:16
#01557:00170000
#01556:0018
#01555:00000019
#01755:0013000000000000
#0175b:0000000000130000
#01752:0000000000000053
#01757:0000000000000053
#0185b:23
#01856:23
#01958:0013000000000000
#01952:0000000000130000
#01956:0000000000000063
#0195b:0000000000000063
#02052:23
#02057:23
#02155:0013000000000000
#0215b:0000000000130000
#02157:0000000000000053
#02152:0000000000000053
#0225b:23
#02256:23
#0225a:0044
#02252:0034
#02352:00140014
#0235a:1414
#02452:1400140014000024
#0245a:0014001400005400
#02456:0000000000005424
#01056:00145400
#01052:54000014
#01356:00145400
#01358:56
#0135a:00000014
#0145a:54000014
#01456:00145400
#01652:00000014
#0255a:44
#02556:4400000000140054
#02552:0000130000140000
#0255b:0000000000000053
#02657:23
#02652:24000014
#03254:00000046000000000000000000000000
#03257:00000000000000000036000000000000
#03052:0014
#03056:00000054
#0305a:00000014
#0315a:0014000000140000
#03154:0000001400000000
#03352:3600000000000063
#0335b:00130000
#03356:0000000000140064
#0335a:0000000000140000
#03556:6400002400640033
#0355a:0024000000000000
#03552:00640000
#0345a:24000014
#03456:23
#03952:0014000000140000
#03958:0000001400000000
#0375a:14140000
#03752:1400000000140000
#03756:000000000000000000000000000000000000000000000000000000000000000000000000000000000000000000000000000000000000000000000000000000000000000000000000000000000000000000000000000000000000000000000000000000000000000000000000000000000000000000000000000000000000000000000000000000000000000000000000000000000000000000000000000000000000000000000000000000000000000000000000000000000000000000000000000000000000000000000000000000000000000000000000000000000000000000000000000000000000000000000000000000000000000000000000000000000000000000000000000000000000000000000000000000000000000000000000000000000000000000000000000000000000000000000000000000000000000000000000000000000000000000000000000000000000000000000000000000000000000000000000000000000000000000000000000000000000000000000000000000000000000000000000000000000000000000000000000000000000000000000000000000000000000000000000000000000000000000000000000000000000000000000000000000000000000000000000000000000000000000000000000000000000000000000000000000000000000000000000000000000000000000000000000000000000000000000000000000000000000000000000000000000000000000000000000000000000000000000000000000000000000000000000000000000000000000000000000000000000000000000000000000000000000000000000000000000000000000000000000000000000000000000000000000000000000000000000000000000000000000000000000000000000000000000000000000000000000000000000000000000000000000000000000000000000000000000000000000000000000000000000000000000000000000000000000000000000000000000000000000000000000000000000000000000000000000000000000000000000000000000000000000000000000000000000000000000000000000000000000000000000000000000000000000000000000000000000000000000000000000000000000000000000000000000000000000000000000000000000000000000000000000000000000000000000000000000000000000000000000000000000000000000000000000000000000000000000000000000000000000000000000000000000000000000000000000000000000000000000000000000000000000000000000000000000000000000000000000000000000000000000000000000000000000000000000000000000000000000000000000000000000000000000000000000000000000000000000000000000000000000000000000000000000000000000000000000000000000000000000000000000000000000000000000000000000000000000000000000000000000000000000000000000000000000000000000000000000000000000000000000000000000000000000000000000000000000000000000000000000000000000000000000000000000000000000000000000000000000000000000000000140000000000000000000000000000000000000000000000000000000000000000000000000000000000000000000000000000000000000000000000000000000000000000000000000000000000000000000000000000000000000000000000000000000000000000000000000000000000000000000000000000000000000000000000000000000000000000000000000000000000000000000000000000000000000000000000000000000000000000000000000000000000000000000000000000000000000000000000000000000000000000000000000000000000000000000000000000000000000000000000000000000000000000000000000000000000000000000000000000000000000000000000000000000000000000000000000000000000000000000000000000000000000000000000000000000000000000000000000000000000000000000000000000000000000000000000000000000000000000000000000000000000000000000000000000000000000000000000000000000000000000000000000000000000000000000000000000000000000000000000000000000000000000000000000000000000000000000000000000000000000000000000000000000000000000000000000000000000000000000000000064640000000000000000000000000000000000000000000000000000000000000000000000000000000000000000000000000000000000000000000000000000000000000000000000000000000000000000000000000000000000000000000000000000000000000000000000000000000000000000000000000000000000000000000000000000000000000000000000000000000000000000000000000000000000000000000000000000000000000000000000000000000000000000000000000000000000000000000000000000000000000000000000000000000000000000000000000000000000000000
#0385a:0014
#03856:00000064
#03852:00000014
#04056:00000036000000000000000000000000
#04053:00000000000000000046000000000000
#04058:00000056
#04052:0000000000000026
#04156:00640064
#04152:6600002400000000
#0415a:0000000064000024
#04158:46
#04356:00640054
#0435a:6400002400000000
#04352:0000000054000024
#0455a:0014
#04556:0013
#04557:13
#04552:14
#04652:0034
#0465a:00000044
#04752:0016
#0485a:0014
#04852:56000014
#04952:0014
#04957:0013
#04956:13
#0495a:14
#0505a:0044
#05052:00000034
#05158:46
#05157:0047
#05152:00360037
#05452:00340000
#0545a:0044
#05552:0000000000000064
#0565a:00440000
#05652:0000000034000038
#05656:0000000000480000
#05752:0014000000000000
#0575a:1400000000000054
#05852:0034003400340034
#06256:24
#0625a:00000014
#06352:5400540000000034
#06356:0024002400000000
#0635a:0000000000000054
#0655a:1400000000000064
#06552:1400340000000064
#06556:0000000000340000
#06656:242400000000000000000000000000000000000000000000000000000000000000000000000000000000000000000000000000000000000000000000000000000000000000000000000000000000000000000000000000000000000000000000000000000000000000000000000000000000000000000000000000000000000000000000000000000000000000000000000000000000000000000000000000000000000000000000000000000000000000000000000000000000000000000000000000000000000000000000000000000000000000000000000000000000000000000000000000000000000000000000000000000000000000000000000000000000000000000000000000000000000000000000000000000000000000000000000000000000000000000000000000000000000000000000000000000000000000000000000000000000000000000000000000000000000000000000000000000000000000000000000000000000000000000000000000000000000000000000
#0665a:0044
#06652:00000034
#06758:0046000000460000
#06752:0000003600000000
#07252:0038003400340000
#0725a:00000044
#07052:0038003400380034
#07152:0038003400380034
#0735a:0000004400000044
#07356:0048000000480000
#0745a:0000004400000044
#07456:0048000000480000
#07756:14
#07752:0000000000540000
#07852:00630000
#07855:0000000000000013
#07858:0000000000000013
#08052:0000003c00000000004c00000000001c
#06852:00000000000000000046000000000000
#06858:00000036000000000000000000000000
#02855:0013
#02858:0013
#03655:0013
#03658:0013
#000380:0000001200220000
#0003c0:0000000000000000000000000052000000000052000000000000000000000000
#000361:0000001200220000
#0053b1:00130000
#005371:0000002300000000
#005381:0000000000130000
#0053b1:00000023
#005320:00000013
#005350:0000000000000023
#006380:0000132300000000
#006351:0000001323000000
#006381:000000000000000000000000000000000000000000000000000000000000000000000000000000000000000000000000000000000000000000000000000000000000000000000000000000000000000000000000000000000000000000000000000000000000000000000000000000000000000000000000000000000000000000000000000000000000000000000000000000000000000000000000000000000000000000000000000000000000000000000000000000000000000000000000000000000000000000000000000000000000000000000000000000000000000000000000000000000000000000000000001300000000000000000000000000000000000000000000000000000000000000000000000000000000000000000000230000000000000000000000000000000000000000000000000000000000000000000000000000000000000000000000000000000000000000000000000000000000000000000000000000000000000000000000000000000000000000000000
#006340:0000000000001424
#006381:0000000000000015
#007381:25
#007321:00130000
#007361:0000002300000000
#007351:0000000000130000
#007321:00000023
#0073b0:00000013
#007380:0000000000000023
#0083b0:00130000
#008380:0000002300000000
#009320:14
#009360:00240000
#009360:0014
#009320:00000024
#010320:14
#010360:00240000
#010360:0014
#010320:00000024
#013320:1333333333333333
#013330:00330033003300330033003300330033
#014320:3333333333333333
#014330:00330033003300330033003300330033
#015320:23
#017320:0000000000000013
#018360:53
#018320:0023000000000000
#017371:0000000000000013
#0183b1:53
#018371:0023000000000000
#0193b1:0000000000000013
#020371:53
#0203b1:0023000000000000
#019360:0000000000000013
#020320:53
#020360:0023000000000000
#021320:0000000000000013
#022360:53
#022320:0023000000000000
#021371:0000000000000013
#0223b1:53
#022371:0023000000000000
#0243a1:00000014
#024361:0000000000000054
#0253a1:24
#024360:00000014
#024320:0000000000000054
#025360:24
#025320:000000000000000000000000000000000000000000000000000000000000000000000000000000000000000000000000000000000000000000000000000000000000000000000000000000000000000000000000000000000000000000000000000000000000000000000000000000000000000000000000000000000000000000000000000000000000000000000000000000000000000000000000000000000000000000000000000000000000000000000000000000000000000000000000000000000000000000000000001400000000000000000000000000000000000000000000000000000000000000000000240000000000000000000000000000000000000000000000000000000000000000000000000000000000000000000000000000000000000000000000000000000000000000000000000000000000000000000000000000000000000000000000000000000000000000000000000000000000000000000000000000000000000000000000000000000000000000000000
#0253b0:0000000000000013
#026370:53
#0263b0:0023000000000000
#025361:0000000000000014
#026321:54
#026361:0024000000000000
#027361:14240000
#027321:0054000000000000
#0273a0:00142400
#027360:0000005400000000
#027360:0000000000140000
#027320:0000000000000024
#029360:000000000000000000000000000000000000000000000000000000000000000000000000000000000000000000000000000000000000000000000000000000000000000000000000000000000000000000000000000000000000000000000000000000000000000000000000000000000000000000000000000000000000000000000000000000000000000000000000000000000000000000000000000000000000000000000000000000000000000000000000000000000000000000000000000000000000000000000000001400000000000000000000000000000000000000000000000000000000000000000000240000000000000000000000000000000000000000000000000000000000000000000000000000000000000000000000000000000000000000000000000000000000000000000000000000000000000000000000000000000000000000000000000000000000000000000000000000000000000000000000000000000000000000000000000000000000000000000000
#029360:000000000000000000000000000000000000000000000000000000000000000000000000000000000000000000000000000000000000000000000000000000000000000000000000000000000000000000000000000000000000000000000000000000000000000000000000000000000000000000000000000000000000000000000000000000000000000000000000000000000000000000000000000000000000000000000000000000000000000000000000000000000000000000000000000000000000000000000000000000000000000000000000000000000000000000000000000000000000000000000000000000000000000000000000000000000000000000000000000000000000000000000000000000000000000000000000000000000000000000000000000000000000000000000000000000000000000000000000000000000000000000000000000000000000000000000000000000000000000000000000000000000000000000000000000000000000000000000000000000000000000000000000000000000000000000000000000000000000000000000000000000000000000000000000000000000000000000000000000000000000000000000000000000000000000000000000000000000000000000000000000000000000000000000000000000000000000000000000000000000000000000000000000000000000000000000000000000000000000000000000000000000000000000000000000000000000000000000000000000000000000000000000000000000000000000000000000000000000000000000000000000000000000000000000000000000000000000000000000000000000000000000000000000000000000000000000000000000000000000000000000000000000000000000000000000000000000000000000000000000000000000000000000000000000000000000000000000000000000000000000000000000000000000000000000000000000000000000000000000000000000000000000000000000000000000000000000000000000000000000000000000000000000000000000000000000000000000000000000000000000000000000000000000000000000000000000000000000000000000000000000000000000000000000000000000000000000000000000000000000000000000000000000000000000000000000000000000000000000000000000000000000000000000000000000000000000000000000000000000000000000000000000000000000000000000000000000000000000000000000000000000000000000000000000000000000000000000000000000000000000000000000000000000000000000000000000000000000000000000000000000000000000000000000000000000000000000000000000000000000000000000000000000000000000000000000000000000000000000000000000000000000000000000000000000000000000000000000000000000000000000000000000000000000000000000000000000000000000000000000000000000000000000000000000000000000000000000000000000000000000000000000000000000000000000000000000000000000000000000000000000000000000000000000000000000000000000000000000000000000000000000000000000000000000000000000000000000000000000000000000000000000000000000000000000000000000000000000000000000000000000000000000000000000000000000000000000000000000000000000000000000000000000000000000000000000000000000000000000000000000000000000000000000000000000000000000000000000000000000000000000000000000000000000000000000000000000000000000000000000000000000000000000000000000000000000000000000000000000000000000000000000000000000000000000000000000000000000000000000000000000000000000000000000000000000000000000000000000000000000000000000000000000000000000000000000000000000000000000000000000000000000000000000000000000000000000000000000000000000000000000000000000000000000000000000000000000000000000000000000000000000000000000000000000000000000000000000000000000000000000000000000000000000000000000000000000000000000000000000000000000000000000000000000000000000000000000000000000000000000000142400000000000000000000000000000000000000000000000000000000000000000000000000000000000000000000000000000000000000000000000000000000000000000000000000000000000000000000000000000000000000000000000000000000000000000000000000000000000000000000000000000000000000000000000000000000000000000000000000000000000000000000000000000000000000000000000000000000000000000000000000000000000000000000000000000000000000000000000000000000000000000000000000000000000000000000000000000000000000000000
#029360:000000000000000000000000000000000000000000000000000000000000000000000000000000000000000000000000000000000000000000000000000000000000000000000000000000000000000000000000000000000000000000000000000000000000000000000000000000000000000000000000000000000000000000000000000000000000000000000000000000000000000000000000000000000000000000000000000000000000000000000000000000000000000000000000000000000000000000000000000000000000000000000000000000000000000000000000000000000000000000000000000000000000000000000000000000000000000000000000000000000000000000000000000000000000000000000000000000000000000000000000000000000000000000000000000000000000000000000000000000000000000000000000000000000000000000000000000000000000000000000000000000000000000000000000000000000000000000000000000000000000000000000000000000000000000000000000000000000000000000000000000000000000000000000000000000000000000000000000000000000000000000000000000000000000000000000000000000000000000000000000000000000000000000000000000000000000000000000000000000000000000000000000000000000000000000000000000000000000000000000000000000000000000000000000000000000000000000000000000000000000000000000000000000000000000000000000000000000000000000000000000000000000000000000000000000000000000000000000000000000000000000000000000000000000000000000000000000000000000000000000000000000000000000000000000000000000000000000000000000000000000000000000000000000000000000000000000000000000000000000000000000000000000000000000000000000000000000000000000000000000000000000000000000000000000000000000000000000000000000000000000000000000000000000000000000000000000000000000000000000000000000000000000000000000000000000000000000000000000000000000001400000000000000000000000000000000000000000000000000000000000000000000000000000000000000000000000000000000000000000000000000000000000000000000000000000000000000000000000000000000000000000000000000000000000000000000000000000000000000000000
#030320:0024000000000000
#029361:00000000000000000000000000000000000000000000000000000000000000000000000000000000000000000000000000000000000000000000000000000000000000000000000000000000000000000000000000000000000000000000000000000000000000000000000000000000000000000000000000000000000000000000000000000000000000000000000000000000000000000000000000000000000000000000000000000000000000000000000000000000000000000000000000000000000000000000000000000000000000000000000000000000000000000000000000000000000000000000000000000000000000000000000000000000000000000000000000000000000000000000000000000000000000000000000000000000000000000000000000000000000000000000000000000000000000000000000000000000000000000000000000000000000000000000000000000000000000000000000000000000000000000000000000000000000000000000000000000000000000000000000000000000000000000000000000000000000000000000000000000000000000000000000000000000000000000000000000000000000000000000000000000000000000000000000000000000000000000000000000000000000000000000000000000000000000000000000000000000000000000000000000000000000000000000000000000000000000000000000000000000000000000000000000000000000000000014000000000000000000000000000000000000000000000000000000000000000000000000000000000000000000000000000000000000000000000000000000000000000000000000000000000000
#0303a1:0024000000000000
#030361:00000014
#031321:24
#0333a1:000000000000000000000000000000000000000000000000000000000000000000000000000000000000000000000000000000000000000000000000000000000000000000000000000000000000000000000000000000000000000000000000000000000000000000000000000000000000000000000000000000000000000000000000000000000000000000000000000000000000000000000000000000000000000000000000000000000000000000000000000000000000000000000000000000000000000000000000001400000000000000000000000000000000000000000000000000000000000000000000240000000000000000000000000000000000000000000000000000000000000000000000000000000000000000000000000000000000000000000000000000000000000000000000000000000000000000000000000000000000000000000000000000000000000000000000000000000000000000000000000000000000000000000000000000000000000000000000
#033321:0000000000000013
#034361:53
#034321:0023000000000000
#033360:0000000000000014
#0343a0:54
#034360:0024000000000000
#035360:14240000
#0353a0:0054000000000000
#035321:00142400
#035361:0000005400000000
#035361:0000000000140000
#0353a1:0000000000000024
#037361:000000000000000000000000000000000000000000000000000000000000000000000000000000000000000000000000000000000000000000000000000000000000000000000000000000000000000000000000000000000000000000000000000000000000000000000000000000000000000000000000000000000000000000000000000000000000000000000000000000000000000000000000000000000000000000000000000000000000000000000000000000000000000000000000000000000000000000000000001400000000000000000000000000000000000000000000000000000000000000000000240000000000000000000000000000000000000000000000000000000000000000000000000000000000000000000000000000000000000000000000000000000000000000000000000000000000000000000000000000000000000000000000000000000000000000000000000000000000000000000000000000000000000000000000000000000000000000000000
#037361:000000000000000000000000000000000000000000000000000000000000000000000000000000000000000000000000000000000000000000000000000000000000000000000000000000000000000000000000000000000000000000000000000000000000000000000000000000000000000000000000000000000000000000000000000000000000000000000000000000000000000000000000000000000000000000000000000000000000000000000000000000000000000000000000000000000000000000000000000000000000000000000000000000000000000000000000000000000000000000000000000000000000000000000000000000000000000000000000000000000000000000000000000000000000000000000000000000000000000000000000000000000000000000000000000000000000000000000000000000000000000000000000000000000000000000000000000000000000000000000000000000000000000000000000000000000000000000000000000000000000000000000000000000000000000000000000000000000000000000000000000000000000000000000000000000000000000000000000000000000000000000000000000000000000000000000000000000000000000000000000000000000000000000000000000000000000000000000000000000000000000000000000000000000000000000000000000000000000000000000000000000000000000000000000000000000000000000000000000000000000000000000000000000000000000000000000000000000000000000000000000000000000000000000000000000000000000000000000000000000000000000000000000000000000000000000000000000000000000000000000000000000000000000000000000000000000000000000000000000000000000000000000000000000000000000000000000000000000000000000000000000000000000000000000000000000000000000000000000000000000000000000000000000000000000000000000000000000000000000000000000000000000000000000000000000000000000000000000000000000000000000000000000000000000000000000000000000000000000000000000000000000000000000000000000000000000000000000000000000000000000000000000000000000000000000000000000000000000000000000000000000000000000000000000000000000000000000000000000000000000000000000000000000000000000000000000000000000000000000000000000000000000000000000000000000000000000000000000000000000000000000000000000000000000000000000000000000000000000000000000000000000000000000000000000000000000000000000000000000000000000000000000000000000000000000000000000000000000000000000000000000000000000000000000000000000000000000000000000000000000000000000000000000000000000000000000000000000000000000000000000000000000000000000000000000000000000000000000000000000000000000000000000000000000000000000000000000000000000000000000000000000000000000000000000000000000000000000000000000000000000000000000000000000000000000000000000000000000000000000000000000000000000000000000000000000000000000000000000000000000000000000000000000000000000000000000000000000000000000000000000000000000000000000000000000000000000000000000000000000000000000000000000000000000000000000000000000000000000000000000000000000000000000000000000000000000000000000000000000000000000000000000000000000000000000000000000000000000000000000000000000000000000000000000000000000000000000000000000000000000000000000000000000000000000000000000000000000000000000000000000000000000000000000000000000000000000000000000000000000000000000000000000000000000000000000000000000000000000000000000000000000000000000000000000000000000000000000000000000000000000000000000000000000000000000000000000000000000000000000000000000000000000000000000000000000000000000000000000000000000000000000000000000000000000000000000000000000000000000000000142400000000000000000000000000000000000000000000000000000000000000000000000000000000000000000000000000000000000000000000000000000000000000000000000000000000000000000000000000000000000000000000000000000000000000000000000000000000000000000000000000000000000000000000000000000000000000000000000000000000000000000000000000000000000000000000000000000000000000000000000000000000000000000000000000000000000000000000000000000000000000000000000000000000000000000000000000000000000000000000
#037361:000000000000000000000000000000000000000000000000000000000000000000000000000000000000000000000000000000000000000000000000000000000000000000000000000000000000000000000000000000000000000000000000000000000000000000000000000000000000000000000000000000000000000000000000000000000000000000000000000000000000000000000000000000000000000000000000000000000000000000000000000000000000000000000000000000000000000000000000000000000000000000000000000000000000000000000000000000000000000000000000000000000000000000000000000000000000000000000000000000000000000000000000000000000000000000000000000000000000000000000000000000000000000000000000000000000000000000000000000000000000000000000000000000000000000000000000000000000000000000000000000000000000000000000000000000000000000000000000000000000000000000000000000000000000000000000000000000000000000000000000000000000000000000000000000000000000000000000000000000000000000000000000000000000000000000000000000000000000000000000000000000000000000000000000000000000000000000000000000000000000000000000000000000000000000000000000000000000000000000000000000000000000000000000000000000000000000000000000000000000000000000000000000000000000000000000000000000000000000000000000000000000000000000000000000000000000000000000000000000000000000000000000000000000000000000000000000000000000000000000000000000000000000000000000000000000000000000000000000000000000000000000000000000000000000000000000000000000000000000000000000000000000000000000000000000000000000000000000000000000000000000000000000000000000000000000000000000000000000000000000000000000000000000000000000000000000000000000000000000000000000000000000000000000000000000000000000000000000000000000000001400000000000000000000000000000000000000000000000000000000000000000000000000000000000000000000000000000000000000000000000000000000000000000000000000000000000000000000000000000000000000000000000000000000000000000000000000000000000000000000
#0383a1:0024000000000000
#037360:00000000000000000000000000000000000000000000000000000000000000000000000000000000000000000000000000000000000000000000000000000000000000000000000000000000000000000000000000000000000000000000000000000000000000000000000000000000000000000000000000000000000000000000000000000000000000000000000000000000000000000000000000000000000000000000000000000000000000000000000000000000000000000000000000000000000000000000000000000000000000000000000000000000000000000000000000000000000000000000000000000000000000000000000000000000000000000000000000000000000000000000000000000000000000000000000000000000000000000000000000000000000000000000000000000000000000000000000000000000000000000000000000000000000000000000000000000000000000000000000000000000000000000000000000000000000000000000000000000000000000000000000000000000000000000000000000000000000000000000000000000000000000000000000000000000000000000000000000000000000000000000000000000000000000000000000000000000000000000000000000000000000000000000000000000000000000000000000000000000000000000000000000000000000000000000000000000000000000000000000000000000000000000000000000000000000000000014000000000000000000000000000000000000000000000000000000000000000000000000000000000000000000000000000000000000000000000000000000000000000000000000000000000000
#038320:0024000000000000
#038360:00000014
#0393a0:24
#040380:00000016
#040320:0000000000000056
#041380:26
#041321:1600005400000000
#041361:0054340024000000
#0413a0:0000000014000034
#041360:0000000000543400
#042360:24
#042360:00140000
#0423a0:0000002400000000
#042321:0000001400000000
#042361:0022
#042380:0012
#0423a0:0000000000240000
#042321:0000000000140000
#042361:00000022
#042380:00000012
#0423a0:000000000000000000000000000000000000000000000000000000000000000000000000000000000000000000000000000000000000000000000000000000000000000000000000000000000000000000000000000000000000000000000000000000000000000000000000000000000000000000000000000000000000000000000000000000000000000000000000000000000000000000000000000000000000000000000000000000000000000000000000000000000000000000000000000000000000000000000000000000000000000000000000000000000000000000000000000000000000000000000000000000000000000000000000000000000000000000000000000000000000000000000000000000000000000000000000000000000000000000000000000000000000000000000000000000000000000000000000000000000000000000000024000000000000000000000000000000000000000000000000000000000000000000000000000000000000000000000000
#042320:0000000000000014
#043360:24
#0433a1:1400003400000000
#043361:0054340024000000
#043320:0000000014000034
#043360:0000000000543400
#044360:24
#044360:00140000
#044320:0000002400000000
#0443a1:0000001400000000
#044381:0022
#044360:0012
#044320:0000000000240000
#0443a1:0000000000140000
#044381:00000022
#044360:00000012
#044320:0000000000000054
#045320:24
#048320:16360000000000000000000000000000
#048360:00005400340000342400000000000000
#0533a0:0000000000000014
#054360:0024000000000000
#055320:0000000000000014
#056360:0024000000000000
#0573a0:0000000000000014
#058360:0024000000000000
#061360:000000000000000000000000000000000000000000000000000000000000000000000000000000000000000000000000000000000000000000000000000000000000000000000000000000000000000000000000000000000000000000000000000000000000000000000000000000000000000000000000000000000000000000000000000000000000000000000000000000000000000000000000000000000000000000000000000000000000000000000000000000000000000000000000000000000000000000000000001400000000000000000000000000000000000000000000000000000000000000000000240000000000000000000000000000000000000000000000000000000000000000000000000000000000000000000000000000000000000000000000000000000000000000000000000000000000000000000000000000000000000000000000000000000000000000000000000000000000000000000000000000000000000000000000000000000000000000000000
#061320:0000000000000014
#062360:54
#062320:0024000000000000
#063320:14342400
#063360:0054005400000000
#0633a0:0000000000000014
#064360:0024000000000000
#065360:000000000000000000000000000000000000000000000000000000000000000000000000000000000000000000000000000000000000000000000000000000000000000000000000000000000000000000000000000000000000000000000000000000000000000000000000000000000000000000000000000000000000000000000000000000000000000000000000000000000000000000000000000000000000000000000000000000000000000000000000000000000000000000000000000000000000000000000000001400000000000000000000000000000000000000000000000000000000000000000000240000000000000000000000000000000000000000000000000000000000000000000000000000000000000000000000000000000000000000000000000000000000000000000000000000000000000000000000000000000000000000000000000000000000000000000000000000000000000000000000000000000000000000000000000000000000000000000000
#0653a0:0000000000000014
#066360:54
#0663a0:0024000000000000
#065321:0000000000000014
#066361:005400000000000000000000000000000000000000000000000000000000000000000000000000000000000000000000000000000000000000000000000000000000000000000000000000000000000000000000000000000000000000000000000000000000000000000000000000000000000000000000000000000000000000000000000000000000000000000000000000000000000000000000000000000000000000000000000000000000000000000000000000000000000000000000000000000000000000000000000000000000000000000000000000000000000000000000000000000000000000000000000000000000000000000000000000000000000000000000000000000000000000000000000000000000000000000000000000000000000000000000000000000000000000000000000000000000000000000000000000000000000000000000000000000000000000000000000000000000000000000000000000000000000000000000000000000000000000000000
#066321:0024000000000000
#0763a1:00000014
#077361:24
#076320:00000014
#076360:000000000000000000000000000000000000000000000000000000000000000000000000000000000000000000000000000000000000000000000000000000000000000000000000000000000000000000000000000000000000000000000000000000000000000000000000000000000000000000000000000000000000000000000000000000000000000000000000000000000000000000000000000000000000000000000000000000000000000000000000000000000000000000000000000000000000000000000000000000000000000000000000000000000000000000000000000000000000000000000000000000000000000000000000000000000000000000000000000000000000000000000000000000000000000000000000000000000000000000000000000000000000000000000000000000000000000000000000000000000000000000000000000000000000000000000000000000000000000000000000000000000000000000000000000000000000000000000000000000000000000000000000000000000000000000000000000000000000000000000000000000000000000000000000000000000000000000000000000000000000000000000000000000000000000000000000000000000000000000000000000000000000000000000000000000000000000000000000000000000000000000000000000000000000000000000000000000000000000000000000000000000000000000000000000000000000000000000000000000000000000000000000000000000000000000000000000000000000000000000000000000000000000000000000000000000000000000000000000000000000000000000000000000000000000000000000000000000000000000000000000000000000000000000000000000000000000000000000000000000000000000000000000000000000000000000000000000000000000000000000000000000000000000000000000000000000000000000000000000000000000000000000000000000000000000000000000000000000000000000000000000000000000000000000000000000000000000000000000000000000000000000000000000000000000000000000000000000000000000000000000000000000000000000000000000000000000000000000000000000000000000000000000000000000000000000000000000000000000000000000000000000000000000000000000000000000000000000000000000000000000000000000000000000000000000000000000000000000000000000024
#077321:0000000000140000
#077361:00000024
#078321:00130000
#078361:0000002300000000
#078351:0000000000130000
#078321:00000023
#0783b0:00000013
#078380:0000000000000023
#079350:0000132300000000
#079381:0000001323000000
#079351:000000000000000000000000000000000000000000000000000000000000000000000000000000000000000000000000000000000000000000000000000000000000000000000000000000000000000000000000000000000000000000000000000000000000000000000000000000000000000000000000000000000000000000000000000000000000000000000000000000000000000000000000000000000000000000000000000000000000000000000000000000000000000000000000000000000000000000000000000000000000000000000000000000000000000000000000000000000000000000000000001300000000000000000000000000000000000000000000000000000000000000000000000000000000000000000000230000000000000000000000000000000000000000000000000000000000000000000000000000000000000000000000000000000000000000000000000000000000000000000000000000000000000000000000000000000000000000000000
#079380:0000000000001424
#079331:0000000000000015
#080331:25
#006980:0000000013230000
#0069b0:00000000000000000053000000000000
#0099b0:1353535353535353
#0099a0:00530053005300530053005300530053
#0109b0:5353535353535353
#0109a0:00530053005300530053005300530053
#0119b0:23
#013980:16
#013960:00240000
#013960:0014
#0139a0:00000024
#0149a0:14
#014960:00240000
#014960:0014
#0149a0:00000024
#0429a0:00000014000000000000000000000000
#042960:00240000
#044920:00000014000000000000000000000000
#044960:00240000
#079950:0000000013230000
#079920:00000000000000000053000000000000
