This file was generated by Ched 2.7.0.0.
#TITLE ""
#ARTIST ""
#DESIGNER ""
#DIFFICULTY 0
#PLAYLEVEL
#SONGID ""
#WAVE ""
#WAVEOFFSET 0
#JACKET ""
#REQUEST "ticks_per_beat 480"
#00002: 4
#BPM01: 120
#00008: 01
#TIL00: ""
#VOLUME: ""
#HISPEED 00
#MEASUREHS 00
#0131f:11
#01316:00000013
#01312:00131300
#0131b:13000013
#01317:00130000
#01617:0000130000000013
#01616:1313
#01612:00130013
#0161b:0013
#0381b:00001313
#03818:00160000000013000000000000000000
#03815:00130000
#03813:0000000000000000000000000000000000000000001400000000000000000000
#03812:00000000000000000016000000000000
#03819:0000000000140000000000000000000000000000000000000000000000000000
#03814:0022
#0381a:22
#03213:001a
#03215:0000160000000013
#03218:00000013
#03217:12
#01517:00000013
#0151b:00131300
#01512:13000013
#01516:00130000
#04816:14000024
#0481a:0014000014000000
#04814:0000001400000000
#04817:00140000
#04812:0024
#04712:0000140000000014
#0471a:1414
#04716:00141400
#04718:0000003400340000
#04714:0000003400340000
#03912:1313
#03917:0013
#03916:0000130000000013
#0391b:00130000
#03919:0000003300330000
#03914:0000003300330000
#03910:41
#0401b:0013000000000000
#04015:0000001300000013
#04012:0013
#04018:00130013
#02719:1300003300000000
#02712:00130000
#02717:00130000
#02716:0000000033333313
#0271b:0000000033333300
#02714:0000003300000000
#0281b:0013000000000000
#02815:0000001300000000
#02818:00130013
#02812:0013
#04418:0000001400000014
#04414:00000014
#04416:14
#04412:0014000014000000
#04415:00140000
#0441a:0014
#00816:0012
#00818:00120000
#0081a:12
#00812:0000000000000013
#00718:12000012
#00714:00120000
#00712:12
#00716:0012
#00614:1200000000000012
#00618:0012
#00616:00120000
#00415:0012
#00417:00120000
#00419:12
#00216:0000000000000012
#00219:0012
#00217:00120000
#00215:12
#00314:12000012
#00316:0012
#00318:00120000
#0031a:12
#0431a:0000140000000014
#04312:1414
#04316:00141400
#04314:0000003400340000
#04318:0000003400340000
#0351b:1313
#03516:0013
#03517:0000130000000013
#03512:00130000
#03514:0000003300330000
#03519:0000003300330000
#03015:0000001300000000
#03013:0013
#03017:00130000
#03019:0013000000000000
#03018:00000013
#02314:1300003300000000
#0231b:00130000
#02316:00130000
#02317:0000000033333313
#02312:0000000033333300
#02319:0000003300000000
#02412:0013000000000000
#0241b:0013
#02415:0000130000000013
#02418:0000001300001300
#04916:0000000000000013
#0491b:00000013
#04912:1413
#0491a:24140000
#05113:13
#05116:00000012
#05119:0012
#0511a:13
#05114:00130000
#05110:41
#05016:00000014
#0501b:0013000013000000
#05012:0013
#05015:0000001300000000
#05018:00130000
#03115:13
#03114:00000013
#03116:00130000
#0311b:13
#03119:0013
#02915:13130000
#02917:0000000000000013
#02919:0013
#0291b:13
#02912:00000013
#01412:0013
#01416:00130000
#01417:1313
#0141b:0000130000000013
#05616:0000001300000000
#0561b:0000001300000000
#05517:1300000000000013
#05512:1300000000001313
#0551b:0000001313000000
#0531b:1300000000001313
#05312:0000001313000000
#05316:13
#05216:0012
#05218:00120000
#0521a:12
#05214:00000012
#0521b:0000000000000013
#04616:2214
#04615:0000001400000000
#04612:001a000000001400
#0461a:00141400
#04619:14
#0411a:00000014000000001400000000001400
#04112:24000000000014000000001400000000
#04115:0014
#04116:14
#0451a:24000000000014000000001400000000
#04512:00000014000000001400000000001400
#04517:0014
#04516:14
#04510:41
#04216:0014
#04217:0000001400000000
#04212:00141400
#04213:14
#0421a:00000014
#04214:001a000000000000
#04218:22
#03412:0016000013001300
#03418:0000130000160000
#03415:0000001300000000
#0341a:0022
#03414:22
#03712:1300001313000000
#0371b:1300000000000013
#03716:00000013
#03717:00130000
#03618:0000001300000013
#03612:0013000000000000
#0361b:0013
#03615:00130013
#05416:0013
#05419:00000013
#05414:00000013
#0541b:0013
#05418:0000001300000000
#05415:00130000
#05412:0013000000000000
#03317:00000013
#03316:00130000
#0331b:2300001313000000
#03312:1300000000000013
#03310:41
#0251b:1313
#02517:00000000000013000000001300000000
#02516:00000013000000001300000000000000
#02512:1300000000000013
#02018:0000000000000013
#02015:00000013
#02017:13
#02012:13
#02616:0000001300001300
#0261b:13131300
#02612:13
#02217:0000001300001300
#02212:13131300
#0221b:13
#02210:41
#02116:00000000000013000000001300000000
#02112:2313
#02117:00000013000000001300000000000000
#0211b:1300000000000013
#0211f:21
#01919:0013
#01916:13
#0191b:13
#01912:0000000000000013
#01914:0000001313000000
#01714:0013
#01717:13
#01712:13
#0171b:0000000000000013
#01719:0000001313000000
#01816:1300000000000013
#0181b:13
#01115:13
#0111b:00130000
#01112:0013
#01118:00000013
#01217:0013
#01219:00130000
#01212:0000000013000013
#01214:00130000
#01216:13
#01016:0013
#01014:00130000
#01018:0000000000000013
#0101b:0013
#01019:00130000
#01017:13
#00915:13001313
#00918:0013000000130000
#0091b:00130000
#00910:41
#00018:0000000000000012
#06019:00120000
#06017:0012
#06015:12
#05917:00120012
#0591b:0012
#05913:12
#0051a:00120000
#00516:12000012
#0051c:12
#00518:0012
#0011a:12000012
#00118:0012
#00116:00120000
#00114:12
#05714:00120000
#05718:00000012
#05716:0012
#0581c:00120000
#05816:00000012
#05819:0012
#0581a:12
#03957:1323
#0395b:0000630000000013
#03952:5323
#03956:0000630000000063
#04756:1400540024000014
#04752:0000540000000054
#0475a:6424
#0275b:0000000000000013
#02759:63
#02752:00530000
#02757:00530000
#02756:0000000000000063
#02352:0000000000000013
#02354:53
#0235b:00630000
#02356:00630000
#02357:0000000000000053
#04656:22001414
#04652:006a000000005400
#0465a:0064
#04659:14
#04356:1400640024000014
#0435a:0000640000000064
#04352:5424
#04256:00001414
#04258:52
#04253:14
#0425a:00000064
#04252:0054
#04254:002a000000000000
#03556:1323
#03552:0000530000000013
#0355b:6323
#03557:0000530000000053
#03852:33000000000000000026000000000000
#03854:0062
#0385a:52
#0385b:00004363
#03853:0000000000000000000000000000000000000000006400000000000000000000
#03859:0000000000540000000000000000000000000000000000000000000000000000
#03858:00260000000000000000000000000000
#0375b:6343
#03752:3353
#03756:00000023
#03757:00230000
#05752:13
#05757:13
#0345b:43
#0345a:0022
#03454:22
#03452:0066000033005300
#03458:0000000000560000
#03352:5333
#0335b:4363
#03357:00000023
#03356:00230000
#0495a:14640000
#04956:0000000000000063
#04952:5453
#04856:24000014
#04852:0014
#0455a:14000000000000000000002400000000
#04552:00000024000000001400000000000000
#04557:0054
#04556:64
#02152:1353
#02156:00000000000000000000002300000000
#02157:00000023000000001300000000000000
#0215b:63
#04152:14000000000000000000002400000000
#0415a:00000024000000001400000000000000
#04155:0064
#04156:54
#01557:00000053
#0155b:0063
#01556:00630000
#01552:53
#01356:00000063
#01352:0053
#01357:00530000
#0135b:63
#04456:24
#0445a:0014
#0165b:0063
#05656:0000002300000000
#0565b:0000002300000000
#05557:0000000000000053
#05552:5300000000000053
#0555b:0063
#0535b:6300000000000063
#05352:0053
#05159:0062
#0515a:63
#05154:00530000
#03156:00630000
#0315b:63
#03159:0063
#02955:00630000
#02959:0063
#0295b:63
#0255b:1363
#02557:00000000000000000000002300000000
#02556:00000023000000001300000000000000
#02552:53
#02652:53
#02656:00000063
#0265b:0063
#0225b:63
#02257:00000053
#02252:0053
#01155:63
#0115b:00630000
#01152:0053
#01158:00000053
#00955:00000063
#0095b:00630000
#0093b0:00130000
#009380:0023
#009350:00000013
#010320:23
#011350:13
#011320:00230000
#0113b1:00130000
#011381:0023
#011320:0013
#011350:00000023
#011381:00000013
#0123b1:23
#0133b1:1323
#013371:00530000
#013320:0013
#013360:00000053
#014320:23
#015320:1323
#015360:00530000
#0153b1:0013
#015371:00000053
#0163b1:23
#0163b1:0013
#016371:00000023
#0213b1:1300002300000000
#021371:00000053000000000000000000000000
#021321:0000000013000023
#021361:00000000000000000000005300000000
#0223b1:13
#022371:00230000
#022321:0013
#022341:00000023
#022370:00000013
#023390:23
#023341:1300003300000000
#023361:00330000
#023321:0000000033333323
#0233b0:00130000
#023390:0000003300000000
#023370:0000000033333333
#0243b0:0023000000000000
#025320:1300002300000000
#025360:00000053000000000000000000000000
#0253b0:0000000013000023
#025370:00000000000000000000005300000000
#026320:13
#026360:00230000
#0263b0:0013
#026390:00000023
#026361:00000013
#027341:23
#027390:1300003300000000
#027370:00330000
#0273b0:0000000033333323
#027321:00130000
#027341:0000003300000000
#027361:0000000033333333
#028321:0023000000000000
#0293b1:13
#029391:00230000
#029350:00130000
#029330:0023
#029391:0013
#029371:00000023
#0313b1:13
#0313a1:00230000
#031360:00130000
#031350:0023
#031391:0013
#031381:00000023
#033321:1323
#033361:00530000
#0333b0:0013
#033370:00000053
#0343b0:23
#034341:12220000
#034321:0056000000000000
#0343a1:00001222
#034381:0000000000560000
#034320:00000013
#035360:23
#0353b1:1333
#035371:0000330000003333
#035391:0000003300330000
#0363b1:0023000000000000
#035320:0000130000003323
#035340:0000003300330000
#035360:0033
#0373b1:1323
#037371:00530000
#037320:0013
#037360:00000053
#038320:23
#0383a1:12220000
#038381:00560000000000000000000000000000
#038391:0000000000540000000000000000000000000000000000000000000000000000
#038341:00001222
#038321:00000000000000000056000000000000
#038331:0000000000000000000000000000000000000000005400000000000000000000
#0383b0:00000013
#039370:23
#039321:1333
#039361:0000330000003333
#039341:0000003300330000
#040321:0023000000000000
#0393b0:0000130000003323
#039390:0000003300330000
#039370:0033
#041361:14
#0413a1:00000054000000000000000000000000
#041371:0000002400000000
#041351:0014
#041321:00000000000000000000005400000000
#041361:0000000000000024
#042381:12220000
#042341:005a000000000000
#042321:0014
#042361:00000024
#0423a0:00000014
#043360:24
#043321:1434
#043361:0000340000003424
#043341:0000003400340000
#0433a0:0000140000003434
#043380:0000003400340000
#043360:0034
#044360:54
#0443a0:0024000000000000
#045360:14
#045320:00000054000000000000000000000000
#045350:0000002400000000
#045370:0014
#0453a0:00000000000000000000005400000000
#045360:0000000000000024
#046360:12220000
#046320:005a000000000000
#0463a0:0014
#046360:00000024
#046321:00000014
#047361:24
#0473a0:1434
#047360:0000340000003424
#047380:0000003400340000
#047321:0000140000003434
#047341:0000003400340000
#047361:0034
#048361:54
#048321:0024000000000000
#049321:14
#049361:00240000
#0493a0:00140000
#049370:0023
#049321:0013
#049361:00000023
#049361:0000000000000013
#050321:0023000000000000
#0513a1:13
#051381:00230000
#051340:00130000
#051360:0022
#051391:0012
#051381:00000022
#0533b1:13
#053371:0023
#053320:0013
#053360:0000000000000023
#0533b1:0000000000000013
#054371:0023000000000000
#055321:13
#055361:0023
#0553b0:0013
#055370:0000000000000033
#0563b0:0000005300000000
#056370:0000000000000033
#057370:23
#055321:0000000000000013
#056361:0000005300000000
#056321:0000000000000033
#057321:23
#059930:120000000000000000000000000000000000000000000000000000000000000000000000000000000000000000000000000000000000000000000000000000000000000000000000000000000000000000000000000000000000000000000000000000000000000000000000000000000000000000000000000000000000000000000000000000000000000000000000000000000000000000000000000000000000000000000000000000000000000000000000000000000000000000000000000000000000000000000000000000000000000000000000000000000000000000000000000000000000000000000000000000000000000000000000000000000000000000000000000000000000000000000000000000000000000000000000000000000000000000000000000000000000000000000000000000000000000000000000000000000000000000000000000000000000000000000000000000000000000000000000000000000000000000000000000000000000000000000000000000000000000000000000000000000000000000000000000000000000000000000000000000000000000000000000000000000000000000000000000000000000000000000000000000000000000000000000000000000000000000000000000000000000000000000000000000000000000000000000000000000000000000000000000000000000000000000000000000000000000000000000000000000000000000000000000000000000000000000000000000000000000000000000000000000000000000000000000000000000000000000000000000000000000000000000000000000000000000000000000000000000000000000000000000000000000000000000000000000000000000000000000000000000000000000000000000000000000000000000000000000000000000000000000000000000000000000000000000000000000000000000000000000000000000000000000000000000000000000000000000000000000000000000000000000000000000000000000000000000000000000000000000000000000000000000000000000000000000000000000000000000000000000000000000000000000000000000000000000000000000000000000000000000000000000000000000000000000000000000000000000000000000000000000000000000000000000000000000000000000000000000000000000000000000000000000000000000000000000000000000000000000000000000000000000000000000000000000000000000000000000052220000000000000000000000000000000000000000000000000000000000000000000000000000000000000000000000000000000000000000000000000000000000000000000000000000000000000000000000000000000000000000000000000000000000000000000000000000000000000000000000000000000000000000000000000000000000000000000000000000000000000000000000000000000000000000000000000000000000000000000000000000000000000000000000000000000000000000000000000000000000000000000000000000000000000000000000000000000000000000000000000000000000000000000000000000000000000000000000000000000000000000000000000000000000000000000000000000000000000000000000000000000000000000000000000000000000000000000000000000000000000000000000000000000000000000000000000000000000000000000000000000000000000000000000000000000000000000000000000000000000000000000000000000000000000000000000000000000000000000000000000000000000000000000000000000000000000000000000000000000000000000000000000000000000000000000000000000000000000000000000000000000000000000000000000000000000000000000000000000000000000000000000000000000000000000000000000000000000000000000000000000000000000000000000000000000000000000000000000000000000000000000000000000000000000000000000000000000000000000000000000000000000000000000000000000000000000000000000000000000000000000000000000000000000000000000000000000000000000000000000000000000000000000000000000000000000000000000000000000000000000000000000000000000000000000000000000000000000000000000000000000000000000000000000000000000000000000000000000000000000000000000000000000000000000000000000000000000000000000000000000000000000000000000000000000000000000000000000000000000000000000000000000000000000000000000000000000000000000000000000000000000000000000000000000000000000000000000000000000000000000000000000000000000000000000000000000000000000000000000000000000000000000000000000000000000000000000000000000000000000000000000000000000000000000000000000000000000000000000000000
#0599b1:000000000000000000000000000000000000000000000000000000000000000000000000000000000000000000000000000000000000000000000000000000000000000000000000000000000000000000000000000000000000000000000000000000000000000000000000000000000000000000000000000000000000000000000000000000000000000000000000000000000000000000000000000000000000000000000000000000000000000000000000000000000000000000000000000000000000000000000000000000000000000000000000000000000000000000000000000000000000000000000000000000000000000000000000000000000000000000000000000000000000000000000000000000000000000000000000000000000000000000000000000000000000000000000000000000000000000000000000000000000000000000000000000000000000000000000000000000000000000000000000000000000000000000000000000000000000000000000000000000000000000000000000000000000000000000000000000000000000000000000000000000000000000000000000000000000000000000000000000000000000000000000000000000000000000000000000000000000000000000000000000000000000000000000000000000000000000000000000000000000000000000000000000000000000000000000000000000000000000000000000000000000000000000000000000000000000000000000000000000000000000000000000000000000000000000000000000000000000000000000000000000000000000000000000000000000000000000000000000000000000000000000000000000000000000000000000000000000000000000000000000000000000000000000000000000000000000000000000000000000000000000000000000000000000000000000000000000000000000000000000000000000000000000000000000000000000000000000000000000000000000000000000000000000000000000000000000000000000000000000000000000000000000000000000000000000000000000000000000000000000000000000000000000000000000000000000000000000000000000000000000000000000000000000000000000000000000000000000000000000000000000000000000000000000000000000000000000000000000000000000000000000000000000000000000000000000000000000000000000000000000000000000000000000000000000000000000000000000000000000000120000000000000000000000000000000000000000000000000000000000000000000000000000000000000000000000000000000000000000000000000000000000000000000000000000000000000000000000000000000000000000000000000000000000000000000000000000000000000000000000000000000000000000000000000000000000000000000000000000000000000000000000000000000000000000000000000000000000000000000000000000000000000000000000000000000000000000000000000000000000000000000000000000000000000000000000000000000000000000000000000000000000000000000000000000000000000000000000000000000000000000000000000000000000000000000000000000000000000000000000000000000000000000000000000000000000000000000000000000000000000000000000000000000000000000000000000000000000000000000000000000000000000000000000000000000000000000000000000000000000000000000000000000000000000000000000000000000000000000000000000000000000000000000000000000000000000000000000000000000000000000000000000000000000000000000000000000000000000000000000000000000000000000000000000000000000000000000000000000000000000000000000000000000000000000000000000000000000000000000000000000000000000000000000000000000000000000000000000000000000000000000000000000000000000000000000000000000000000000000000000000000000000000000000000000000000000000000000000000000000000000000000000000000000000000000000000000000000000000000000000000000000000000000000000000000000000000000000000000000000000000000000000000000000000000000000000000000000000000000000000000000000000000000000000000000000000000000000000000000000000000000000000000000000000000000000000000000000000000000000000000000000000000000000000000000000000000000000000000000000000000000000000000000000000000000000000000000000000000000000000000000000000000000000000000000000000000000000000000000000000000000000000000000000000000000000000000000000000000000000000000000000000000000000000000000000000000000000000000000000000000000000000000000000000000000000000000000000000000000052
#0609b1:22
#060971:0012
#062971:0022
