This file was generated by Ched 2.7.0.0.
#TITLE ""
#ARTIST ""
#DESIGNER ""
#DIFFICULTY 0
#PLAYLEVEL
#SONGID ""
#WAVE ""
#WAVEOFFSET 0
#JACKET ""
#REQUEST "ticks_per_beat 480"
#00002: 4
#BPM01: 196
#00008: 01
#TIL00: ""
#VOLUME: ""
#HISPEED 00
#MEASUREHS 00
#0011a:14
#00314:14
#00518:14
#00712:14
#0091a:14
#00910:41
#01014:14
#01118:14
#01212:14
#0131a:14
#01414:14
#01518:14
#01612:14
#0251a:14
#02714:14
#02918:14
#02910:41
#03112:14
#03912:16
#03910:41
#04217:15
#04219:00353535
#04119:15353535
#04412:15
#04614:15
#04612:00353535
#04512:15353535
#05019:15
#05017:00353535
#04917:15353535
#04910:41
#05214:15
#05412:15
#05414:00353535
#05314:15353535
#05619:15
#06414:14
#06518:14
#06718:0016
#06712:26
#0671f:21
#06812:16
#06818:0016
#06810:41
#07018:0016
#07218:16
#07212:0016
#07518:1616
#07618:1616
#07712:1616
#07812:1616
#07918:16
#08016:16
#08112:0016
#08218:16
#08212:0016
#08318:16
#08310:41
#08418:16
#08512:16
#08612:16
#08718:16
#08818:16
#08912:16
#09012:16
#09118:16
#09312:16
#0571f:11
#04159:55
#04257:25
#04654:25
#04552:65
#05059:25
#04957:65
#05452:25
#05354:55
#08056:26
#07958:56
#09158:56
#09352:66
#0173a0:14343434
#0183a0:24
#019320:14343434
#020320:24
#021380:14343434
#022380:24
#023340:14343434
#024340:24
#033390:15000035000035003500000000000000
#033370:00000000000000000000000035000035
#034370:0035250000000000
#035320:15000035000035003500000000000000
#035340:00000000000000000000000035000035
#036340:0035250000000000
#037370:15000035000035003500000000000000
#037390:00000000000000000000000035000035
#038390:0035250000000000
#041390:15353535
#042370:35
#042390:00353535
#043390:25
#045320:15353535
#046340:35
#046320:00353535
#047320:25
#049370:15353535
#050390:35
#050370:00353535
#051370:25
#053340:15353535
#054320:35
#054340:00353535
#055340:25
#0573a0:14
#0583a0:24
#059340:14
#060340:24
#061380:14
#063380:24
#069320:1636
#070320:26
#071320:1626
#073380:1626
#074320:1626
#079380:16
#080360:36
#081380:26
#091380:16
#092360:0026
#093320:16
#094340:0026
#095380:16
#096390:24
