This file was generated by Ched 2.7.0.0.
#TITLE ""
#ARTIST ""
#DESIGNER ""
#DIFFICULTY 0
#PLAYLEVEL
#SONGID ""
#WAVE ""
#WAVEOFFSET 0
#JACKET ""
#REQUEST "ticks_per_beat 480"
#00002: 4
#BPM01: 196
#00008: 01
#TIL00: ""
#VOLUME: ""
#HISPEED 00
#MEASUREHS 00
#0091b:23000013
#00915:00130000
#00918:0013
#00912:23
#00910:41
#01615:0013
#01618:00000013
#02815:0013000000000000
#02915:0000001300000000
#02918:0000000000130000
#02912:0000000000000013
#02910:41
#0301b:0013000000000013
#03012:00000013
#03018:0000000000130000
#03015:00230000
#03115:1300000000000013
#03118:0000000000130000
#03415:00000013
#0341b:0000000000000013
#03412:0013
#03418:0000000000130000
#04016:00000014
#0401a:0024
#04118:00130000
#04115:0013
#04112:00000013
#0421b:13
#04218:00130013
#04215:0013
#04315:00130013
#04318:0013
#0431b:13
#04312:13
#04418:00130013
#04415:0013
#04412:13
#0441b:13
#0451b:13
#04512:14000000340000003400003400003400
#0491b:0013000000000013
#04915:00130013
#04918:0013
#04910:41
#05012:0013
#05018:00000013
#05015:0000000000000013
#05118:00130000
#0511b:0013
#05212:0000001300000000
#05218:0013
#05215:0000000000130013
#0521b:00000013
#05318:00000014
#05415:0013000000000013
#05418:00130000
#05518:13
#0551b:00130000
#0621b:0013
#06615:0013
#06618:00000013
#0661b:00130000
#06918:00000013
#06915:1300000000000013
#07315:1300000000000013
#07318:00130000
#07312:0000001300000000
#0731b:00000013
#07418:0013000000001300
#07415:0013
#07512:14
#07518:00140000
#07514:0014
#0751a:00000014
#07818:0000001300000000
#0781b:00000013
#07815:0013
#07918:0013000000000013
#07915:00000013
#08018:0000000000000013
#08015:0000001300000000
#08115:1300001300000000
#08118:00130000
#0851a:00000014
#08512:2400000000000024
#08616:00000000001400000000000000000000
#0871b:13
#08715:00130000
#08718:0000000013000013
#08712:00000013
#09015:00000013
#09018:0000000000000013
#0901a:14
#09118:00130024
#09115:0000000000000013
#09112:24
#09114:0000002400000000
#09515:13
#00318:0000000000130000
#00315:1300000000000013
#00115:0000000000130000
#00118:0000000000000013
#00212:0013000000000000
#00218:00000013
#0041b:00130000
#00418:0013
#00415:00000013
#00515:0000000000130000
#0051b:0000000000000013
#00615:0013
#00618:00000013
#00815:0013
#00818:00000013
#01015:13
#0101b:00130000
#01018:0013
#01012:00000000000000000000000000333333
#01115:00130000
#01118:0013
#0111b:00000013
#01212:13
#0121b:00130000
#01218:0013
#01215:00000013
#01312:13000013
#0131b:13
#01318:00130000
#01315:0013
#01418:13000013
#01412:00130000
#01415:0013
#0151b:1300000000000013
#01515:00130000
#01518:0000001300000000
#01712:13
#01718:0000000000130000
#01715:00000013
#0171b:0000000000000013
#01815:0000000000130013
#01818:00000013
#01918:0000001300000013
#01912:0013
#02015:0000001300001300
#02018:0000000000130000
#0201b:0000000000000013
#02112:13
#02118:00000013
#02115:0000000000000013
#02218:0000001300000000
#02312:14
#0461a:14000000340000003400003400003400
#04812:00000014
#05615:13
#05612:00130000
#05715:0000000000000013
#0571f:11
#0571b:23
#0581b:13
#05815:00130000
#05818:0013
#05812:00000013
#05918:13
#0591b:0013
#06015:13
#06018:00000013
#06115:13
#06112:00130000
#06718:0013
#0671b:23
#06712:23
#0671f:21
#06812:13
#06818:0013
#06810:41
#07115:0000001300000000
#07113:00000000000000000013000000000000
#07618:0013
#07615:00000013
#0771a:14
#07714:00140000
#07718:0014
#07712:00000014
#08216:0014
#08212:00000024
#08916:0014
#0891a:24
#09218:00130000
#09215:0000001300000000
#0921a:00000014
#09212:0000000000000014
#09316:00000000000000000000001400000000
#09418:00000013
#00712:13
#0841a:00240000
#08414:0024
#08418:00000024
#08812:00240000
#08818:0024
#08814:00000024
#02514:0000000024000024
#02518:00000000000000000000002400000000
#0251b:00333333000000000000000000000000
#03518:00000024
#03514:24
#03612:0024
#03718:00000024
#06513:24
#02718:24
#02714:0000002400000000
#0271a:00000024
#03312:24
#0331a:00000024
#0701b:00230000
#07015:0023
#07018:00000023
#0721b:0000002300000023
#07215:0023
#07218:0000000000230000
#07212:00000023
#02615:00000000000000000033333300333333
#0261b:00000033333333330000000000000000
#03910:41
#08310:41
#09612:53
#02416:54
#03155:5300000000000013
#03158:0000000000130000
#03152:0000001300000000
#04056:00000024
#0405a:0054
#0495b:0000000000000063
#05158:00530000
#0515b:0023
#05358:00000014
#05458:00530000
#0555b:00230000
#05558:5313
#0625b:0053
#06552:00000016
#06955:5300000000000013
#07355:1300000000000013
#07352:0000001300000000
#07458:0013000000000000
#07552:14
#07558:00140000
#07554:0014
#0755a:00000014
#0785b:00000063
#07958:0023000000000063
#08155:0000005300000000
#08656:00000000002400000000000000000000
#08758:0000000000000013
#09555:63
#01558:0000005300000000
#0155b:0000000000000053
#01752:53
#0175b:0000000000000053
#01855:0000000000000053
#01952:0023
#01958:0000000000000053
#02152:53
#02155:0000000000000053
#02258:0000006300000000
#02352:54
#03354:0014
#03458:00140000
#03552:0014
#0365a:00140000
#03754:0014
#0385a:00140000
#04552:54
#0465a:64
#04852:00000054
#05655:6313
#05652:00230000
#05958:53
#0595b:0053
#06055:53
#06155:5313
#06152:00230000
#06752:53
#06758:0053
#06852:53
#06858:0053
#07155:0000005300001300
#07153:00000000000000000023000000000000
#0775a:14
#07754:00140000
#07758:0014
#07752:00000014
#08055:0000005300000000
#08956:0054
#0895a:54
#0905a:24
#09356:00000000000000000000002400000000
#09252:0000000000000054
#00355:53
#00752:63
#08252:00000054
#0575b:53
#08552:5400000000000054
#001380:13230000
#003350:13
#003320:0000002300000000
#005380:1300332300000000
#007320:13
#007350:0000002300000000
#007380:0000000000000013
#008380:00230000
#010350:00000013
#010320:00000000000000000000000000333333
#011320:23
#015380:0000001300000000
#0153b0:0000000000003333
#016380:0033230000000000
#017320:13
#017350:0023
#0173b0:0000000000000013
#018380:0023
#018350:0000000000000013
#019320:00230000
#019320:0013
#019350:00000023
#019380:0000000000000013
#0203b0:00230000
#021320:13
#021350:0023
#021350:0000000000000013
#022320:00230000
#022380:0000001300000000
#0223b0:00000023
#023320:14
#024360:24
#0253b0:13333333000000000000000000000000
#025380:00332300
#0263b0:00001333333333330000000000000000
#026380:0023
#026351:00000000000000001333333300333333
#026321:00000033
#027351:23
#027380:14240000
#027340:0000001400240000
#0273a0:00000014
#0283a0:24
#028380:00130033
#0283b0:0033
#0293b0:3323000000000000
#030350:0000133323000000
#030340:00000000003300000000000000000000
#031350:13
#031320:0000332300000000
#032380:00132300
#032351:00001323
#032380:00000013
#033380:23
#033321:14
#033331:00000034000000000000000000000000
#033341:0000003424000000
#0333a1:00000014
#033391:00000000000000000000000000000034
#034381:0034240000000000
#035341:14
#035331:00000034000000000000000000000000
#035321:0000003424000000
#035381:00000014
#035391:00000000000000000000000000000034
#0363a1:0034240000000000
#036321:0014
#036331:00000000000000000000003400000000
#036341:0000000000000034
#037321:34
#037331:00000034000000000000000000000000
#037341:0000003424000000
#037381:00000014
#037391:00000000000000000000000000000034
#0383a1:0034240000000000
#038351:00001323
#038380:00000013
#039380:23
#039351:1300002300000000
#039321:00000033000000000000000000000000
#039381:00000014
#040381:24
#040341:0014002400000000
#0403a1:0014
#040361:00000054
#0413a1:24
#045321:14000000340000003400003400003400
#046361:24
#0463a0:14000000340000003400003400003400
#047360:24
#047321:14240000
#0473a1:0000001400240000
#047341:00000014
#048341:24
#048381:0014002400000000
#048321:00000000000000001434343434000000
#049361:24
#0493b1:0000000000000013
#050381:00230000
#051381:00130023
#0513b1:0053
#053381:14240000
#053341:0000001400240000
#054381:00130000
#0543b1:00000023
#055381:1323
#0553b1:00530000
#056351:1323
#056321:00530000
#0573b1:13
#057381:0023
#059381:13
#0593b1:0033
#060381:23
#060350:13
#060320:0023
#061350:1323
#061320:00530000
#0623b0:0013
#062380:0000000000000033
#063380:23
#063351:1323
#0633b0:0013
#0643b0:23
#064321:1323
#064380:0013
#065380:23
#065331:14
#065321:00000026
#067321:13
#067351:0023
#067380:0013
#0683b0:23
#068321:13
#068351:0023
#068380:0013
#0693b0:23
#069351:13
#069321:0000000000230000
#071321:13
#071351:0000003300002300
#071331:00000000000000000053000000000000
#0783b1:00000013
#079381:0053000000000000
#0793b1:0023
#079381:0000000000000013
#0803b1:00230000
#080351:0000001300000000
#080321:00000023
#081351:0000001300000000
#081321:00000023
#0813a1:0000000000000014
#0823a1:00240000
#082321:00000014
#084361:24
#085321:14
#085361:0000003424000000
#085321:0000000000000014
#086361:00000000005400000000000000000000
#086321:00000024
#0893a1:14
#089361:0000003434000000
#0903a1:54
#090361:0024
#092321:0000000000000014
#093361:00000000000000000000005400000000
#094321:0024
#095351:13
#096321:23
