This file was generated by Ched 2.7.0.0.
#TITLE ""
#ARTIST ""
#DESIGNER ""
#DIFFICULTY 0
#PLAYLEVEL
#SONGID ""
#WAVE ""
#WAVEOFFSET 0
#JACKET ""
#REQUEST "ticks_per_beat 480"
#00002: 4
#BPM01: 196
#00008: 01
#TIL00: ""
#VOLUME: ""
#HISPEED 00
#MEASUREHS 00
#00217:0012000000001200
#00213:0012000000000000
#00313:0000121200000012
#0031b:0000000000120000
#00317:1252521200120012
#00318:00520052000000000000000000000000
#00416:00120000
#00517:0000121200120000
#00513:0000000000000012
#0051b:0000000000120000
#00519:00000012
#00615:00000012
#0061b:0012
#00613:0012
#00619:00000052000000000000000012000000
#00617:0052000000000000
#00618:0000000000520000000000000000000000000000000000000000000000000000
#00816:00001212
#00818:00000012
#01015:00001313
#01013:0013000000000000
#0101b:23131313
#01019:00000000000000000000000000530053
#01017:0000000000000053
#00917:0000001300000013
#00913:1300000000130000
#0091b:23131313
#00910:41
#0111a:0000001300000013
#01116:0013000000130000
#01112:23131313
#0111b:53
#01216:0013000014001400
#0121a:00130000
#01212:23131313
#01416:00001400000000120012000000001200
#01418:0000001200121200
#0141a:1313
#01413:00130013
#02812:1813160000130000
#02816:00000014000000000000000000000000
#02818:0000001316000013
#02815:00000016
#0291a:0000141400000000
#02916:00000000001400140000000000000000
#02918:16
#02912:0016000000000000
#02910:41
#03112:13000000001300130000000000001300
#0311b:0000130013130000
#03116:00000014000014000000140014001400
#0311a:24
#03216:0014001400000000
#0321b:00130000
#03212:00130000
#03218:0013
#03215:0000000000141300
#03217:0000000000000014
#03416:0000000012120000
#03418:00001300260000000012000000001300
#03412:00000000000000000054000000000000000000000000000000000000000000000000000000000000000000000000000014000000000000000000000000000000
#0341a:00000014
#03414:0024000000000000
#03812:0024000013001400
#03815:00000000000000000013000000000000
#03818:0000260000130000
#0381b:00001300000000000000001300000000
#03814:00000000000000000054000000000000000000000000000000000000000000000000000000000000000000000000000000000000000000000000000000000000
#03816:0000000000540000000000000000000000000000000000000000000000000000
#04814:00140000000000001200120000000000
#04817:00000000000000000012001200000000
#0481a:5414000000000000
#04815:3434000000000000
#04812:0000005400000000
#06213:0014000000000000
#06217:0000000000000013
#06214:00140000
#06215:0000001400000000
#06216:0014
#0621b:0012000000000000
#0681a:24140000
#06812:00130014
#06816:140000000000000000000000000000000000000000000000000000000000000000000000000000000000000000000000000000000000000000000000000000000000000000000000000000000000000000000000000000000000000000000000000000000000000000000000000000000000000000000000000000000000000000000000000000000000000000000000000000000000000000000000000000000000000000000000000000000000000000000000000000000000000000000000000000000000000000000000000000000000000000000000000000000000000000000000000000000000000000000000000000000000000000000000000000000000000000000000000000000000000000000000000000000000000000000000000000000000000000000000000000000000000000000000000000000000000000000000000000000000000000000000000000000000000000000000000000000000000000000000000000000000000000000000000000000000000000000000000000000000000000000000000000000000000000000000000000000000000000000000000000000000000000000000000000000000000000000000000000000000000000000000000000000000000000000000000000000000000000000000000000000000000000000000000000000000000000000000000000000000000000000000000000000000000000000000000000000000000000000000000000000000000000000000000000000000000000000000000000000000000000000000000000000000000000000000000000000000000000000000000000000000000000000000000000000000000000000000000000000000000000000000000000000000000000000000000000000000000000000000000000000000000000000000000000000000000000000000000000000000000000000000000000000000000000000000000000000000000000000000000000000000000000000000000000000000000000000000000000000000000000000000000000000000000000000000000000000000000000000000000000000000000000000000000000000000000000000000000000000000000000000000000000000000000000000000000000000000000000000000000000000000000000000000000000000000000000000000000000000000000000000000000000000000000000000000000000000000000000000000000000000000000000000000000000000000000000000000000000000000000000000000000000000000000000000000000000000000000000007400007400000000000000000000000000000000000000000000000000000000000000000000000000000000000000000000000000000000000000000000000000000000000000000000000000000000000000000000000000000000000000000000000000000000000000000000000000000000000000000000000000000000000000000000000000000000000000000000000000000000000000000000000000000000000000000000000000000000000000000000000000000000000000000000000000000000000000000000000000000000000000000000000000000000000000000000000000000000000000000000000000000000000000000000000000000000000000000000000000000000000000000000000000000000000000000000000000000000000000000000000000000000000000000000000000000000000000000000000000000000000000000000000000000000000000000000000000000000000000000000000000000000000000000000000000000000000000000000000000000000000000000000000000000000000000000000000000000000000000000000000000000000000000000000000000000000000000000000000000000000000000000000000000000000000000000000000000000000000000000000000000000000000000000000000000000000000000000000000000000000000000000000000000000000000000000000000000000000000000000000000000000000000000000000000000000000000000000000000000000000000000000000000000000000000000000000000000000000000000000000000000000000000000000000000000000000000000000000000000000000000000000000000000000000000000000000000000000000000000000000000000000000000000000000000000000000000000000000000000000000000000000000000000000000000000000000000000000000000000000000000000000000000000000000000000000000000000000000000000000000000000000000000000000000000000000000000000000000000000000000000000000000000000000000000000000000000000000000000000000000000000000000000000000000000000000000000000000000000000000000000000000000000000000000000000000000000000000000000000000000000000000000000000000000000000000000000000000000000000000000000000000000000000000000000000000000000000000000000000000000000000000000000000000000000000000000000000000000000000000000
#0681b:00000013
#06810:41
#06815:0066
#0731a:2400000000001414
#07312:2800142400000028
#07316:0000002800000000
#07412:00001400000000000000001300000000
#07416:1428140000000000
#0741b:0013
#07418:00000000000000000013000000000000
#07415:0000000000130000
#0741a:00000014
#07619:1300000000130000
#07616:0014
#07614:1300000000130000
#0761a:00140014
#07612:00140014
#07816:0000001300140000
#07812:14141414
#07817:0013000000000000
#0781a:14141400
#07916:0000000000001414
#07917:13
#0791b:0000131300000023
#07912:14000023
#0801a:00000000000000000014000000000000
#08014:0000000000000014
#08015:0013230000000000
#08018:00000013000000000000000000000000
#08016:0000001400000000
#08012:0000002300001400
#08418:14
#08416:00142414
#08412:0000001400002400
#0841a:0000240000140000
#08516:00140014
#08512:14141424
#08514:0000000000140000
#08518:0000000000000014
#0851a:2400003400000000
#08617:0000001400000000
#0861a:14141414
#08612:24
#09016:0013
#09015:0014000000000016
#09012:13
#09014:00130013
#09019:00130013
#09017:0000001400140000
#0901b:0013
#0911b:1300000000000013
#09115:00130000
#09112:2600001300002600
#09118:0000002600130000
#09214:00000000005300000000000000001300
#09212:00130000
#0921b:0000005300001300
#09219:00000000005300000000000000001300
#09216:0000005300000000
#09217:00530000
#09316:0000142400142400
#0931a:14
#09312:24
#0941a:14001214
#09416:00001400000014000012001200001400
#09418:0000000000120000
#09412:00140014
#09512:14
#0951a:14
#09516:000000000000000000000000000000000000000000000000000000000000000000000000000000000000000000000000000000000000000000000000000000000000000000000000000000000000000000000000000000000000000000000000000000000000000000000000000000000000000000000000000000000000000000000000000000000000000000000000000000000000000000000000000000000000000000000000000000000000000000000000000000000000000000000000000000000000000000000000000000000000000000000000000000000000000000000000000000000000000000000000000000000000000000000000000000000000000000000000000000000000000000000000000000000000000000000000000000000000000000000000000000000000000000000000000000000000000000000000000000000000000000000000000000000000000000000000000000000000000000000000000000000000000000000000000000000000000000000000000000000000000000000000000000000000000000000000000000000000000000000000000000000000000000000000000000000000000000000000000000000000000000000000000000000000000000000000000000000000000000000000000000000000000000000000000000000000000000000000000000000000000000000000000000000000000000000000000000000000000000000000000000000000000000000000000000000000000000000000000000000000000000000000000000000000000000000000000000000000000000000000000000000000000000000000000000000000000000000000000000000000000000000000000000000000000000000000000000000000000000000000000000000000000000000000000000000000000000000000000000000000000000000000000000000000000000000000000000000000000000000000000000000000000000000000000000000000000000000000000000000000000000000000000000000000000000000000000000000000000000000000000000000000000000000000000000000000000000000000000000000000000000000000000000000000000000000000000000000000000000000000000000000000000000000000000000000000000000000000000000000000000000000000000000000000000000000000000000000000000000000000000000000000000000000000000000000000000000000000000000000000000000000000000000000000000000000000000000000000000000000074
#0011b:1200121200000012
#00113:0000000000120000
#00117:1252521200120012
#00116:00520052000000000000000000000000
#00718:00125252
#0071b:0000000000000012
#00719:00000000000000000052005200000000
#0071a:0000000000520000
#0131a:23131313
#01312:1353
#01316:0000005300000000
#01314:00000000000000530000000000000000
#0151a:14000000000000000014000000001400
#01516:0000141400000014
#01512:0000001400001400
#01612:0014140014000000
#0161a:0034000000000000
#0231a:00140000000000000000000000000000
#02313:0014000000000000
#02319:00000014000000000000000000000000
#02314:00140000
#02318:00000000001400000000000000000000
#02315:00000000000014001616161616161616
#02317:00000000000000140000000000000000
#02312:24
#02415:16
#01712:24131313
#0171a:1400340000140014
#01716:00000014
#01812:23131313
#01816:00000014000000000000140000001400
#0181a:0000000000001414
#0191b:23131313
#01912:0000001400000000
#01916:0000000000000014
#0201b:23131313
#02012:0000001400140000
#02016:00000014
#0201a:0000000000000014
#02116:14241424
#02119:0013001300000013
#0211b:00130013
#02114:0000000000130000
#02112:2424
#02216:14241424
#02214:0013001300000013
#02212:00130013
#02219:0000000000130000
#0221a:2424
#02516:00140014000000000000002400000000
#02512:2414000000000024
#0251a:0024
#0261c:0012000000000000
#02616:00000012000000001200001200120000
#0261a:00120012
#02614:00000000001200000012000000000012
#02618:0000001200120012
#02612:00000000000000120000000000000000
#03318:24000013000024000000000013000024
#03315:00000000000013000000000000000013
#03314:00000024000000000000000024000000
#03312:00000000000000000000000000540000000000000000000000000000000000002600000000000000000000000000000000540000000000000000000000000000
#0331a:00540000000000000000000000000000000000000000000000540000000000000000000000000000000000000000000000000000000000000000000000540000
#03516:0000140000002400000014000000140000000000000000000054000000002400
#03514:24000000000000001400000000000000140000000000000024000000000000000000000000000000000000000000000000540000000000000000000000000000
#0351b:00000013
#03512:00000000000000002400000024000013
#03519:0024
#03518:00000000000000000000000000000000000000000000000000000000000000000000000000000000000000000000000000000000000000000000000000540000
#0351a:0000000000000000000000000000000000000000000000000000000000000054
#0361a:0000000014000024
#03612:0024000024000014
#0361b:0013000000000000
#03618:00260000
#03616:0000000000540000000000000000000000000000000024000000000000000000
#03614:00000000000000000054000000000000000000000000000000000000000000000000000000000000000000000000000000000000000000000000000000000000
#04018:00000016
#0401a:0024000000000000
#04012:0024
#04112:00161514
#04116:14
#0421a:14
#04212:13141516
#04216:000000000000000000000000000000000000000000000000000000000000000000000000000000000000000000000000000000000000000000000000000000000000000000000000000000000000000000000000000000000000000000000000000000000000000000000000000000000000000000000000000000000000000000000000000000000000000000000000000000000000000000000000000000000000000000000000000000000000000000000000000000000000000000000000000000000000000000000000000000000000000000000000000000000000000000000000000000000000000000000000000000000000000000000000000000000000000000000000000000000000000000000000000000000000000000000000000000000000000000000000000000000000000000000000000000000000000000000000000000000000000000000000000000000000000000000000000000000000000000000000000000000000000000000000000000000000000000000000000000000000000000000000000000000000000000000000000000000000000000000000000000000000000000000000000000000000000000000000000000000000000000000000000000000000000000000000000000000000000000000000000000000000000000000000000000000000000000000000000000000000000000000000000000000000000000000000000000000000000000000000000000000000000000000000000000000000000000000000000000000000000000000000000000000000000000000000000000000000000000000000000000000000000000000000000000000000000000000000000000000000000000000000000000000000000000000000000000000000000000000000000000000000000000000000000000000000000000000000000000000000000000000000000000000000000000000000000000000000000000000000000000000000000000000000000000000000000000000000000000000000000000000000000000000000000000000000000000000000000000000000000000000000000000000000000000000000000000000000000000000000000000000000000000000000000000000000000000000000000000000000000000000000000000000000000000000000000000000000000000000000000000000000000000000000000000000000000000000000000000000000000000000000000000000000000000000000000000000000000000000000000000000000000000000000000000000000000000000000000000000074
#04318:00160000
#04319:0015
#0431a:00000014
#04314:68
#04316:007400000000000000000000000000000000000000000000000000000000000000000000000000000000000000000000000000000000000000000000000000000000000000000000000000000000000000000000000000000000000000000000000000000000000000000000000000000000000000000000000000000000000000000000000000000000000000000000000000000000000000000000000000000000000000000000000000000000000000000000000000000000000000000000000000000000000000000000000000000000000000000000000000000000000000000000000000000000000000000000000000000000000000000000000000000000000000000000000000000000000000000000000000000000000000000000000000000000000000000000000000000000000000000000000000000000000000000000000000000000000000000000000000000000000000000000000000000000000000000000000000000000000000000000000000000000000000000000000000000000000000000000000000000000000000000000000000000000000000000000000000000000000000000000000000000000000000000000000000000000000000000000000000000000000000000000000000000000000000000000000000000000000000000000000000000000000000000000000000000000000000000000000000000000000000000000000000000000000000000000000000000000000000000000000000000000000000000000000000000000000000000000000000000000000000000000000000000000000000000000000000000000000000000000000000000000000000000000000000000000000000000000000000000000000000000000000000000000000000000000000000000000000000000000000000000000000000000000000000000000000000000000000000000000000000000000000000000000000000000000000000000000000000000000000000000000000000000000000000000000000000000000000000000000000000000000000000000000000000000000000000000000000000000000000000000000000000000000000000000000000000000000000000000000000000000000000000000000000000000000000000000000000000000000000000000000000000000000000000000000000000000000000000000000000000000000000000000000000000000000000000000000000000000000000000000000000000000000000000000000000000000000000000000000000000000000000000000000000000000000000000000000000000000000000000000000000000000000000000000000000000000000000000000000000000000000000000000000000000000000000000000000000000000000000000000000000000000000000000000000000000000000000000000000000000000000000000000000000000000000000000000000000000000000000000000000000000000000000000000000000000000000000000000000000000000000000000000000000000000000000000000000000000000000000000000000000000000000000000000000000000000000000000000000000000000000000000000000000000000000000000000000000000000000000000000000000000000000000000000000000000000000000000000000000000000000000000000000000000000000000000000000000000000000000000000000000000000000000000000000000000000000000000000000000000000000000000000000000000000000000000000000000000000000000000000000000000000000000000000000000000000000000000000000000000000000000000000000000000000000000000000000000000000000000000000000000000000000000000000000000000000000000000000000000000000000000000000000000000000000000000000000000000000000000000000000000000000000000000000000000000000000000000000000000000000000000000000000000000000000000000000000000000000000000000000000000000000000000000000000000000000000000000000000000000000000000000000000000000000000000000000000000000000000000000000000000000000000000000000000000000000000000000000000000000000000000000000000000000000000000000000000000000000000000000000000000000000000000000000000000000000000000000000000000000000000000000000000000000000000000000000000000000000000000000000000000000000000000000000000000000000000000000000000000000000000000000000000000000000000000000000000000000000000000000000000000000000000000000000000000000000000000000000000000000000000000000000000000000000000000000000000000000000000000000000000000000000000000000000000000000000000000000000000000000000000000000000000000000000000000000000000000000000000000000000000000000000000000000000000000000000000000000000000000000000000000000000000000000000000
#0441b:13
#0441a:00140000
#04419:0015
#04418:00000016
#04517:1713
#04512:00000000140000001400001400001400
#04519:00000000000000000000001300000000
#0451b:0000130000000013
#0461b:1313
#04612:14000000140000001400001400001400
#04619:00000000000000000000001300000000
#04617:0000130000000013
#04916:0000140000140014
#04912:00001414
#0491a:0000000000000024
#04910:41
#05016:0014000012001200
#0501a:00120000
#05018:0000001200000012
#05014:0000000000120000
#05012:0024000000000000
#0521b:00000013
#0531a:00140014
#05316:1400002400142400
#05312:24000000000014000000000000000014
#0541a:0014001414000000
#05412:0000001414000000
#05416:00000054
#05512:14141414
#0551a:1400001400000000
#05516:0014
#05615:001600000000
#05616:000000000000001400001400
#0561a:000000000000000014000014
#05612:000000001600240000240000
#05618:26
#05718:0014
#0571c:0012
#0571f:11
#05712:24
#05713:00640000000000000000000000000000000000000000000000000000000000000000000000000000000000000000000000000000000000000000000000000000
#05714:0064000000000000000000000000000000000000000000000000000000000000
#0581a:14
#05814:0014
#05812:0012
#05819:00540000000000000000000000000000000000000000000000000000000000000000000000000000000000000000000000000000000000000000000000000000
#05818:0054000000000000000000000000000000000000000000000000000000000000
#05912:14
#05918:0014
#0591c:0012
#05913:00540000000000000000000000000000000000000000000000000000000000000000000000000000000000000000000000000000000000000000000000000000
#05914:0054000000000000000000000000000000000000000000000000000000000000
#0601a:14
#06016:00000014
#06019:00540000000000000000000000000000000000000000000000000000000000000000000000000000000000000000000000000000000000000000000000000000
#06018:0054000000000000000000000000000000000000000000000000000000000000
#06012:54
#06013:00540000000000000000000000000000000000000000000000000000000000000000000000000000000000000000000000000000000000000000000000000000
#06014:0054000000000000000000000000000000000000000000000000000000000000
#06312:00180000
#0631a:0014
#06316:14001418
#06512:13001313
#0651b:13000000000013000000001300000013
#06515:0013000000130013
#06518:00000000130000000013000000130000
#06615:12
#06617:0012000000000000
#06619:00120000
#06616:000000000000000000000000000000000000000000000000000000000000000000000000000000000000000000000000000000000000000000000000000000000000000000000000000000000000000000000000000000000000000000000000000000000000000000000000000000000000000000000000000000000000000000000000000000000000000000000000120000000000000000000000000000000000000000000000000000000000000000000000000000000000000000000000120000000000000000000000000000000000000000000000000000000000000000000000000000000000000000000000120000000000000000000000000000000000000000000000000000000000000000000000000000000000000000000000147400000000000000000000000000000000000000000000000000000000000000000000000000000000000000000000000000000000000000000000000000000000000000000000000000000000000000000000000000000000000000000000
#06618:00000000000000120012000000000000
#0671a:24141400
#06712:14002414
#06717:00130000
#06716:00000013
#0671f:21
#0691a:00141400
#06916:2400140000140000
#06919:00000013
#06912:1400000000000014
#06914:00000013
#07012:0000000013000000130000000000000000540000000000001300000000000000
#0701b:0013
#07016:00242424
#07018:00000000000000000000000000000000005400000000000000000000000000000000000000000000000000000000000000540000000000000000000000000000
#0701a:0000000000000000005400000000000000000000000000000054000000000000
#07014:00000000000000000000000000000000000000000000000000000000000000000054000000000000000000000000000000000000000000000000000000000000
#0711b:13
#07112:0000141400000014
#07116:24000000000000000014000014000000
#0711a:0000000000140014
#07512:1400000000000000005400000000000014000000000000000054000000000000
#0751a:0054000000000000140000000000000000540000000000001400000000000000
#07518:00540000000000000000000000000000000000000000000000000000000000000054000000000000000000000000000000000000000000000000000000000000
#07514:00000000000000000000000000000000005400000000000000000000000000000000000000000000000000000000000000540000000000000000000000000000
#07716:0000000000000013
#07712:0054000000000000140000000000000000540000000000001400000000000000
#0771a:1400000000000000005400000000000014000000000000000054000000000000
#07714:00540000000000000000000000000000000000000000000000000000000000000054000000000000000000000000000000000000000000000000000000000000
#07718:00000000000000000000000000000000005400000000000000000000000000000000000000000000000000000000000000540000000000000000000000000000
#0811b:1313
#08119:0013000000130000
#08112:00130013
#08114:0000001300000013
#08116:24242424
#0821a:1414
#08212:00140000
#08214:0014002400142424
#08218:00002400000014000000240000240024
#08216:24242400
#08312:00331333
#08318:00131313
#0831b:0000001300130013
#08314:24
#0831a:24
#08310:41
#08712:1400140000140000
#08716:1414
#0871a:0014000014001400
#08816:00142414
#0881a:1400001400002400
#08812:1400240000140000
#0891a:14142400
#08912:24006414
#08916:0000006400001400
#08914:00000000000000640000000000000000
#06412:14180000
#06416:14001418
#0641a:0014
#0391a:2400000000006400000000000054000000000000140000000000000000000000
#03912:0000000000001400000000000064000000000000000000002400000000000000
#03910:41
#03914:00000000000000000000000000540000000000000000000000640000000000000000000000000000000000000000000000000000000000000000000000000000
#03918:00000000000000000000000000640000000000000000000000540000000000000000000000000000000000000000000000000000000000000000000000000000
#03916:0000000000000064000000006400000000000000000000000000000000000000
#0611a:0074000000001400
#06112:28007428
#06116:0000002800000000
#02716:0000000000180000
#02712:0000182400000000
#0271a:24000024
#04712:1400000000541400
#0471a:0000541400000000
#04714:00000000001400000000000000000000
#04718:00000000000000000000001400000000
#04716:2400343400000000
#04717:0000000000343400
#03712:1300000000000054000000001300000026000000000000002400000000001300
#0371b:00000013000000000000000013000000
#0371a:24000000000024000000000000000024
#03716:0054000000002400000000000054000000000000000000000054000000000054
#03714:00000000000000000000000000540000000000000000000000000000000000000000000000000000000000000000000000540000000000000000000000000000
#03718:00540000000000000000000000000000000000000000000000540000000000000000000000000000000000000000000000000000000000000000000000540000
#05117:0000000000000013
#05116:00000013
#0511a:24000024
#05112:0000002400000024
#0721a:0014001400000024
#07216:0000140000240000
#07212:0014002400001400
#07214:0000000024000014
#07218:00000024
#03012:0024
#03016:0000006400240024
#0301a:00240024
#03018:00000000006400000000000000000000
#03056:0014000000000000
#03052:0013000000000000
#03152:5300000000000013
#0315b:0000000000130000
#03156:00000024000000000000000000005400
#03252:00533300
#03256:0000002400000000
#03255:0000000000245300
#03257:0000000000000024
#03258:00005343
#03658:00160000
#08657:0000002400000000
#08652:54
#09552:54
#0955a:64
#00153:0000000000120000
#0015b:0000000000000012
#00253:0012000000000000
#0035b:0000000000120000
#00353:0000001200000012
#00557:0000001200120000
#00553:0000000000000012
#00856:0012
#00858:00000012
#00953:53
#0115a:0000001300000013
#01156:0000000000130000
#01256:00001414
#01352:53
#01556:0000005400000000
#0155a:00000000000000000024000000002400
#02455:16
#0175a:5400000000000054
#01752:14
#01856:00000024000000000000000000005400
#01952:0000002400000000
#01956:0000000000000054
#02052:0000001400000000
#0255a:0014
#02556:00000000000000000000001400000000
#02552:0000000000000014
#02956:0000000000440000
#02852:38560000
#02858:0056
#02855:00000056
#03355:33
#03352:0036
#03858:00160000
#03852:00000054
#03952:00000054
#0405a:0054000000000000
#04052:0054
#04058:00000026
#04152:34
#04156:54
#04356:005400000000000000000000000000000000000000000000000000000000000000000000000000000000000000000000000000000000000000000000000000000000000000000000000000000000000000000000000000000000000000000000000000000000000000000000000000000000000000000000000000000000000000000000000000000000000000000000000000000000000000000000000000000000000000000000000000000000000000000000000000000000000000000000000000000000000000000000000000000000000000000000000000000000000000000000000000000000000000000000000000000000000000000000000000000000000000000000000000000000000000000000000000000000000000000000000000000000000000000000000000000000000000000000000000000000000000000000000000000000000000000000000000000000000000000000000000000000000000000000000000000000000000000000000000000000000000000000000000000000000000000000000000000000000000000000000000000000000000000000000000000000000000000000000000000000000000000000000000000000000000000000000000000000000000000000000000000000000000000000000000000000000000000000000000000000000000000000000000000000000000000000000000000000000000000000000000000000000000000000000000000000000000000000000000000000000000000000000000000000000000000000000000000000000000000000000000000000000000000000000000000000000000000000000000000000000000000000000000000000000000000000000000000000000000000000000000000000000000000000000000000000000000000000000000000000000000000000000000000000000000000000000000000000000000000000000000000000000000000000000000000000000000000000000000000000000000000000000000000000000000000000000000000000000000000000000000000000000000000000000000000000000000000000000000000000000000000000000000000000000000000000000000000000000000000000000000000000000000000000000000000000000000000000000000000000000000000000000000000000000000000000000000000000000000000000000000000000000000000000000000000000000000000000000000000000000000000000000000000000000000000000000000000000000000000000000000000000000000000000000000000000000000000000000000000000000000000000000000000000000000000000000000000000000000000000000000000000000000000000000000000000000000000000000000000000000000000000000000000000000000000000000000000000000000000000000000000000000000000000000000000000000000000000000000000000000000000000000000000000000000000000000000000000000000000000000000000000000000000000000000000000000000000000000000000000000000000000000000000000000000000000000000000000000000000000000000000000000000000000000000000000000000000000000000000000000000000000000000000000000000000000000000000000000000000000000000000000000000000000000000000000000000000000000000000000000000000000000000000000000000000000000000000000000000000000000000000000000000000000000000000000000000000000000000000000000000000000000000000000000000000000000000000000000000000000000000000000000000000000000000000000000000000000000000000000000000000000000000000000000000000000000000000000000000000000000000000000000000000000000000000000000000000000000000000000000000000000000000000000000000000000000000000000000000000000000000000000000000000000000000000000000000000000000000000000000000000000000000000000000000000000000000000000000000000000000000000000000000000000000000000000000000000000000000000000000000000000000000000000000000000000000000000000000000000000000000000000000000000000000000000000000000000000000000000000000000000000000000000000000000000000000000000000000000000000000000000000000000000000000000000000000000000000000000000000000000000000000000000000000000000000000000000000000000000000000000000000000000000000000000000000000000000000000000000000000000000000000000000000000000000000000000000000000000000000000000000000000000000000000000000000000000000000000000000000000000000000000000000000000000000000000000000000000000000000000000000000000000000000000000000000000000000000000000000000000000000000000000000000000000000000000000000000000000000000000000000000000000000000
#0425a:24
#04552:14
#04652:14
#04956:00340000
#0495a:0000000000000044
#05052:0034000000000000
#05258:0013
#05252:00140000
#05452:0054
#05758:0024
#05754:0054000000000000000000000000000000000000000000000000000000000000
#05854:0024
#05858:0064000000000000000000000000000000000000000000000000000000000000
#05958:0024
#05954:0054000000000000000000000000000000000000000000000000000000000000
#06058:0064000000000000000000000000000000000000000000000000000000000000
#06054:0054000000000000000000000000000000000000000000000000000000000000
#06256:0064
#0625b:0022000000000000
#06352:00380000
#06356:64005448
#06656:000000000000000000000000000000000000000000000000000000000000000000000000000000000000000000000000000000000000000000000000000000000000000000000000000000000000000000000000000000000000000000000000000000000000000000000000000000000000000000000000000000000000000000000000000000000000000000000000000000000000000000000000000000000000000000000000000000000000000000000000000000000000000000000000000000000000000000000000000000000000000000000000000000000000000000000000000000000000000000000000000000000000000000000000000000000000000000000000000000000000000000000000000000000000000000000000545400000000000000000000000000000000000000000000000000000000000000000000000000000000000000000000000000000000000000000000000000000000000000000000000000000000000000000000000000000000000000000000
#0675a:1454
#06752:5434
#06757:00230000
#06756:00000023
#06856:540000000000000000000000000000000000000000000000000000000000000000000000000000000000000000000000000000000000000000000000000000000000000000000000000000000000000000000000000000000000000000000000000000000000000000000000000000000000000000000000000000000000000000000000000000000000000000000000000000000000000000000000000000000000000000000000000000000000000000000000000000000000000000000000000000000000000000000000000000000000000000000000000000000000000000000000000000000000000000000000000000000000000000000000000000000000000000000000000000000000000000000000000000000000000000000000000000000000000000000000000000000000000000000000000000000000000000000000000000000000000000000000000000000000000000000000000000000000000000000000000000000000000000000000000000000000000000000000000000000000000000000000000000000000000000000000000000000000000000000000000000000000000000000000000000000000000000000000000000000000000000000000000000000000000000000000000000000000000000000000000000000000000000000000000000000000000000000000000000000000000000000000000000000000000000000000000000000000000000000000000000000000000000000000000000000000000000000000000000000000000000000000000000000000000000000000000000000000000000000000000000000000000000000000000000000000000000000000000000000000000000000000000000000000000000000000000000000000000000000000000000000000000000000000000000000000000000000000000000000000000000000000000000000000000000000000000000000000000000000000000000000000000000000000000000000000000000000000000000000000000000000000000000000000000000000000000000000000000000000000000000000000000000000000000000000000000000000000000000000000000000000000000000000000000000000000000000000000000000000000000000000000000000000000000000000000000000000000000000000000000000000000000000000000000000000000000000000000000000000000000000000000000000000000000000000000000000000000000000000000000000000000000000000000000000000000000000000000000000000000005400000000000000000000000000000000000000000000000000000000000000000000000000000000000000000000000000000000000000000000000000000000000000000000000000000000000000000000000000000000000000000000000000000000000000000000000000000000000000000000000000000000000000000000000000000000000000000000000000000000000000000000000000000000000000000000000000000000000000000000000000000000000000000000000000000000000000000000000000000000000000000000000000000000000000000000000000000000000000000000000000000000000000000000000000000000000000000000000000000000000000000000000000000000000000000000000000000000000000000000000000000000000000000000000000000000000000000000000000000000000000000000000000000000000000000000000000000000000000000000000000000000000000000000000000000000000000000000000000000000000000000000000000000000000000000000000000000000000000000000000000000000000000000000000000000000000000000000000000000000000000000000000000000000000000000000000000000000000000000000000000000000000000000000000000000000000000000000000000000000000000000000000000000000000000000000000000000000000000000000000000000000000000000000000000000000000000000000000000000000000000000000000000000000000000000000000000000000000000000000000000000000000000000000000000000000000000000000000000000000000000000000000000000000000000000000000000000000000000000000000000000000000000000000000000000000000000000000000000000000000000000000000000000000000000000000000000000000000000000000000000000000000000000000000000000000000000000000000000000000000000000000000000000000000000000000000000000000000000000000000000000000000000000000000000000000000000000000000000000000000000000000000000000000000000000000000000000000000000000000000000000000000000000000000000000000000000000000000000000000000000000000000000000000000000000000000000000000000000000000000000000000000000000000000000000000000000000000000000000000000000000000000000000000000000000000000000000000000000000000
#06852:00230000
#0685b:00000023
#0685a:44
#06956:14240000
#06952:5400000000000014
#0715b:53
#07152:0000005400000000
#07156:34000000000000000024000000000000
#07157:0000004300000000
#0745a:00000054
#07456:0048000000000000
#07556:44344434
#07552:6464
#0755a:00540000
#07856:0000000000240000
#0785a:00146400
#07852:00000014
#08056:0000005400000000
#0805a:00000000000000000024000000000000
#08052:0000001300000000
#08354:54
#08352:0023
#08454:14
#08556:00240000
#0855a:54
#08752:0000140000240000
#08756:5464
#0875a:0024000000001400
#08956:00000024
#0895a:4454
#08952:5434
#0915b:5300000000000053
#09152:3600006300003600
#09158:0000004600000000
#0935a:14000014
#09352:0000001400000000
#09356:0000005400005400
#09656:14
#03752:0016
#06452:00380000
#06456:64005448
#03552:0014
#06152:38000038
#06156:0000004800000000
#0615a:00000054
#07352:3800005400000038
#0735a:54
#07356:0000004800000000
#02756:0000000000480000
#02752:00380000
#04856:0000001400000000
#0485a:0024000000000000
#04854:00240000000000000000000000000000
#04752:54000054
#0475a:0000002400000000
#04754:00000000002400000000000000000000
#04758:00000000000000000000005400000000
#04756:54
#05352:00000000000000000000000000000024
#05356:00000054
#03458:00460000
#07952:64
#07956:0000001400000000
#0795b:0000001300000013
#07652:00000064
#07756:34443444
#0775a:5454
#07752:00640000
#0555a:54
#05556:0024
#07056:00443444
#09054:00130000
#09059:00000013
#002330:00000012
#003330:22
#0043b0:00122200
#004361:00001222
#004380:00000012
#005380:22
#005331:1200322200000000
#005371:0000000000000012
#006371:0022000000000000
#007361:12220000
#007381:0000001222000000
#007331:0000000000000012
#008331:00220000
#008380:00122200
#009330:13
#009370:00230000
#013320:13
#013360:0000002300000000
#013320:0000000013333333
#014320:23
#015320:14240000
#015360:0000001400002400
#0153a0:00000000000000000054000000000000
#0153a0:0000000000000014
#0163a0:0034000000000000
#016360:00240000
#016360:00001424
#016321:00000014
#017321:24
#0173a0:14340000
#017360:0024
#0173a0:0000000000000014
#018360:00000054000000000000000000000000
#0183a0:0024
#018360:0000000000000014
#019320:00240000
#019320:0000001400000000
#019360:00000024
#019360:0000000000000014
#020320:00240000
#025320:00140000
#025360:00000000005400002400000000000000
#0273a0:14240000
#027320:0000001400240000
#0273a0:00000014
#0283a0:24
#028320:00160000
#028350:00000000005300002300000000000000
#028381:0016
#0283b1:00000000000000000053000023000000
#028350:00000000000000000000000016530000
#029350:23
#0293a0:0014
#029360:00000000000000000054240000000000
#029321:00000000000000000000130000000053
#029361:00000000000000000000005400003400
#030321:0023000000000000
#0293b0:0000000000000013
#029360:00000000000000000000000000000054
#030360:0024000000000000
#030360:0000001424000000
#031320:13230000
#031360:00540054000000000000000000000000
#031360:0000000000000014
#0323b0:0023000000000000
#032320:00132300
#032360:0000005400000000
#032381:00001323
#032351:0000000000540000
#032350:00000013
#032370:0000000000000054
#033350:23
#038320:00000014
#039360:24
#0393a1:14000024000000000000000000000000
#039361:0000000000000014000000002400000000000000000000000000000000000000
#039321:0000000000000000000000000014000000000000240000000000000000000000
#039321:00000014
#0403a1:24
#039360:00000014
#040360:24
#0403a0:0014000000000000
#040320:0000002400000000
#040361:0014002400000000
#040321:0014
#040381:00000056
#041321:24
#040360:0014
#041360:34
#0423a0:54
#042360:000000000000000000000000000000000000000000000000000000000000000000000000000000000000000000000000000000000000000000000000000000000000000000000000000000000000000000000000000000000000000000000000000000000000000000000000000000000000000000000000000000000000000000000000000000000000000000000000000000000000000000000000000000000000000000000000000000000000000000000000000000000000000000000000000000000000000000000000000000000000000000000000000000000000000000000000000000000000000000000000000000000000000000000000000000000000000000000000000000000000000000000000000000000000000000000000000000000000000000000000000000000000000000000000000000000000000000000000000000000000000000000000000000000000000000000000000000000000000000000000000000000000000000000000000000000000000000000000000000000000000000000000000000000000000000000000000000000000000000000000000000000000000000000000000000000000000000000000000000000000000000000000000000000000000000000000000000000000000000000000000000000000000000000000000000000000000000000000000000000000000000000000000000000000000000000000000000000000000000000000000000000000000000000000000000000000000000000000000000000000000000000000000000000000000000000000000000000000000000000000000000000000000000000000000000000000000000000000000000000000000000000000000000000000000000000000000000000000000000000000000000000000000000000000000000000000000000000000000000000000000000000000000000000000000000000000000000000000000000000000000000000000000000000000000000000000000000000000000000000000000000000000000000000000000000000000000000000000000000000000000000000000000000000000000000000000000000000000000000000000000000000000000000000000000000000000000000000000000000000000000000000000000000000000000000000000000000000000000000000000000000000000000000000000000000000000000000000000000000000000000000000000000000000000000000000000000000000000000000000000000000000000000000000000000000000000000000000000000000000024
#043360:001400000000000000000000000000000000000000000000000000000000000000000000000000000000000000000000000000000000000000000000000000000000000000000000000000000000000000000000000000000000000000000000000000000000000000000000000000000000000000000000000000000000000000000000000000000000000000000000000000000000000000000000000000000000000000000000000000000000000000000000000000000000000000000000000000000000000000000000000000000000000000000000000000000000000000000000000000000000000000000000000000000000000000000000000000000000000000000000000000000000000000000000000000000000000000000000000000000000000000000000000000000000000000000000000000000000000000000000000000000000000000000000000000000000000000000000000000000000000000000000000000000000000000000000000000000000000000000000000000000000000000000000000000000000000000000000000000000000000000000000000000000000000000000000000000000000000000000000000000000000000000000000000000000000000000000000000000000000000000000000000000000000000000000000000000000000000000000000000000000000000000000000000000000000000000000000000000000000000000000000000000000000000000000000000000000000000000000000000000000000000000000000000000000000000000000000000000000000000000000000000000000000000000000000000000000000000000000000000000000000000000000000000000000000000000000000000000000000000000000000000000000000000000000000000000000000000000000000000000000000000000000000000000000000000000000000000000000000000000000000000000000000000000000000000000000000000000000000000000000000000000000000000000000000000000000000000000000000000000000000000000000000000000000000000000000000000000000000000000000000000000000000000000000000000000000000000000000000000000000000000000000000000000000000000000000000000000000000000000000000000000000000000000000000000000000000000000000000000000000000000000000000000000000000000000000000000000000000000000000000000000000000000000000000000000000000000000000000000000000000000000000000000000000000000000000000000000000000000000000000000000000000000000000000000000000000000000000000000000000000000000000000000000000000000000000000000000000000000000000000000000000000000000000000000000000000000000000000000000000000000000000000000000000000000000000000000000000000000000000000000000000000000000000000000000000000000000000000000000000000000000000000000000000000000000000000000000000000000000000000000000000000000000000000000000000000000000000000000000000000000000000000000000000000000000000000000000000000000000000000000000000000000000000000000000000000000000000000000000000000000000000000000000000000000000000000000000000000000000000000000000000000000000000000000000000000000000000000000000000000000000000000000000000000000000000000000000000000000000000000000000000000000000000000000000000000000000000000000000000000000000000000000000000000000000000000000000000000000000000000000000000000000000000000000000000000000000000000000000000000000000000000000000000000000000000000000000000000000000000000000000000000000000000000000000000000000000000000000000000000000000000000000000000000000000000000000000000000000000000000000000000000000000000000000000000000000000000000000000000000000000000000000000000000000000000000000000000000000000000000000000000000000000000000000000000000000000000000000000000000000000000000000000000000000000000000000000000000000000000000000000000000000000000000000000000000000000000000000000000000000000000000000000000000000000000000000000000000000000000000000000000000000000000000000000000000000000000000000000000000000000000000000000000000000000000000000000000000000000000000000000000000000000000000000000000000000000000000000000000000000000000000000000000000000000000000000000000000000000000000000000000000000000000000000000000000000000000000000000000000000000000000000000000000000000000000000000000000000000000000000000000000000000000000000000000000000000000000000000000000
#044320:54
#045320:24
#047360:1400343400000000
#047340:00000000005400000000000000000000
#047370:0000000000343400
#047380:00000000000000000000005400000000
#048350:3434000000000000
#048340:00540000000000000000000000000000
#048360:0000002400000000
#047321:14
#0473a1:00240000
#0473a1:0000001400000000
#047321:0000000000240000
#047321:00000014
#0483a1:24
#0483a1:0014000000000000
#048321:0000002400000000
#048341:00000012
#049341:22
#0493a0:14240000
#0513a0:14240000
#051361:13230000
#051321:0000001400240000
#051370:0000001300230000
#051320:0000000000000014
#052320:00240000
#052381:00132300
#052350:00001323
#053320:14
#053360:00240000
#053360:0000001400000000
#0533a0:0000000000240000
#053360:00000014
#053320:00000000000000000000000000000054
#054360:0024000000000000
#054320:0014
#054360:0000000000542400
#0553a0:14
#055360:00240000
#055360:0014
#0553a0:00000024
#057340:0014000000000000000000000000000000000000000000000000000000000000
#057380:0054
#058320:24
#058380:0014000000000000000000000000000000000000000000000000000000000000
#058340:0054
#0593a0:24
#059340:0014000000000000000000000000000000000000000000000000000000000000
#059380:0054
#060320:24
#060380:0014000000000000000000000000000000000000000000000000000000000000
#060320:0024
#060341:0014000000000000000000000000000000000000000000000000000000000000
#0603a1:0024
#0613a1:1424000000000000
#061321:0000001424000000
#0613a1:00000014
#0623b1:0052000000000000
#0623a1:0024
#062360:0014
#063320:24
#063361:14
#0633a1:00240000
#063361:0014
#063321:00000024
#064361:14
#0643a1:00240000
#064361:0014
#064321:00000024
#066361:00000014
#067321:3424
#067371:00530000
#066360:000000000000000000000000000000000000000000000000000000000000000000000000000000000000000000000000000000000000000000000000000000000000000000000000000000000000000000000000000000000000000000000000000000000000000000000000000000000000000000000000000000000000000000000000000000000000000000000000000000000000000000000000000000000000000000000000000000000000000000000000000000000000000000000000000000000000000000000000000000000000000000000000000000000000000000000000000000000000000000000000000000000000000000000000000000000000000000000000000000000000000000000000000000000000000000000000001400000000000000000000000000000000000000000000000000000000000000000000000000000000000000000000000000000000000000000000000000000000000000000000000000000000000000000000000000000000000000000000
#0673a0:24
#0673a0:0014
#067360:00000053
#0683a0:24
#068361:140000000000000000000000000000000000000000000000000000000000000000000000000000000000000000000000000000000000000000000000000000000000000000000000000000000000000000000000000000000000000000000000000000000000000000000000000000000000000000000000000000000000000000000000000000000000000000000000000000000000000000000000000000000000000000000000000000000000000000000000000000000000000000000000000000000000000000000000000000000000000000000000000000000000000000000000000000000000000000000000000000000000000000000000000000000000000000000000000000000000000000000000000000000000000000000000000000000000000000000000000000000000000000000000000000000000000000000000000000000000000000000000000000000000000000000000000000000000000000000000000000000000000000000000000000000000000000000000000000000000000000000000000000000000000000000000000000000000000000000000000000000000000000000000000000000000000000000000000000000000000000000000000000000000000000000000000000000000000000000024000000000000000000000000000000000000000000000000000000000000000000000000000000000000000000000000000000000000000000000000000000000000000000000000000000000000000000000000000000000000000000000000000000000000000000000000000000000000000000000000000000000000000000000000000000000000000000000000000000000000000000000000000000000000000000000000000000000000000000000000000000000000000000000000000000000000000000000000000000000000000000000000000000000000000000000000000000000000000000000000000000000000000000000000000000000000000000000000000000000000000000000000000000000000000000000000000000000000000000000000000000000000000000000000000000000000000000000000000000000000000000000000000000000000000000000000000000000000000000000000000000000000000000000000000000000000000000000000000000000000000000000000000000000000000000000000000000000000000000000000000000000000000000000000000000000000000000000000000000000000000000000000000000000000000000000000000000000000000000000000
#068321:00530000
#068361:000000000000000000000000000000000000000000000000000000000000000000000000000000000000000000000000000000000000000000000000000000000000000000000000000000000000000000000000000000000000000000000000000000000000000000000000000000000000000000000000000000000000000000000000000000000000000000000000000000000000000000000000000000000000000000000000000000000000000000000000000000000000000000000000000000000000000000000000000000000000000000000000000000000000000000000000000000000000000000000000000000000000000000000000000000000000000000000000000000000000000000000000000000000000000000000000000000000000000000000000000000000000000000000000000000000000000000000000000000000000000000000000000000000000000000000000000000000000000000000000000000000000000000000000000000000000000000000000000000000000000000000000000000000000000000000000000000000000000000000000000000000000000000000000000000000000000000000000000000000000000000000000000000000000000000000000000000000000000000000000000000000000000000000000000000000000000000000000000000000000000000000000000000000000000000000000000000000000000000000000000000000000000000000000000000000000000000000000000000000000000000000000000000000000000000000000000000000000000000000000000000000000000000000000000000000000000000000000000000000000000000000000000000000000000000000000000000000000000000000000000000000000000000000000000000000000000000000000000000000000000000000000000000000000000000000000000000000000000000000000000000000000000000000000000000000000000000000000000000000000000000000000000000000000000000000000000000000000000000000000000000000000000000000000000000000000000000000000000000000000000000000000000000000000000000000000000000000000000000000000000000000000000000000000000000000000000000000000000000000000000000000000000000000000000000000000000000000000000000000000000000000000000000000000000000000000000000000000000000000000000000000000000000000000000000000000000000000000000000000000001400000000000000000000000000000000000000000000000000000000000000000000000000000000000000000000000000000000000000000000000000000000000000000000000000000000000000000000000000000000000000000000000000000000000000000000000000000000000000000000000000000000000000000000000000000000000000000000000000000000000000000000000000000000000000000000000000000000000000000000000000000000000000000000000000000000000000000000000000000000000000000000000000000000000000000000000000000000000000000000000000000000000000000000000000000000000000000000000000000000000000000000000000000000000000000000000000000000000000000000000000000000000000000000000000000000000000000000000000000000000000000000000000000000000000000000000000000000000000000000000000000000000000000000000000000000000000000000000000000000000000000000000000000000000000000000000000000000000000000000000000000000000000000000000000000000000000000000000000000000000000000000000000000000000000000000000000000000000000000000000000000000000000000000000000000000000000000000000000000000000000000000000000000000000000000000000000000000000000000000000000000000000000000000000000000000000000000000000000000000000000000000000000000000000000000000000000000000000000000000000000000000000000000000000000000000000000000000000000000000000000000000000000000000000000000000000000000000000000000000000000000000000000000000000000000000000000000000000000000000000000000000000000000000000000000000000000000000000000000000000000000000000000000000000000000000000000000000000000000000000000000000000000000000000000000000000000000000000000000000000000000000000000000000000000000000000000000000000000000000000000000000000000000000000000000000000000000000000000000000000000000000000000000000000000000000000000000000000000000000000000000000000000000000000000000000000000000000000000000000000000000000000000000000000000000000000000000000000000000000000000000000000000000000000000000000000000000000000000000000
#0683b1:00000053
#069361:24
#069320:1424
#069360:00540000
#0693a0:0000000000000014
#069360:00000000000000000000000000000054
#070360:0034240000000000
#0713b0:13
#071370:0000002300000000
#071321:0000001400002400
#071361:00000000000000000054000000000000
#0733a1:14
#073361:00240000
#073321:0000001400000000
#073361:0000000000542400
#0743a1:00000014
#075361:24
#075320:14
#075360:00240000
#0753a1:00140000
#075361:0024
#075320:0014
#075360:00000024
#076320:00000014
#077360:24
#0773a1:14
#077361:00240000
#077320:00140000
#077360:0024
#0773a1:0014
#077361:00000024
#0783a1:00001424
#078361:0000000000540000
#079321:14
#079361:0000342400000000
#080361:0000001400002400
#0803a1:00000000000000000054000000000000
#083341:14
#083321:00333333
#084341:24
#0853a1:1400003424000000
#085361:00540000
#086321:14000024
#086371:0000005400000000
#087361:14240000
#0873a1:0054000000000000
#087361:00001424
#087321:0000000000540000
#089321:14
#089361:0000542400000000
#0893a1:0014
#089361:00000054
#0903a1:24
#0913b1:13
#091381:00230000
#091321:0000001300000000
#091351:0000000000230000
#0913b1:0000000000000013
#092371:00230000
#092361:0000001300002300
#093321:1400342400000000
#093360:0000001400000000
#0933a0:0000000000342400
#093361:00000014
#094321:24
#095321:14
#096361:24
#0953a0:14
#095360:000000000000000000000000000000000000000000000000000000000000000000000000000000000000000000000000000000000000000000000000000000000000000000000000000000000000000000000000000000000000000000000000000000000000000000000000000000000000000000000000000000000000000000000000000000000000000000000000000000000000000000000000000000000000000000000000000000000000000000000000000000000000000000000000000000000000000000000000000000000000000000000000000000000000000000000000000000000000000000000000000000000000000000000000000000000000000000000000000000000000000000000000000000000000000000000000000000000000000000000000000000000000000000000000000000000000000000000000000000000000000000000000000000000000000000000000000000000000000000000000000000000000000000000000000000000000000000000000000000000000000000000000000000000000000000000000000000000000000000000000000000000000000000000000000000000000000000000000000000000000000000000000000000000000000000000000000000000000000000000000000000000000000000000000000000000000000000000000000000000000000000000000000000000000000000000000000000000000000000000000000000000000000000000000000000000000000000000000000000000000000000000000000000000000000000000000000000000000000000000000000000000000000000000000000000000000000000000000000000000000000000000000000000000000000000000000000000000000000000000000000000000000000000000000000000000000000000000000000000000000000000000000000000000000000000000000000000000000000000000000000000000000000000000000000000000000000000000000000000000000000000000000000000000000000000000000000000000000000000000000000000000000000000000000000000000000000000000000000000000000000000000000000000000000000000000000000000000000000000000000000000000000000000000000000000000000000000000000000000000000000000000000000000000000000000000000000000000000000000000000000000000000000000000000000000000000000000000000000000000000000000000000000000000000000000000000000000000000000000000024
#001970:1252220000000000
#001960:00520052000000000000000000000000
#003970:1252220000000000
#003980:00520052000000000000000000000000
#007980:00001222
#0079a0:0000000000520000
#0109b0:00000013
#010970:0000000000000053
#0119b0:23
#013960:0000001300000000
#013920:0023
#0309a0:00140000
#030960:0000002400000000
#089960:0000001400000000
#089920:0024
#092920:00130000
#092960:0000002300000000
#092971:00130000
#0929b1:0000002300000000
