This file was generated by Ched 2.7.0.0.
#TITLE ""
#ARTIST ""
#DESIGNER ""
#DIFFICULTY 0
#PLAYLEVEL
#SONGID ""
#WAVE ""
#WAVEOFFSET 0
#JACKET ""
#REQUEST "ticks_per_beat 480"
#00002: 4
#BPM01: 148
#00008: 01
#TIL00: ""
#VOLUME: ""
#HISPEED 00
#MEASUREHS 00
#00215:00000013
#0021b:0000000000000023
#00218:22222200
#00412:00131300
#00415:0023000000130013
#00418:00131300
#0041b:0000002300000000
#00518:00130013
#00515:0000001300130000
#00512:0013000013000013
#0051b:0000000013000013
#00618:0013001300000023
#0061b:00130000
#00615:00131300
#00612:0000000000130000
#00912:1313
#0091b:0013000013000013
#00918:00130013
#00915:0000001300130000
#01115:0000000000130000
#01118:00000013
#0111b:0000000000000013
#01112:0000000000000013
#01218:0013000000000013
#01318:0000130000130000
#01315:0000001300001300
#0131b:0013000013000000
#01312:0000000013000013
#01418:0013
#01415:1300000000130000
#0141b:0000000000130000
#01412:0000000000000015
#01718:0013001300130013
#01715:00130013
#01712:0013000013000000
#0171b:0013
#0201b:00000013
#02012:24130000
#0211b:0013000013000000
#02118:00130013
#02115:0000001300130013
#02112:0013
#01818:0000130000130000
#01815:0000001300001300
#0181b:1300000013000013
#01812:0000000013000013
#0221b:1313000000000000
#02212:1400131314000023
#02217:0000140000000023
#02815:0013000013000000
#02818:0000000000130000
#0281b:00000013
#02817:0000000000000013
#02812:0000001300000000
#02918:00130000
#0291b:0013000000000000
#0291a:0000000000000014
#03212:2400001313000013
#03215:0000000000130000
#03218:00000013
#0321b:00000013000000000000000000001300
#03217:23000000000000130000000000000000
#03210:41
#03518:0000000000001313
#03515:00000000000000000000000000130000
#03512:0014240000130000
#03516:0014
#0351a:0024
#0361b:1333330000130000
#03618:00000013
#03615:0000000000000013
#03612:0013130000130000
#03616:2300001300000000
#03617:00000013000000000000000000000000
#0371b:0013130000130013
#03712:1333330000000013
#03717:1300001300000000
#03716:00000013000000000000130000000000
#0381b:0013
#03818:2300000000130000
#03815:23000013
#03812:0000000013000013
#0381a:0000000000000024
#05416:00000014
#05418:13
#05412:0024000024000000
#0541a:0024
#0551b:12
#05518:0012
#05513:22121212
#00718:0000000013001313
#00715:00000000000000000000000000130000
#0071b:0023230000000000
#00812:23130000
#0081b:23
#00810:41
#01018:13
#01012:0013
#0101b:00130000
#01017:0000000013130000
#01518:0000000000000013
#01515:00000000000000000000000000000013
#01512:0013000000130000
#01514:00131313
#01516:0000001300000000
#01612:00130000
#01618:00000013
#0161b:0000000000000013
#01615:0000000000000013
#0161a:24
#01610:41
#0231b:00000013
#02316:00000000000000000000130000130000
#02319:0000000013000013
#02312:0013000000000000
#02317:00130000
#02314:0000001300000000
#02417:0000001313000000
#02412:0000000000000013
#0241b:23
#02410:41
#02516:0000001313000000
#02515:00000013
#02518:0000000000000013
#02512:13
#0261b:00000013000013000000000000000000
#02612:00000000000000000000001300001300
#02616:14
#02712:1300000013000013
#0271b:0013
#02718:0000000000130000
#02715:00000013
#03316:0014
#0331a:0014240000000000
#03314:00000013
#03319:00000013
#03312:0024
#03918:00001300000013000013000000001300
#03912:00000000130000000000000000000013
#03916:13
#03915:00000000000000001300130000130000
#0391b:00130013
#04012:0000001300000013
#04018:00001313
#0401b:0000001300000013
#04015:0000000000130000
#04019:25
#04315:0000000000001313
#04318:00000000000000000000000000130000
#0431b:0000000000130000
#04312:0013130000130000
#0431a:0024
#0441b:00003313330000000000130000000000
#04412:2300001300130000
#04415:00000013
#04416:0013130000000000
#04418:0000000000000013
#04417:13
#04410:41
#04112:00002413
#0411a:0014140024000000
#04116:0000001400000013
#04117:00000013
#0421b:0000000013001313
#04216:00000015000014001400000000001300
#0421a:14
#04212:2500000000140000
#04612:1300002400000000
#04615:0013000000130013
#04618:00130013
#0461b:0000001300000000
#0461a:24
#04518:0000000000000013
#04517:0013130000130000
#0451b:1300001300000000
#04516:13
#04512:00003313330000000000130000000000
#04718:0000130013000013
#04715:00001300000000130000130000000013
#04712:13000013
#0471b:0000001300000000
#0471f:11
#0471a:24
#0481b:13131313
#04815:00001300000000130000000000001300
#04812:00130013
#04818:00000000000013000000130000000013
#05012:13130000
#05015:00001300000000130000000000000000
#05018:0000001300000013
#0501b:00131313
#05016:00000000000000000000220000220000
#05115:0013000000000000
#05118:0000001300150000
#05114:0000000000132300
#05119:0015000023000013
#05112:2400001500000000
#05113:0000230000000015
#0511a:23
#05315:0013000000130013
#05318:00130000
#0531a:24000024
#05312:0000002400000000
#05613:12121212
#0561b:22
#05617:0022
#05619:00000022
#03012:2666000013000000
#03015:0000000000130023
#03018:0000266600001323
#0301b:0013
#05915:0000000000130000
#05918:00140014000000000000000013000000
#0591b:0000000013000013
#05912:00261313
#05914:1414000000000000
#0591f:00210000
#0601b:0000131300000013
#06012:1300000000000013
#0601a:0013000000000000
#06017:13
#06016:0000001300000000
#06010:41
#0611b:0013000013000000
#06118:1300000000130000
#06115:23000013
#06112:0023000013000013
#0611a:0000000000000024
#0621b:00001300000013000013000000000000
#06218:00000000130000000000001300000000
#06212:00000000000000001300000013330033
#06216:1300000000000014
#06215:00000000001300000000130000000000
#06312:2500001300000013
#06316:00000014000000000000000000001400
#06315:0013
#06318:0000000000130000
#0631b:00000013
#0631a:24
#06618:0000000000001313
#06615:00000000000000000000000000130000
#06612:0014140024140000
#06616:0000001400000000
#0661a:0000000024140000
#06718:1300000000130000
#06712:0014140000001300
#06715:2300001300000013
#0671b:00000013
#0671a:00003414340000000000000000000000
#0641b:00000013
#0641a:0014140024000000
#06412:00002413
#06416:0000001400000014
#06912:1300002400000014
#06915:0013000000130000
#06918:00130000
#0691b:0000001300000000
#06916:00000014
#0691a:2400000000000014
#06818:1300001300000013
#0681a:0014140000140000
#06815:13
#06812:00003414340000000000140000000000
#07017:0013130013000013
#07012:0024240024000013
#0701a:0000002400140000
#07016:0000001300130000
#07116:0013130013130013
#07117:0000001300001300
#0711b:00130000
#0711a:0000000014140014
#07112:00000014
#07217:0013130013000013
#07212:0014140014000024
#07216:0000001300130000
#0721a:0000001400140000
#07316:0013000000000000
#07318:0000131300000000
#07315:00000000001300000000000000000000
#07612:0000001400140013
#07616:0013130013000000
#0761a:0014140014000024
#07617:0000001300130000
#0771b:0013130000000000
#07718:00000000000013000013001300000000
#07712:00131324
#07715:0000000000130000
#0771a:0000000000000024
#01912:0000000024140000
#0191a:0000000000002414
#01918:0023002300000000
#01915:00230000
#05713:12
#0571b:22121212
#05716:0022
#0581b:12121200
#05812:0026
#05815:00000000000000000000002600000000
#05818:0000000000000026
#05813:22
#04915:0000130013000013
#04918:00001300000000130000130000000013
#0491b:13000013
#04912:2400001300000000
#0651b:0000001300000013
#06516:00000014000000000000000000001400
#06518:0013
#06515:0000000000130000
#06512:24000013
#06519:25
#07416:0013130013000013
#0741b:0000000000000013
#07412:0000002400140000
#07417:0000001300130000
#0741a:0024240024000000
#07517:0013130013130013
#07516:0000001300001300
#07512:0000130014140014
#0751a:00000014
#05215:0013000000000000
#05218:0000001300150000
#05214:0000000000132300
#05219:0015000023000013
#05212:0000001500000000
#05213:0000230000000015
#0521a:23
#0341b:0000001313000013
#03418:0000000000130000
#03415:00000013
#03412:00000013000000000000000000001300
#03416:23000000000000130000000000000000
#0341a:24
#0031b:0023000000000000
#00312:0023
#00318:0000000000002222
#00316:00000000000000000000000000220000
#03112:0023000000002400
#0311b:0023000000000000
#03118:0000000000230000
#03115:00000000000000000000002300000000
#0311a:00330024
#03113:00330000
#07818:00240000
#07814:00240000
#0811c:00323252
#08112:00323252
#0801c:00320032
#08012:00320032
#0791c:00323232
#07912:00323232
#0025b:0000000000000013
#02452:0014
#02457:0013
#0245b:13
#0255a:0014
#02556:0013
#02552:13
#03155:0000001300000000
#03152:0023000000000000
#0315b:0023000000000000
#03158:0000001300000000
#0315a:00000044
#03356:00141400
#0335a:00140000
#03352:0014
#0535a:14000014
#05352:0000001400000000
#05452:0014000014000000
#0545a:0014
#0555b:52
#05558:0022
#05553:12
#0035b:0013000000000000
#00352:0013
#01258:0013
#01252:0013
#0165a:14
#0165b:0000000000000013
#02656:1414
#02756:14
#02752:13
#0365b:5300001300000000
#03656:0000001300000000
#03657:00000023000000000000000000000000
#03852:0000130000000063
#0385b:00130000
#0385a:0000000000000014
#03855:53
#03858:53
#03956:23
#04052:0000000000000053
#04059:45
#04152:00000053
#04156:0000002400000023
#0415a:00544400
#04452:0000001300000000
#04457:5300001300000000
#0445b:00000023000000000000000000000000
#0425b:0000000000000063
#04252:3500000000240000
#0425a:54
#04256:00000025000000005400000000000000
#04356:0014
#0435a:0014
#04352:00530000
#0465b:0000005300000000
#04652:0000001400000000
#0465a:14
#03055:0000000000000063
#03058:0000000000000053
#06052:6300000000130000
#0605b:0000005300000000
#06057:0000000000130000
#06056:0000005300000000
#06152:0023000000000063
#0615a:0000000000000014
#06158:63130000
#06155:53130000
#0615b:0023000000000000
#06256:2300000000000024
#06252:00000053
#06352:3500000000000053
#06356:00000024000000000000000000000000
#0635a:54
#0645b:00000053
#06456:0000002400000024
#0645a:00544400
#06452:0034
#06755:0000001300000000
#06758:5300001300000000
#0675a:00000024000000000000000000000000
#0695b:0000005300000000
#06952:0000001400000014
#0695a:1400000000000014
#06656:0000002400000000
#06652:00643400
#0665a:0044
#07057:0000000000000063
#0705a:0000000000140000
#07156:00630000
#07257:0000000000000063
#07252:0000000000000014
#0725a:0000000000140000
#0735b:0000000000130000
#07355:0000000000130000
#07352:0000000000000013
#07358:0000000000000013
#07652:0000000000140053
#0765a:0000000000000014
#01052:00130000
#0105b:00130000
#01452:0000000000000015
#03252:3400000000000053
#03257:53
#0325b:00000023000000000000000000000000
#02952:0000000000330000
#0295b:0000000000430000
#01852:0000000000000013
#01952:0000000000140000
#0195a:0000000000000014
#02052:14
#03752:6300001300000000
#03757:0000001300000000
#03756:00000023000000000000130000000000
#0375b:0000000000130000
#05753:62
#05756:0012
#0575b:12
#05952:00160000
#0475a:14
#0455b:0000001300000000
#04556:6300001300000000
#04552:00000023000000000000130000000000
#04557:0000000000130000
#05659:00000012
#05657:0012
#0565b:12
#05853:12
#04952:14
#05152:1400002500000000
#05153:0000530000000025
#05158:0000000000250000
#05159:0025000053000000
#05154:00000053
#0515a:53
#06556:00000024000000000000000000000000
#06552:64
#0655b:0000000000000063
#06559:45
#06858:0000001300000000
#06855:6300001300000000
#06852:00000024000000000000140000000000
#0685a:0000000000140000
#07752:00000014
#0775a:0000000000000014
#07456:0000000000000053
#07452:0000000000140000
#07557:00530000
#07854:00540000
#07858:00540000
#0085b:13
#00852:13
#05259:0025000053000000
#05252:0000002500000000
#05258:0000000000250000
#05253:0000530000000025
#0525a:53
#05254:00000053
#02257:0000000000000013
#02252:0000000000000013
#03452:00000023000000000000000000000000
#0345b:0000000000000063
#0345a:44
#03456:63
#03556:00141400
#03552:00140000
#0355a:0014
#004380:0000000000000013
#0053b0:5323000000000000
#006350:0000000000000013
#007320:00530023
#008370:00130000
#0083b0:00000000005300002300000000000000
#008361:0013
#008321:00000000000000000053000023000000
#0083b0:00000013
#008370:00000000000000000000000000530000
#009370:23
#010350:13
#010320:0053230000000000
#010320:0000000000130000
#010360:0000000000000033
#011320:0023
#0103b1:0000000000000013
#011371:0023
#012351:00130000
#012321:00000000005300002300000000000000
#0123b0:00130000
#012380:00000000005300002300000000000000
#012320:0000000000000013
#012350:00000000000000000000000000000053
#013350:0023000000000000
#014380:13
#0143b0:00530000230000000000000000000000
#014351:00130000
#014321:00000000005300002300000000000000
#014371:0000000000000013
#0153b1:00000023
#0163b1:00130000
#016381:00000000005300002300000000000000
#016350:0013
#016320:00000000000000000053000023000000
#018320:13
#018350:00530000230000000000000000000000
#020370:00130000
#0203b0:00000000005300002300000000000000
#020321:0013
#020361:00000000000000000053000023000000
#020361:0000000000000013
#020321:00000000000000000000000000000053
#021321:0023000000000000
#022371:0000000013005323
#0223b1:00000000000000000053003300000000
#022360:00000000000000000000001300000000
#022320:0000000000005323
#024360:13
#024320:00000034000034002400000000000000
#025370:13
#0253a0:00000034000034002400000000000000
#026320:13
#026360:00000034000034002400000000000000
#0263b1:0013
#026361:00000000000000000000003400003400
#027361:24
#0283b1:1323000000000000
#028381:0000132300000000
#028321:0000000000000013
#028361:00000000000000000000000000000053
#029361:0023000000000000
#029321:0000001300230000
#029351:0053
#0293b0:0000001300230000
#029380:0053
#030320:1626000000000000
#030380:0000162600000000
#030350:0000000000000013
#031320:0033000000000000
#031330:00330000
#031350:0000002300000000
#030381:0000000000000013
#0313b1:0033000000000000
#0313a1:00330000
#031381:0000002300000000
#032371:1300002300000000
#0323b1:00000053000000000000000000000000
#032321:0000000000000013
#033361:0034240000000000
#034361:1300002300000000
#034321:00000053000000000000000000000000
#0343b1:0000000000000013
#035361:0034240000000000
#0363b1:1333332300000000
#036371:00000053000000000000000000000000
#037321:1333332300000000
#037361:00000053000000000000000000000000
#038381:13
#0383b1:00230000
#038350:13
#038320:00230000
#038320:0000000000000013
#039360:53
#039320:0023000000000000
#040320:0000000000000013
#041360:0034240000000000
#0413a1:00142400
#041361:0000005400000000
#041321:00000013
#041361:0000000000000053
#042321:25
#0423a0:1400002400000000
#042360:00000055000000000000000000000000
#042360:00001424
#042320:0000000000540000
#0423b0:0000000000000013
#043360:0034240000000000
#043321:00130000
#043361:0000005424000000
#044371:1300002300000000
#0443b1:00003353330000000000000000000000
#045361:1300002300000000
#045321:00003353330000000000000000000000
#0463b1:0000001300000000
#046381:0000000000230000
#0513a1:13230000
#051391:0055000000000000
#051330:00132300
#051320:0000005500000000
#051391:00001323
#051381:0000000000550000
#051340:00000013
#051330:0000000000000055
#052340:23
#0523a1:13230000
#052391:0055000000000000
#052330:00132300
#052320:0000005500000000
#052391:00001323
#052381:0000000000550000
#052340:00000013
#052330:0000000000000055
#053340:23
#0553b0:12
#055380:0052
#0563b0:22
#057330:12
#057360:0022
#060320:1300000000230000
#060360:0000003300000000
#0603b1:0000001300000000
#060371:0000000000230000
#061381:13230000
#0613b1:0053000000000000
#061350:13230000
#061320:0053000000000000
#061320:0000000000000013
#062360:53
#062320:0023000000000000
#062320:00000000000000000000000013330033
#062360:0000000000000034
#063320:25
#0633a1:1400002400000000
#063361:00000054000000000000000000000000
#063321:0000000000000013
#064361:0034240000000000
#0643a0:00142400
#064360:0000005400000000
#0643b0:00000013
#064360:0000000000000054
#065390:25
#065321:1400002400000000
#065361:00000054000000000000000000000000
#0653b1:0000000000000013
#066361:0034240000000000
#066320:00142400
#066360:0000005400000000
#067380:1300002300000000
#0673a0:00003454340000000000000000000000
#068350:1300002300000000
#068320:00003454340000000000000000000000
#0693b0:0000001300000000
#069380:0000000000230000
#070370:0000000000000013
#0713b0:0023000000000000
#071360:00130000
#071320:0000002300000000
#072370:0000000000000013
#0733b0:0023000000000000
#0733b0:0000000013230000
#073351:0000000013230000
#073321:0000000000001323
#073380:0000000000001323
#074360:0000000000000013
#075320:0023000000000000
#075370:00130000
#0753b0:0000002300000000
#076320:0000000000000013
#077360:0023000000000000
#078380:00140000
#0783a0:00000034
#0793c0:00323232
#0803c0:00320032
#0813c0:00323222
#078341:00140000
#078321:00000034
#079321:00323232
#080321:00320032
#081321:00323222
