This file was generated by Ched 2.7.0.0.
#TITLE ""
#ARTIST ""
#DESIGNER ""
#DIFFICULTY 0
#PLAYLEVEL
#SONGID ""
#WAVE ""
#WAVEOFFSET 0
#JACKET ""
#REQUEST "ticks_per_beat 480"
#00002: 4
#BPM01: 148
#00008: 01
#TIL00: ""
#VOLUME: ""
#HISPEED 00
#MEASUREHS 00
#00215:00000013
#0021a:0000000000000024
#00218:23232300
#00418:00130000
#00412:0000001300000000
#00415:0013000000130000
#0041b:0013
#00515:00130000
#00518:0000001300001300
#00512:0000000013130013
#0061b:0013000000000000
#00615:00130000
#00618:0000001300130000
#00612:0013
#0081b:23130000
#00818:0013
#00815:00000013
#00812:23
#00810:41
#00912:1313
#00918:0013001300130000
#00915:00130013
#0091b:0000000000000013
#01018:0013
#01115:0000000000130000
#01118:00000013
#01112:0000000000000013
#01218:0013000000000000
#01315:00130013
#01318:0000001300130000
#01312:0013
#0131b:0000000000000013
#01418:0013
#01415:0000000000130000
#01612:23130000
#01615:0000000013000013
#01618:00000013
#0161b:23
#01610:41
#0171b:0013000000000013
#01715:00130013
#01718:0000001300130000
#01712:0013
#02015:0000000000000013
#02018:00000013
#0211b:0013000000000013
#02115:00130013
#02118:0000001300130000
#02112:0013
#01812:13
#01818:00130000
#01815:0000001300000000
#02212:13
#02218:0013000000000000
#02215:0000130000000024
#0221b:0000001300000000
#0281b:1313000000000013
#02812:00130013
#02818:0000001300130000
#02815:0013
#02915:0013000000000000
#02918:0000130000000014
#03015:00000013
#03012:0013
#03018:0000000000130000
#03016:0000000000000024
#03013:2464000000000000
#03019:0000246400000000
#03212:0000000013000013
#03215:0000000000130000
#03218:00000013
#0321a:24
#03210:41
#03315:00000013
#0331b:00000013
#03314:00240000
#03318:0024
#0341b:0000000013000013
#03418:0000000000130000
#03415:00000013
#03412:24
#03518:0000240000000013
#03514:0024
#03615:0013000000130013
#03618:00130013
#0361b:0000001300000000
#03612:23
#03718:0013000000000013
#0371b:13
#03715:00130000
#03712:0000001300000000
#03818:0000000000130013
#03815:23000013
#03812:00130000
#03912:00000014
#0391b:0033330000000000
#04018:0000000000130000
#0401b:23000013
#04015:2300000013000013
#0411b:00000013
#04115:00000013
#04112:00240000
#0411a:0024
#04218:1300000013000013
#04215:0000000000130000
#04212:13000013
#04712:13
#04715:0000130000130013
#04718:00000013
#0471f:11
#0471b:23
#0591b:0013
#05915:0000000000130000
#05918:0014000000001300
#05912:1400240000000013
#05914:0014000000000000
#0591a:14240000
#0591f:00210000
#0601b:13
#06018:0013001300000000
#06015:0000130000000013
#06010:41
#06112:1300000000000023
#0611b:2313
#06118:0000000000130013
#06115:00000013
#06212:00000014
#0621b:0033330000000000
#0641b:00000013
#06415:00000013
#0641a:00240000
#06412:0024
#0651b:0013
#06515:0000000000130013
#06518:23000013
#06512:23
#06615:0000000000000013
#06612:00240000
#0661a:0024
#06718:0013000000130000
#06715:00130013
#06712:0000001300000000
#0671b:2300000000000013
#0691b:2300001300000000
#06918:0000130000130000
#06915:0013000000000000
#06912:0000002300000000
#0691a:00000033
#07015:0000000000130000
#0701b:0000000000000013
#07012:0023230000000013
#07018:0000002323000000
#07112:00130000
#07118:0000001300000000
#07115:0000000013130013
#0711b:00000013
#07218:0013130000130000
#07212:0000001300000013
#07215:0013
#0721b:0000000000000023
#07318:00130000
#07315:0000001300000000
#0731b:0000000013130000
#07312:0000000000001313
#0751b:00130000
#07515:0000001300000000
#07518:0000000013130013
#07512:00000013
#07615:0013130000130000
#0761b:0000001300000000
#07618:0013
#07612:0000000000000024
#0761a:0000000000000024
#0191b:0000000000130000
#01918:00000013
#01915:0000000000000013
#0231b:00000013
#02312:00000013
#03112:001c000000002400
#03118:00000013
#03116:00340000
#04418:0013000000130013
#04415:00130013
#04412:0000001300000000
#0441b:23
#04410:41
#04515:0013000000000013
#04512:13
#04518:00130000
#0451b:0000001300000000
#0461b:13
#04615:0013000000000013
#04618:00130013
#04612:0000001300000000
#0481b:1333003300000000
#04817:00130000
#04812:0000000000130000
#04815:00000013
#04818:0000000000000013
#0491b:2300000000130000
#04918:00000013
#04915:1333003300000013
#04912:00130000
#05018:1333003300000013
#0501b:00130000
#05012:0000000000130000
#05015:00000013
#05112:1313
#05115:0013001300001300
#05118:0000130000130013
#0511b:2313
#0521b:1313
#05218:0013001300001300
#05215:0000130000130013
#05212:2313
#06812:13
#06815:0013001300000000
#06818:0000130000000013
#07418:0000000000130000
#07412:0000000000000013
#0741b:0023230000000013
#07415:0000002323000000
#04315:0000000000000013
#0431a:00240000
#04312:0024
#06312:0013
#06318:0000000000130013
#06315:23000013
#0631b:23
#0551a:13
#05519:0015
#05512:23
#05713:13
#05712:0015
#0571b:23
#05718:0023
#00312:0024000000000000
#0531a:24
#05312:0000002400000000
#05318:00000024
#02714:00000024
#02718:00000033000000000000000000000000
#05414:0024000000000000
#05416:0024
#05615:23000023
#05612:0023
#05618:0023
#0561b:00000023
#0581b:23
#05818:0000000023000023
#05815:00000000000000000000002300000000
#07712:00000024
#0771a:0000000000000024
#07814:00240000
#0781a:00240000
#0251b:00000033000000000000000000000000
#02412:00000033000000000000000000000000
#02410:41
#02615:00000033000000000000000000000000
#08112:00000053
#08117:00000053
#0025a:0000000000000014
#00352:0014000000000000
#00358:00000013
#02452:0014
#0255a:0014
#02754:00000014
#02758:0014
#02952:0000000000130000
#0345b:0000000000000063
#03452:64
#03858:0000000000000063
#03855:53
#03852:00530000
#0395a:0014
#03952:00000014
#04055:5300000000000063
#0405b:53
#04258:6300000000000053
#04252:63
#04752:63
#04755:00230000
#0535a:14
#05352:0000001400000000
#05358:00000014
#05454:0014000000000000
#05456:0014
#06058:0000006300000000
#0605b:0000000000130000
#06152:63
#06155:00130000
#06158:0000000000000063
#06252:00000014
#0625a:0014
#0695b:0000005300000000
#06958:0000000000230000
#0705b:0000000000000053
#07252:0000000000000063
#02255:0000000000000014
#01252:0013
#02654:0014
#03056:0000000000000054
#03152:002c000000000000
#03156:0000001400000000
#0325a:54
#03252:0000000000000053
#03752:0000005300000000
#03755:0000000000130000
#0455b:0000006300000000
#04558:0000000000130000
#04652:0000005300000000
#0485b:63
#04857:00230000
#05058:53
#0505b:00230000
#04955:63
#04952:00230000
#06855:0000005300000000
#06852:0000000000130000
#07452:0000000000000063
#07652:0000000000000054
#0765a:0000000000000064
#07854:00540000
#0785a:00540000
#01052:00130000
#03558:00140000
#03554:0014
#03354:00140000
#03358:0014
#04152:00140000
#0415a:0014
#0435a:00140000
#04352:0014
#06555:0000000000000063
#06552:53
#06558:53
#06652:00140000
#0665a:0014
#06358:0000000000000053
#0635b:63
#06355:63
#0645a:00140000
#06452:0014
#0555a:53
#05559:0025
#05952:54340000
#05954:0024000000000000
#0595a:64440000
#05958:0024000000000000
#05753:63
#05752:0025
#0033b0:0013
#003380:0000000000532300
#004380:0000000000000013
#0053b0:5323000000000000
#006320:0000000000000013
#007350:00000023
#0063b1:0000000000000013
#007381:00000023
#010351:13
#010321:0053230000000000
#010321:0000000000130000
#010351:0000000000005323
#010380:0000000000000013
#0113b0:5323
#012350:00130000
#012320:0000005323000000
#0123b0:0000000000000013
#013380:5323000000000000
#014350:13
#014320:0053230000000000
#014320:0000000000000013
#015350:0023
#0143b1:0000000000000013
#015381:0023
#0183b1:0013
#018381:0000000000330023
#018350:0000000000000013
#019320:5323
#020320:00130000
#020350:0000005323000000
#020381:00130000
#0203b1:0000005323000000
#022321:0013
#022351:00000000000000000000003400002400
#024351:13
#024321:00000033000034002400000000000000
#025381:13
#0253b1:00000033000000000000000000000000
#0253a1:0000003424000000
#026321:13
#026351:00000033000000000000000000000000
#026341:0000003424000000
#0273b1:13
#027381:00000033000034002400000000000000
#029321:0000001300230000
#030331:1424000000000000
#030391:0000142400000000
#030361:0000000000000014
#031321:003c000000000000
#031361:0000342400000000
#0323a1:14
#032371:0000002400000000
#032321:0000000000000013
#033341:0034240000000000
#034321:14
#034351:0000002400000000
#0343b1:0000000000000013
#035381:0034240000000000
#037321:0000001300000000
#037351:0000000000230000
#038351:1323
#038321:00330000
#038381:0000000000000013
#0393b1:0033330000000000
#0393a1:0000003424000000
#0403b1:13
#040381:0000002300000000
#040350:13
#040320:0000002300000000
#040350:0000000000000013
#041320:0034240000000000
#042380:13
#0423b0:0000002300000000
#042321:13
#042351:0000002300000000
#042381:0000000000000013
#0433a1:0034240000000000
#0453b1:0000001300000000
#045381:0000000000230000
#046321:0000001300000000
#046351:0000000000230000
#047321:1323
#047351:00530000
#0483b1:1333003323000000
#048371:00330000
#049351:1333003323000000
#049321:00330000
#050381:1333003323000000
#0503b1:00330000
#0553a1:13
#055391:0055
#0563a1:23
#057331:13
#057321:0055
#058331:23
#059321:14240000
#059341:0054000000000000
#0593a0:14240000
#059380:0054000000000000
#060380:0000001300000000
#0603b0:0000000000230000
#061320:13
#061350:00230000
#061380:0000000000000013
#0623b0:0033330000000000
#0623a0:0000003424000000
#063350:13
#063320:0000002300000000
#0633b1:13
#063381:0000002300000000
#063381:0000000000000013
#0643a1:0034240000000000
#065381:13
#0653b1:0000002300000000
#065320:13
#065350:0000002300000000
#065350:0000000000000013
#066320:0034240000000000
#068350:0000001300000000
#068320:0000000000230000
#0693b0:0000001300000023
#069380:0000000000330000
#0693a0:00000033
#0703b0:0000000000000013
#071380:0023000000000000
#072320:0000000000000013
#073350:0023000000000000
#074320:0000000000000013
#075350:0023000000000000
#076320:0000000000000014
#077340:0024
#0763a1:0000000000000014
#077381:0024
#0783a1:00140000
#081371:00000023
#078340:00140000
#081320:00000023
