This file was generated by Ched 2.7.0.0.
#TITLE ""
#ARTIST ""
#DESIGNER ""
#DIFFICULTY 0
#PLAYLEVEL
#SONGID ""
#WAVE ""
#WAVEOFFSET 0
#JACKET ""
#REQUEST "ticks_per_beat 480"
#00002: 4
#BPM01: 192
#00008: 01
#TIL00: ""
#VOLUME: ""
#HISPEED 00
#MEASUREHS 00
#01312:1414
#07212:14
#07218:0014
#07210:41
#0631a:14
#06314:00140000
#06318:0014
#06312:00000014
#0641a:14
#06414:00140000
#06418:0014
#06412:00000014
#0671a:14
#06714:00140000
#06718:0014
#06712:00000014
#07314:14
#0731a:0014
#07412:14
#07418:0014
#07514:14
#0751a:0014
#07614:14
#07718:14
#07812:14
#07818:0000000000000066
#06212:0016
#06218:16
#06018:1414
#06014:00140000
#06012:0000000000000066
#05914:14
#05818:0014
#0561a:00000014
#05614:0014
#05618:00140000
#05612:14
#0551a:0014
#05512:14
#05414:0014
#0541a:00000014
#05412:14
#05418:00240000
#05118:0016
#05112:1600000000000056
#05110:41
#05018:14
#04914:0014
#04714:00140014
#04718:0014
#0471a:14
#04612:0014
#0461a:14
#04514:00140014
#04518:0014
#0451a:24
#04318:1414
#04314:00140000
#04312:0000000000000066
#04214:14
#0411a:0014
#03918:00140014
#03914:0014
#03912:14
#0381a:0014
#03812:14
#03810:00410000
#03718:00140014
#03714:0014
#03712:24
#0371f:21
#02914:14
#02912:0034
#02818:00000014
#02814:0014
#02718:14
#0271a:0034
#02514:14
#0251f:11
#02512:0034
#0141a:1414
#0121a:0014
#01214:14
#01118:0014
#01112:14
#0101a:0014
#01014:14
#00918:0014
#00912:14
#0011a:14
#00114:0014
#00218:14
#00212:0014
#0031a:14
#00314:0014
#00418:14
#00412:0014
#01514:1414
#0211a:1414
#02212:1414
#02012:0014
#02018:14
#01914:0014
#0191a:14
#01812:0014
#01818:14
#01714:0014
#0171a:14
#01710:41
#02318:1414
#06612:0016
#06618:16
#08014:24
#0651a:24240000
#06512:00002424
#0051a:24
#00510:41
#02618:0024
#02614:00000024
#03018:0024
#03014:00000024
#06818:24
#06110:0041
#06112:0066006600000000
#05212:0056005600000000
#05218:0000000000000066
#08412:64
#04412:0066006600000000
#05318:0066006600000000
#07918:0066006600000000
#0695a:14
#07654:64
#07758:54
#07852:54
#08054:64
#06252:0016
#06258:16
#05954:64
#05158:0016
#05152:16
#05058:54
#04254:64
#02954:64
#02758:54
#02554:64
#00858:0000001600000000
#04152:14
#0495a:14
#05852:14
#06858:54
#06652:0016
#06658:16
#03658:0016
#0053a0:14
#006380:34
#0073a0:34
#007380:0000000000000036
#008380:0036002600000000
#016340:1424
#024380:1424
#025340:14
#025320:0034
#026320:24
#027380:14
#0273a0:0034
#0283a0:24
#029340:14
#029320:0034
#030320:24
#0313a0:1424
#032320:1424
#033380:14
#035380:0000000000000036
#036380:0036003626000000
#040320:14
#040340:0034
#041320:24
#042340:14
#042320:0024
#0483a0:14
#048380:0034
#0493a0:24
#050380:14
#0503a0:0024
#057320:14
#057340:0034
#058320:24
#059340:14
#059320:0024
#068380:14
#0693a0:24
#076340:14
#076320:0024
#077380:14
#0773a0:0024
#078320:14
#078340:0024
#080340:14
#084320:24
#043920:0000000000000016
#044920:0000002600000000
#051920:0000000000000016
#052920:0000002600000000
#052980:0000000000000016
#053980:0000002600000000
#060920:0000000000000016
#061920:0000002600000000
#078980:0000000000000016
#079980:0000002600000000
