This file was generated by Ched 2.7.0.0.
#TITLE " "
#ARTIST ""
#DESIGNER ""
#DIFFICULTY 0
#PLAYLEVEL
#SONGID ""
#WAVE ""
#WAVEOFFSET 0
#JACKET ""
#REQUEST "ticks_per_beat 480"
#00002: 4
#BPM01: 90.75
#BPM02: 141
#BPM03: 86
#BPM04: 84
#BPM05: 85
#00008: 01
#00708: 02
#00508: 0304000005000000
#TIL00: ""
#VOLUME: ""
#HISPEED 00
#MEASUREHS 00
#0151a:14
#01510:41
#0161a:14
#01714:14
#01814:14
#01918:14
#02018:14
#02112:14
#02212:14
#02414:14
#02712:14
#02818:14
#0321a:14
#03114:0014
#0311f:11
#0311a:24
#03312:14
#03318:0014
#03412:14
#03618:00000014
#03718:00000014
#03714:00140000
#03914:00000016000000000000000000000000
#03910:41
#03812:000000260000000016000000
#0381f:000021
#04018:00160016
#04116:00160000
#04212:00160000
#04218:00000016
#04318:00160000
#04312:00000016
#04412:00160000
#04618:000000260000000016000000
#04512:00000016
#04712:00000016
#04812:00160000
#04818:00000016
#04918:00160000
#04912:00000016
#05018:00160000
#05012:00000016
#05118:00000016
#05212:00000016
#05318:00000016
#05514:00000014
#05518:00140000
#05618:00140000
#05614:00000014
#05718:00000014
#06612:00000016
#0231a:24
#02310:41
#03518:26
#03512:00000026
#05414:00000024
#05410:00000041
#05812:00000026
#05918:00260000
#05912:00000026
#06312:00000026
#06418:00000026
#06512:00260000
#06518:00000026
#03010:0041
#00710:41
#00614:00540000
#06912:0054
#03954:00000026000000000000000000000000
#03852:000056
#04156:00260000
#04058:00000066
#04658:000066
#05052:00000056
#05158:00000066
#05252:00000056
#05358:00000066
#05758:00000064
#05654:00000054
#06652:00000056
#001380:14
#0013a0:00000034
#002380:0034
#0033a0:00240000
#004320:14
#004340:00000034
#005320:0034
#006340:00240000
#0073a0:14
#0083a0:24
#009320:14
#010320:24
#011380:14
#012380:24
#013340:14
#014340:24
#0253a0:14
#026380:24
#029320:14
#030340:24
#038320:000000160000000036000000
#039340:00000056000000000000000000000000
#039320:00000026
#040380:00000016
#041360:00560000
#041380:00000026
#044380:00000016
#045380:00260000
#046380:000000160000000036000000
#047360:00260000
#050320:00000016
#051320:00240000
#051380:00000016
#0523a0:00240000
#052320:00000016
#053320:00240000
#053380:00000016
#0543a0:00240000
#056340:00000014
#057320:00240000
#057380:00000014
#0583a0:00240000
#060380:00000014
#061380:00240000
#061330:00000015
#062330:00250000
#062380:00000016
#063380:00260000
#063320:00000016
#064320:00260000
#066320:00000016
#069320:0024
