This file was generated by Ched 2.7.0.0.
#TITLE ""
#ARTIST ""
#DESIGNER ""
#DIFFICULTY 0
#PLAYLEVEL
#SONGID ""
#WAVE ""
#WAVEOFFSET 0
#JACKET ""
#REQUEST "ticks_per_beat 480"
#00002: 4
#BPM01: 145
#00008: 01
#TIL00: ""
#VOLUME: ""
#HISPEED 00
#MEASUREHS 00
#0011a:14
#00114:0014
#0021a:14
#00214:0014
#00318:14
#00312:0014
#00418:14
#00412:0014
#0051a:14
#00514:0014
#00618:14
#00612:0014
#0071a:14
#00714:0014
#00818:14
#00912:1414
#0111a:1414
#01314:1414
#01310:41
#01712:14
#01718:00140000
#01714:0014
#0191a:14
#01914:00140000
#01918:0014
#02112:14
#02118:00140000
#02114:0014
#02518:14
#02514:00140000
#0251a:0014
#02618:14
#02714:14
#02718:00140000
#02712:0014
#02814:14
#02918:14
#02914:00140000
#0291a:0014
#03018:14
#03314:1414
#03318:00140014
#0331f:11
#03412:14140000
#03518:1414
#03514:00140014
#0361a:14140000
#03714:1414
#03718:00140014
#03812:14
#03816:00140000
#03912:14
#03914:00140000
#03918:0014
#0391a:00000014
#04114:00140000
#04118:2614
#04112:00000014
#0411f:00210000
#04110:00000041
#04312:14
#04318:00140000
#04314:0014
#0431a:00000014
#0451a:14
#04514:00140000
#04518:0014
#04512:00000014
#04618:14
#04614:00140000
#0461a:0014
#04612:00000014
#04718:1400000000000014
#0471a:0000001400000000
#04918:00140000
#04914:0014
#0491a:00000014
#04912:26
#0511a:14
#05114:00140000
#05118:0014
#05112:00000014
#05312:14
#05318:00140000
#05314:0014
#0531a:00000014
#05414:14
#05418:00140000
#05412:0014
#0541a:00000014
#05410:41
#05514:0016
#05512:26
#0571a:14
#05714:00140000
#05812:14
#05818:00140000
#05918:14
#05914:00140000
#06014:14
#06018:00140000
#0611a:14
#06116:00140000
#06110:41
#06212:14
#06216:00140000
#0631a:14
#06412:14
#0651a:14
#06512:00140000
#06518:00001414
#06514:0000000000140000
#06612:14
#0661a:00140000
#06614:00001414
#06618:0000000000140000
#0671a:14140000
#06712:00001414
#0681a:14
#06812:00140000
#06818:00001414
#06814:0000000000140000
#06912:14
#0691a:00140000
#06914:00001414
#06918:0000000000140000
#0701a:14
#07012:00140000
#07018:00001414
#07014:0000000000140000
#07112:14140000
#0711a:00001414
#07212:14
#0721a:00140000
#07214:00001414
#07218:0000000000140014
#04012:26
#07312:26
#03210:41
#02310:41
#00858:14
#01754:0064
#01958:0054
#02154:0064
#0255a:0064
#02658:24
#02752:0054
#02854:24
#0295a:0064
#03058:24
#0425a:0014
#04452:0014
#0485a:0000001400000000
#04758:6400000000000064
#0475a:0000006400000000
#05052:0014
#0525a:0014
#05554:0026
#05552:66
#05652:16
#06358:0000001400000000
#0635a:64
#06452:54
#06454:0000001400000000
#010320:1424
#0123a0:1424
#014340:1424
#015380:14
#0153a0:0034
#016380:34
#0163a0:0024
#017340:0014
#018320:0024
#019380:0014
#0203a0:0024
#021340:0014
#022320:0024
#023390:14
#024390:0024
#023331:14
#024331:0024
#0253a1:0014
#026381:54
#0263a1:0024
#027321:0014
#028341:54
#028321:0024
#0293a1:0014
#030381:54
#0303a1:0024
#031381:14
#0323a1:0024
#031340:14
#032320:0024
#034320:00001424
#0363a0:00001424
#0383a0:00001424
#040320:1626
#0423a0:1424
#044320:1424
#047380:1400000000000034
#0473a0:0000003400000000
#0483a0:0000002400000000
#050320:1424
#0523a0:1424
#055320:16
#055340:0056
#056320:26
#057380:0000000014342400
#058340:0000000014342400
#0593a0:0000000014342400
#060320:0000000014342400
#0613a0:0000000014342400
#062320:0000000014342400
#0633a0:14
#063380:0000002400000000
#064320:14
#064340:0000002400000000
