This file was generated by Ched 2.7.0.0.
#TITLE ""
#ARTIST ""
#DESIGNER ""
#DIFFICULTY 0
#PLAYLEVEL
#SONGID ""
#WAVE ""
#WAVEOFFSET 0
#JACKET ""
#REQUEST "ticks_per_beat 480"
#00002: 4
#BPM01: 148
#00008: 01
#TIL00: ""
#VOLUME: ""
#HISPEED 00
#MEASUREHS 00
#0081a:14
#00810:41
#00914:14
#01018:14
#01112:14
#0121a:14
#01314:14
#01418:14
#01512:14
#0161a:14
#01610:41
#0171a:14
#01814:14
#01914:14
#02018:14
#02118:14
#02212:14
#02312:14
#02310:41
#0241a:1400003400000000
#0241f:11
#02612:1400003400000000
#02818:1400003400000000
#03014:1400003400000000
#03219:14
#03313:14
#03618:0016
#03612:26
#0361f:21
#03712:1616
#03710:41
#03812:0016
#03818:16
#03918:1616
#04318:16
#04312:0016
#04412:0016
#04418:26
#04518:1616
#04618:0016
#04612:16
#04712:1616
#05018:16
#05012:0016
#05118:16
#05112:0016
#05218:16
#05216:00000016
#05412:16
#05414:00000016
#05618:2616
#05612:00160000
#05712:2616
#05718:00160000
#05818:2616
#05812:00160000
#05912:2616
#05918:00160000
#06018:2616
#06014:00160000
#06112:2616
#06116:00160000
#06218:2616
#06214:00160000
#06414:16
#06410:41
#0661a:14
#06614:0014
#06718:14
#06712:0014
#06818:16
#07018:0016
#07012:26
#07118:0016
#07112:26
#06312:26
#03519:0034003400000000
#04910:41
#0245a:54
#02652:64
#02858:64
#03054:54
#05258:56
#05256:00000026
#05452:66
#05454:00000026
#06352:56
#06454:56
#06858:56
#0003a0:14
#0013a0:24
#002340:14
#003340:24
#004380:14
#005380:24
#006320:14
#007320:24
#0243a0:1400003400000000
#024380:00000034
#025380:0024
#026320:1400003400000000
#026340:00000034
#027340:0024
#028380:1400003400000000
#0283a0:00000034
#0293a0:0024
#030340:1400003400000000
#030320:00000034
#031320:0024
#034390:1400000034000034
#035390:0034003400000000
#035380:00000026
#040320:1626
#041380:1626
#042320:1626
#048380:1626
#049320:1626
#052380:16
#052360:00000056
#053380:0026
#054320:16
#054340:00000056
#055320:0026
#063320:16
#064340:36
#065320:0026
#068380:16
#069360:0026
#072320:14
#073340:34
#074330:34
#075350:34
#076350:24
