This file was generated by Ched 2.7.0.0.
#TITLE ""
#ARTIST ""
#DESIGNER ""
#DIFFICULTY 0
#PLAYLEVEL
#SONGID ""
#WAVE ""
#WAVEOFFSET 0
#JACKET ""
#REQUEST "ticks_per_beat 480"
#00002: 4
#BPM01: 148
#00008: 01
#TIL00: ""
#VOLUME: ""
#HISPEED 00
#MEASUREHS 00
#00818:1300001300130013
#00815:00001313
#0081b:00130000
#00812:00130000
#00810:41
#00912:0000001300000013
#00915:0013
#00918:0000000000130000
#0091b:00000013
#0101b:0013000000130000
#01015:0000130000000013
#01018:0000001300001300
#01012:0013
#01118:0000131300000013
#01112:0013000000001300
#01115:00000000000000000000130000330000
#0111b:0013
#0121b:00130000
#01218:0000001300000013
#01215:00001313
#01212:0000130000130000
#01312:0000130000001313
#0131b:1300130000000013
#01315:0013000000000000
#01318:0000001300000000
#0141b:00000013
#01418:0000000000000013
#01416:00000000001400000000000000000000
#01515:1300001300000000
#01512:00130000
#01518:0013
#0161b:0013000013000023
#01618:0000130000230000
#01615:0000002300001300
#01612:0023000000000013
#01610:41
#01718:00001313
#0171b:0023002300000013
#01715:0000000000230000
#01712:0000000000000023
#02012:0000130000000013
#02018:00001313
#0201b:0023000000000023
#02015:0000002300230000
#0221b:0023002300001300
#02215:00000000000000000000000000000013
#02216:00130013
#02217:0000000000230000
#02218:0000000000000023
#02318:1313
#0231b:0023001300000013
#02312:0023000000130000
#02315:00000013
#02310:41
#0251b:0013
#02512:00000013
#02516:0013
#02517:00000013
#02712:00130000
#02715:0000001300001300
#02718:0000000013000013
#0271b:0000000000130000
#02915:0000001300000013
#02918:00001313
#0291b:0000000000130000
#0331b:0013
#03318:00000000000000000000130000130013
#03315:1200000000001313
#03316:00120000
#03615:0013001300130000
#03618:00000000130000130000000013000000
#03612:2400000013000023
#0361a:24
#0361b:0000000000000023
#0361f:21
#03715:0023000000130000
#03718:0000002300001300
#0371b:0000000000000023
#03710:41
#03818:0013001300130000
#03815:00000000130000130000000013000000
#0381b:0000000013000023
#03812:2400000000000023
#03915:0000002300001300
#03912:0000000000000013
#0391b:0000000000000013
#03918:0023000000130000
#0421b:0000001300000000
#04218:0013
#04215:0000000000130000
#04212:00000013
#0421a:0000000000000014
#04216:0000000000000013
#04312:0014000000130000
#0431a:0000001400000000
#04315:00000013
#04318:0000000000000013
#04317:0013000000000000
#04316:0000001300000000
#04415:0013001300130000
#04418:00000000130000130000000013000000
#04412:2400000013000023
#0441a:24
#0441b:0000000000000023
#04618:0013001300130000
#04615:00000000130000130000000013000000
#0461b:0000000013000023
#04612:2400000000000023
#04712:00000013
#04715:1300002300000013
#04718:0000130000000013
#0471b:0023000000130000
#04815:0000000000130000
#04818:00000013
#04812:00000013000000000000000000001300
#0481b:00000013000000000000000000001300
#04912:0000131300000000
#04916:00140000000000000014000000000000
#04915:0000000000000013
#0491b:0000001300001300
#04918:0000000000000013
#04910:41
#05018:00000013
#0501b:00130000000000000000000000001300
#05015:00130000
#05012:0000000013000013
#05116:00000013
#05117:0000000000000013
#05115:0013000000130000
#0511b:0000001300000000
#00018:13
#0001a:0012
#00015:13
#00213:0012
#00218:13
#0021a:0012
#0031b:0012
#00315:13
#00314:0012
#00413:0012
#00418:13
#0041b:0012
#00412:0000000000000000000000000000000000000000000000000000000000000000000000000000000000000000000000000000000000000000000000000000000000520000000000000000000000000000000000000000000000000000000000000000000000000000000000000000000000000000000000000000000000000000
#0051b:0012
#00515:13
#00513:0012
#0051c:0000000000000000000000000000000000000000000000000000000000000000000000000000000000000000000000000000000000000000000000000000000000520000000000000000000000000000000000000000000000000000000000000000000000000000000000000000000000000000000000000000000000000000
#00614:0012
#00618:13
#0061b:0013
#00613:0000000000000000000000000000000000000000000000000000000000000000000000000000000000000000000000000000000000000000000000000000000000520000000000000000000000000000000000000000000000000000000000000000000000000000000000000000000000000000000000000000000000000000
#00612:00000000000000000000000000000000000000000000000000000000000000000052000000000000000000000000000000000000000000000000000000000000
#0071a:0012
#00715:13
#00712:0013
#0071b:0000000000000000000000000000000000000000000000000000000000000000000000000000000000000000000000000000000000000000000000000000000000520000000000000000000000000000000000000000000000000000000000000000000000000000000000000000000000000000000000000000000000000000
#0071c:00000000000000000000000000000000000000000000000000000000000000000052000000000000000000000000000000000000000000000000000000000000
#00115:13
#00114:0012
#01812:0013000013000023
#01815:0000130000230000
#01818:0000002300001300
#0181b:0023000000000013
#01915:0000131300000000
#01912:0023000000130000
#01918:0000002300000023
#0191b:0000000000230000
#0211b:0023001300000000
#02119:00130000
#02114:00000013
#02112:0000002300230013
#02117:0000000000000023
#02418:1300001300000000
#0241b:00000013000000000013000000000000
#02414:2400001400001400
#0241f:11
#02615:1300001300000000
#02612:00000013000000000013000000000000
#02618:1400001400001400
#0281b:1300001300000000
#02817:00000013000000000013000000000000
#02812:2400001400001400
#03012:1300001300000000
#03016:00000013000000000013000000000000
#0301a:1400001400001400
#03216:12
#03215:00120000
#03218:1212
#03219:00000012
#04112:00130000000000000000000000002300
#0411b:00130000000000000000000000002300
#04118:0000002300002300
#04115:0000002300000000
#04515:0023000000130000
#04518:1300002300001300
#04512:00130000
#0451b:0000000013000023
#05215:1300000000000023
#05212:00000000000000140000000000000000
#05218:2300000000000013
#0531a:00000000000000140000000000000000
#06316:00000000000000000014000000000000
#0631a:0024000000000000
#06412:00000014
#06416:24
#06410:41
#06718:00000033330013000000000000000000
#0671b:0013000000000000
#06716:0000000000230000
#0681a:00000014
#06816:24
#07518:12
#07516:22
#03117:00130000
#03116:00000012
#0651b:0013
#06512:0000000000000023
#06517:0000000000000023
#06518:0000000000230000
#06515:00000023
#03412:2400000024000026
#03414:0024000000000000
#03416:00240024
#03418:0000002400240000
#0341a:0024
#05416:22
#05418:0022002300240025
#05415:00230000
#05414:0024
#05413:00000025
#05512:2525252500000000
#05519:2525252500000000
#05515:0000000000230000
#05518:00000023
#0551b:0000000000000023
#05516:0000000000000024
#0591a:0000000000240000
#05916:0064000000002424
#05912:00000000000000000064000000000000000000000000000000000000000000000000000000000000000000000000000000000000000000002300000000000000
#0591b:0023000000000000
#05914:0000000000000000000000000000000000640000000000000000000000000000000000000000000000000000000000000000000000000000000000000000000000000000000000000000000000000000000000000000000000000000000000000000000000000000000000000000000000000000000000000000000000000000
#06016:0024000000002424
#06012:00000000000000000064000000000000000000000000000000000000000000000000000000000000240000000000000000000000000000000000000000000000
#0601b:0000000000000023
#06014:0000000000000000000000000000000000640000000000000000000000000000000000000000000000000000000000000000000000000000000000000000000000000000000000000000000000000000000000000000000000000000000000000000000000000000000000000000000000000000000000000000000000000000
#06616:0000232300000000
#06618:0000000000230023
#06615:00000023
#06912:0000000023000024
#06915:0000000000230000
#06918:00000023
#0691a:0000000000000024
#07018:0064000000230000
#07015:00000023
#07012:0000000000000000000000000000000000640000000000000000000000000000000000000000000000000000000000000000000000000000000000000000000000000000000000000000000000000000000000000000000000000000000000000000000000000000000000000000000024000000000000000000000000000000
#0701a:0000000000000000000000000000000000640000000000000000000000000000000000000000000000000000000000000000000000000000000000000000000000000000000000000000000000000000000000000000000000000000000000000000000000000000000000000000000024000000000000000000000000000000
#07014:0064000000000000
#07217:22
#0721b:22
#05612:0024000000000023
#05618:0000000000000000000000000000000000640000000000000000000000000000000000000000000000000000000000000000000000000000000000000000000000000000000000000000000000000000230000000000000000000000000000000000000000000000000000000000000000000000000000000000000000000000
#05615:00000023
#05616:0064000000000024
#0561a:00000000000000000064000000000000000000000000000000000000000000000000000000000000000000000000000000000000000000000000000000000000
#0571a:0024000000000000
#05715:0000000000230000
#05718:00000023
#0571b:0000000000000023
#05716:0064000000000024
#05714:0000000000000000000000000000000000640000000000000000000000000000000000000000000000000000000000000000000000000000000000000000000000000000000000000000000000000000000000000000000000000000000000000000000000000000000000000000000000000000000000000000000000000000
#05712:00000000000000000064000000000000000000000000000000000000000000000000000000000000000000000000000000000000000000000000000000000000
#05812:0023000000000023
#05818:0000000000000000000000000000000000640000000000000000000000000000000000000000000000000000000000000000000000000000000000000000000000000000000000000000000000000000230000000000000000000000000000000000000000000000000000000000000000000000000000000000000000000000
#05815:00000023
#05816:0064000000000024
#0581a:00000000000000000064000000000000000000000000000000000000000000000000000000000000000000000000000000000000000000000000000000000000
#06116:0024000000002424
#0611a:00000000000000000064000000000000000000000000000000000000000000000000000000000000240000000000000000000000000000000000000000000000
#06112:0000000000000023
#06118:0000000000000000000000000000000000640000000000000000000000000000000000000000000000000000000000000000000000000000000000000000000000000000000000000000000000000000000000000000000000000000000000000000000000000000000000000000000000000000000000000000000000000000
#06216:0024000000002424
#06212:00000000000000000064000000000000000000000000000000000000000000000000000000000000240000000000000000000000000000000000000000000000
#0621b:0000000000000023
#06214:0000000000000000000000000000000000640000000000000000000000000000000000000000000000000000000000000000000000000000000000000000000000000000000000000000000000000000000000000000000000000000000000000000000000000000000000000000000000000000000000000000000000000000
#03515:0026000000000000
#03518:0000002600000000
#04012:00000023
#0401b:00000023
#04018:0000000000000023
#04015:0000000000000023
#07313:22
#07419:22
#07613:52
#0761b:52
#0711a:0000000000000000000000000000000000640000000000000000000000000000000000000000000000000000000000000000000000000000000000000000000000000000000000000000000000000000000000000000000000000000000000000000000000000000000000000000000000000000000000000000000000000000
#07112:0000000000000000000000000000000000640000000000000000000000000000000000000000000000000000000000000000000000000000000000000000000000000000000000000000000000000000000000000000000000000000000000000000000000000000000000000000000000000000000000000000000000000000
#07114:0064000000000000
#07118:0064000000000000
#01552:0000000000000013
#0155b:0000000000000013
#03952:0000000000000053
#0395b:0000000000000063
#03958:0063000000000000
#03955:0000006300000000
#04755:2300001300000053
#04758:0000000000000063
#00058:53
#0005a:0022
#00155:63
#00154:0022
#00258:53
#0025a:0022
#00355:63
#00354:0022
#00458:53
#0045b:0022
#00555:63
#00553:0022
#00658:53
#0065b:0023
#00755:63
#00752:0023
#00858:1300000000000053
#00855:13
#00952:0000000000000013
#01055:0000000000000053
#01155:0000000000530013
#01158:0000005300000013
#0115b:0023
#01152:0023000000002300
#01358:0000005300000000
#01355:0053000000000000
#01352:0000230000000053
#0135b:23
#01258:0000000000000053
#01456:00000000002400000000000000000000
#01652:0000000000000053
#0185b:0000000000000063
#01955:0000005300000013
#01952:0000000000530000
#02052:0000000000000063
#0215b:0000006300000000
#02152:0000000000000053
#02256:00230000
#02454:34
#02458:5300005300000000
#0245b:00000023000000000023000000000000
#02655:6300006300000000
#02652:00000023000000000023000000000000
#02658:44
#0285b:5300005300000000
#02857:00000023000000000023000000000000
#02852:34
#03052:6300006300000000
#03056:00000023000000000023000000000000
#0305a:44000054
#03256:52
#03258:0052
#03255:00220000
#03259:00000022
#03355:52
#03356:00220000
#04152:00230000000000000000000000005300
#0415b:00230000000000000000000000000000
#04158:0000005300000000
#04155:0000005300000000
#0425a:0000000000000044
#0435a:0000004400000000
#04352:0034000000000000
#04558:2300005300000000
#04552:00230000
#0455b:0000000023000013
#04555:0053000000000000
#04852:00000023000000000000000000000000
#0485b:00000023000000000000000000005300
#04956:00240000000000000024000000000000
#04952:0000006300000000
#04958:0000000000000053
#05055:00530000
#0505b:00230000000000000000000000005300
#05052:0023
#05155:0053000000000000
#0515b:0000005300000000
#05255:5300000000000013
#05258:0000000000000053
#05252:00000000000000240000000000000000
#0535a:00000000000000240000000000000000
#05559:0000001500000000
#05552:0000001500000000
#0555b:0000000000000053
#06356:00000000000000000024000000000000
#0635a:0054000000000000
#06452:00000024
#06456:54
#0645a:44
#06557:0000000000000053
#06552:0000000000000013
#06656:0000005300000000
#06658:0000000000000053
#06756:0000000000530000
#0675b:0053000000000000
#06758:0000002300000000
#0685a:00000024
#06856:54
#06852:13
#0695a:0000000000000054
#06952:0000000000000064
#07052:0000000000000064
#0705a:0000000000000054
#07558:52
#07556:52
#05652:0000000000000063
#0575b:0000000000000053
#05852:0000000000000063
#05956:0000000000000054
#06056:0000000000000064
#06156:0000000000000054
#06256:0000000000000064
#0365a:14
#0365b:0000000000000053
#03852:1400000000000063
#0445a:14
#0445b:0000000000000053
#04652:1400000000000063
#0375b:0000000000000013
#03755:0053000000000000
#03758:0000005300000000
#03452:0000000000000016
#03555:0016000000000000
#03558:0000001600000000
#03157:00230000
#04055:0000000000000053
#04058:0000000000000053
#07459:52
#07353:52
#0725b:52
#000380:13
#0003a0:0032
#001380:23
#001351:13
#001341:0032
#002351:23
#002380:13
#0023a0:0032
#003380:23
#003351:13
#003341:0032
#004351:23
#004380:13
#0043b0:0032
#005380:23
#005351:13
#005331:0032
#006351:23
#006380:13
#0063b0:0033
#007380:23
#007351:13
#007321:0033
#008351:23
#008381:0000000000000013
#0093b1:0000002300000000
#010351:0000000000000013
#011321:0053000000000000
#011351:0000002300000000
#011380:0000001300230000
#0113b0:0053
#011351:00000000000000000000130000332300
#011321:00000053
#012381:0000000000000013
#0133b1:53
#013381:0023000000000000
#013350:0013002300000000
#013320:00530000
#013381:0000001300000000
#0133b1:00000023
#013321:0000000000000013
#014361:00000000005400000000000000000000
#014321:00000023
#015321:0000000000130023
#0153b0:0000000000130023
#016320:0000000000000013
#017360:0000002300000000
#0183b0:0000000000000013
#019380:00230000
#019350:0000001300000023
#019320:0000000000330000
#020320:0000000000000013
#021360:00230000
#0213b0:0000001300000000
#021370:00000023
#021320:0000000000000013
#022360:00530000
#022320:0000000000230000
#024380:1300003300002300
#0243b0:00000053000000000053000000000000
#026350:1300003300002300
#026320:00000053000000000053000000000000
#0283b0:1300003300002300
#028370:00000053000000000053000000000000
#030320:1300003300002300
#030360:00000053000000000053000000000000
#0303a1:00000014
#031371:00530000
#031381:00000022
#032361:1222
#032351:00520000
#032380:0012
#032390:00000052
#033380:22
#033351:1222
#033361:00520000
#0363b1:0000000000000013
#037381:0023000000000000
#037350:0013000000000000
#037320:0000002300000000
#037381:0000001300000000
#0373b1:0000000000230000
#038321:0000000000000013
#039351:0023000000000000
#039380:0013000000000000
#0393b0:0000002300000000
#039351:0000001300000000
#039321:0000000000230000
#039321:0000000000000013
#040351:0023
#0393b0:0000000000000013
#040380:0023
#040350:0000000000000013
#041320:00530000000000000000000000000000
#041350:00230000
#040381:0000000000000013
#0413b1:00530000000000000000000000000000
#041381:00230000
#041351:0000001300000000
#041321:0000000000230000
#041380:0000001300000000
#0413b0:0000000000230000
#041320:0000000000000013
#042360:0000002300000000
#0443b0:0000000000000013
#045380:53
#0453b0:0023000000000000
#045351:0013002300000000
#045321:00530000
#045380:0000001300230000
#0453b0:0053
#046320:0000000000000013
#047350:53
#047320:0023000000000000
#047350:0000000000000013
#048320:00000053000000000000000000000000
#048350:0023
#047381:0000000000000013
#0483b1:00000053000000000000000000000000
#048381:0023
#0483b1:0000000000000013
#049361:00540000000000000000000000000000
#0493b1:00230000
#049321:0000001300002300
#049361:00000000000000000054000000000000
#049381:0000000000000013
#0503b1:00530000000000000000000000000000
#050381:00230000
#050350:00130023
#050320:0053
#0503b0:0000000000000013
#051380:0023000000000000
#051351:0013000000000000
#051321:0000002300000000
#0513b0:0000001300000000
#051380:0000000000230000
#052350:1300000000000023
#052320:00000000000000540000000000000000
#052381:0000000000000013
#0533a1:00000000000000540000000000000000
#054381:23
#0553b1:0000000000000013
#056361:0024000000000000
#056321:0000000000000013
#057361:0024000000000000
#0573b1:0000000000000013
#058361:0024000000000000
#058321:0000000000000013
#059361:0024000000000000
#059361:0000000000000014
#0603b1:0023000000000000
#060361:0000000000000014
#061321:0023000000000000
#061361:0000000000000014
#0623b1:0023000000000000
#062361:0000000000000014
#063321:0024000000000000
#0633a0:0014000000000000
#063360:00000000000000000054000000000000
#0643a0:24
#064361:14
#064321:00000054
#065361:0024
#065371:0000000000000013
#0663b1:0000002300000000
#066360:0000001300000000
#066320:0000000000230000
#066380:0000000000000013
#0673b0:0033000000230000
#067380:00000033330053000000000000000000
#067361:0000000000130000
#068321:23
#068360:14
#0683a0:00000054
#069360:0024
#0693a0:0000000000000014
#070380:0024000000000000
#069321:0000000000000014
#070341:0024000000000000
#070321:0000000000000014
#071341:0024000000000000
#0703a0:0000000000000014
#071380:0024000000000000
#0723b0:12
#073370:22
#073331:12
#074371:22
#074390:12
#075380:32
#0763b0:22
#075361:12
#076331:22
#004930:0012
#004920:0000000000000000000000000000000000000000000000000000000000000000000000000000000000000000000000000000000000000000000000000000000000220000000000000000000000000000000000000000000000000000000000000000000000000000000000000000000000000000000000000000000000000000
#0059b0:0012
#0059c0:0000000000000000000000000000000000000000000000000000000000000000000000000000000000000000000000000000000000000000000000000000000000220000000000000000000000000000000000000000000000000000000000000000000000000000000000000000000000000000000000000000000000000000
#006940:0012
#006920:00000000000000000000000000000000000000000000000000000000000000000022000000000000000000000000000000000000000000000000000000000000
#0079a0:0012
#0079c0:00000000000000000000000000000000000000000000000000000000000000000022000000000000000000000000000000000000000000000000000000000000
#056960:0014000000000000
#0569a0:00000000000000000024000000000000000000000000000000000000000000000000000000000000000000000000000000000000000000000000000000000000
#057960:0014000000000000
#057920:00000000000000000024000000000000000000000000000000000000000000000000000000000000000000000000000000000000000000000000000000000000
#058960:0014000000000000
#0589a0:00000000000000000024000000000000000000000000000000000000000000000000000000000000000000000000000000000000000000000000000000000000
#059960:0014000000000000
#059920:00000000000000000024000000000000000000000000000000000000000000000000000000000000000000000000000000000000000000000000000000000000
#060960:0014000000000000
#060920:00000000000000000024000000000000000000000000000000000000000000000000000000000000000000000000000000000000000000000000000000000000
#061960:0014000000000000
#0619a0:00000000000000000024000000000000000000000000000000000000000000000000000000000000000000000000000000000000000000000000000000000000
#062960:0014000000000000
#062920:00000000000000000024000000000000000000000000000000000000000000000000000000000000000000000000000000000000000000000000000000000000
