This file was generated by Ched 2.7.0.0.
#TITLE ""
#ARTIST ""
#DESIGNER ""
#DIFFICULTY 0
#PLAYLEVEL
#SONGID ""
#WAVE ""
#WAVEOFFSET 0
#JACKET ""
#REQUEST "ticks_per_beat 480"
#00002: 4
#BPM01: 167
#00008: 01
#TIL00: "87'1436:10000, 87'1437:1"
#VOLUME: ""
#HISPEED 00
#MEASUREHS 00
#00018:14
#00218:14
#00414:14
#00614:14
#00918:16
#01012:16
#01112:16
#01618:16
#01718:16
#01812:16
#01912:16
#02418:14
#02410:41
#02514:14
#02618:14
#02714:14
#0281a:14
#02912:14
#03318:14
#03414:14
#03518:14
#03612:14
#0371a:14
#04118:14
#04214:14
#04312:14
#04414:14
#04518:14
#04818:0016
#04812:26
#0481f:21
#05012:0016
#05018:16
#05010:41
#05212:1616
#05418:1616
#05612:0016
#05618:16
#05818:0016
#05812:16
#05512:1616
#06018:1616
#06212:1616
#06318:1616
#07214:14
#07210:41
#07314:14
#07418:14
#07518:14
#07118:14
#0801a:14
#0811a:14
#08212:14
#08312:14
#07914:14
#0401f:11
#0401a:24
#00718:26
#00712:0026
#00818:26
#00810:41
#03214:24
#03210:41
#06412:26
#06418:0026
#06410:41
#06512:26
#06518:0026
#06612:26
#06818:26
#07612:26
#0841a:24
#08412:24
#012380:16
#013380:26
#014320:16
#015320:26
#020380:16
#021380:26
#022320:16
#023320:26
#0303a0:14
#0313a0:24
#038320:14
#039320:24
#0463a0:14
#0473a0:24
#049320:1626
#051380:1626
#053320:1626
#057380:1626
#059320:1626
#061380:1626
#066320:16
#067320:26
#068380:16
#070380:26
#076320:16
#078320:26
#0879d0:000000000000000000000000000000000000000000000000000000000000000000000000000000000000000000000000000000000000000000000000000000000000000000000000000000000000000000000000000000000000000000000000000000000000000000000000000000000000000000000000000000000000000000000000000000000000000000000000000000000000000000000000000000000000000000000000000000000000000000000000000000000000000000000000000000000000000000000000000000000000000000000000000000000000000000000000000000000000000000000000000000000000000000000000000000000000000000000000000000000000000000000000000000000000000000000000000000000000000000000000000000000000000000000000000000000000000000000000000000000000000000000000000000000000000000000000000000000000000000000000000000000000000000000000000000000000000000000000000000000000000000000000000000000000000000000000000000000000000000000000000000000000000000000000000000000000000000000000000000000000000000000000000000000000000000000000000000000000000000000000000000000000000000000000000000000000000000000000000000000000000000000000000000000000000000000000000000000000000000000000000000000000000000000000000000000000000000000000000000000000000000000000000000000000000000000000000000000000000000000000000000000000000000000000000000000000000000000000000000000000000000000000000000000000000000000000000000000000000000000000000000000000000000000000000000000000000000000000000000000000000000000000000000000000000000000000000000000000000000000000000000000000000000000000000000000000000000000000000000000000000000000000000000000000000000000000000000000000000000000000000000000000000000000000000000000000000000000000000000000000000000000000000000000000000000000000000000000000000000000000000000000000000000000000000000000000000000000000000000000000000000000000000000000000000000000000000000000000000000000000000000000000000000000000000000000000000000000000000000000000000000000000000000000000000000000000000000000000000000000000000000000000000000000000000000000000000000000000000000000000000000000000000000000000000000000000000000000000000000000000000000000000000000000000000000000000000000000000000000000000000000000000000000000000000000000000000000000000000000000000000000000000000000000000000000000000000000000000000000000000000000000000000000000000000000000000000000000000000000000000000000000000000000000000000000000000000000000000000000000000000000000000000000000000000000000000000000000000000000000000000000000000000000000000000000000000000000000000000000000000000000000000000000000000000000000000000000000000000000000000000000000000000000000000000000000000000000000000000000000000000000000000000000000000000000000000000000000000000000000000000000000000000000000000000000000000000000000000000000000000000000000000000000000000000000000000000000000000000000000000000000000000000000000000000000000000000000000000000000000000000000000000000000000000000000000000000000000000000000112100000000000000000000000000000000000000000000000000000000000000000000000000000000000000000000000000000000000000000000000000000000000000000000000000000000000000000000000000000000000000000000000000000000000000000000000000000000000000000000000000000000000000000000000000000000000000000000000000000000000000000000000000000000000000000000000000000000000000000000000000000000000000000000000000000000000000000000000000000000000000000000000000000000000000000000000000000000000000000000000000000000000000000000000000000000000000000000000000000000000000000000000000000000000000000000000000000000000000000000000000000000000000000000000000000000000000000000000000000000000000000000000000000000000000000000000000000000000000000000000000000000000000000000000000000000000000000000000000000000000000000000000000000000000000000000000000000000000000000000000000000000000000000000000000000000000000000000000000000000000000000000000000000000000000000000000000000000000000000000000000
