This file was generated by Ched 2.7.0.0.
#TITLE ""
#ARTIST ""
#DESIGNER ""
#DIFFICULTY 0
#PLAYLEVEL
#SONGID ""
#WAVE ""
#WAVEOFFSET 0
#JACKET ""
#REQUEST "ticks_per_beat 480"
#00002: 4
#BPM01: 167
#00008: 01
#TIL00: ""
#VOLUME: ""
#HISPEED 00
#MEASUREHS 00
#03416:0000131300000000
#03415:0000000000001313
#03417:13
#0341a:0000000000130000
#08416:14
#01018:00130013
#01015:0000001300001300
#01012:13
#0101b:0013
#01112:13130000
#01118:0000001300000000
#0111b:00130000
#01115:0000001300000000
#01512:1300000000130000
#01515:00000013000000000000000000000000
#0151b:1300001300000000
#0151a:00000014
#02412:13130000
#02418:0000001300000000
#02415:0000000013130000
#0241b:0013
#02417:2400000000000013
#02410:41
#02612:1314
#0261b:13
#02618:0000131300000000
#0261a:0000000000000014
#02616:00000000000000000000001400000000
#0291b:0013000000001313
#02916:0013000000000000
#02917:0000001300000000
#02912:0000001300000000
#02915:00000000000000000013000000000000
#03118:0000000000130000
#03115:00000013
#03112:1400140000000013
#0311a:14140000
#0311b:0013
#03215:0000001300000000
#0321b:0000000013130000
#03212:0013
#03218:00130000
#0321a:24
#03210:41
#0331b:00000013
#03315:0000001300000000
#03312:00000000000000000013000000001300
#03512:0000000013000013
#03515:1300000000130000
#03518:13000013
#0351b:0000000013000013
#03612:0013000000130013
#03617:0013000000130013
#03717:0000000000000013
#0371b:0013000000130000
#03716:0013000000130000
#03712:0000000000000013
#04012:1400000013130000
#04018:0000000000130000
#0401a:14
#04014:00130000
#04019:00130000
#04015:0000000000000013
#0401b:0000000000000013
#0401f:11
#0441b:0000000013000013
#04418:0000000000130000
#04415:00000013
#04412:0000000013000013
#05018:00130000
#05012:1400000013130000
#0501b:0000000013130013
#0501a:14
#05015:00000013
#05016:0000000000000014
#05010:41
#0521b:00130000
#05212:0000131300000000
#05218:0000000000130000
#05216:0000000000000014
#05213:14
#05219:14
#05312:00140000000000001300130000000000
#0531a:00140000
#0531b:0013
#05318:00000013
#05315:0000000000000013
#05414:0000000000130000
#05417:00000013
#05418:0013000000000000
#05412:0000001300000000
#0541a:0000000000000014
#00018:1313000000000000
#00015:0000001300000000
#0001b:0000000013130000
#00012:0000000000000013
#00118:13
#00112:00130000
#00113:00000000005300000000000000005300
#00114:0000005300005300
#00115:00000000000000530000530000000000
#00116:0053
#00218:1313000000000000
#00215:0000001300000000
#0021b:0000000013130000
#00212:5300000000000013
#00318:13000000000000530000530000000000
#0031b:00130000
#0031a:00000000005300000000000000005300
#00319:0000005300005300
#00317:0053
#00415:1313000000000000
#00418:0000001300000000
#00412:0000000013130000
#0041b:5300000000000013
#00515:13
#0051b:00130000
#0051a:00000000005300000000000000005300
#00519:0000005300005300
#00518:00000000000000530000530000000000
#00517:0053
#00615:1313000000000000
#00618:0000001300000000
#00612:0000000013130000
#0061b:5300000000000013
#0081b:13000013
#00815:0000130000000013
#00818:0000001300000000
#00812:0013
#00810:41
#00918:1300001300001300
#00915:0000130000130000
#00912:00000013
#0091b:0013
#0121b:13130000
#01212:13130000
#01215:0013000000000000
#01218:0000001300130013
#01312:13130000
#0131b:13130000
#01318:0013000000000000
#01315:0000001300130013
#01418:0013000013000000
#0141b:13000000000013000000001300000000
#01415:00000000000000000000001300000000
#01412:0013000013000013
#0181b:00130000
#01818:0000001300001300
#01812:1313
#01815:00000013
#0191b:13130000
#01915:0000001300000000
#01912:00130000
#01918:0000001300000000
#01612:13
#0161b:0000130000000013
#01618:0000001300001300
#01615:0013
#0171b:00130000
#01718:0000001300001300
#01712:13001313
#01715:0000000000130000
#02012:1300001300000000
#0201b:13
#02015:0000000000130013
#0211b:1300001300000000
#02112:13
#02118:0000000000130013
#02215:0013000013000000
#02212:13000000000013000000001300000000
#02218:00000000000000000000001300000000
#0221b:0013000013000013
#02312:1300001300001300
#02318:0013000013000000
#02315:0000130000130000
#0231b:00130000
#0251a:0013000000000000
#02517:0000001300000000
#02515:0000000000000013
#02716:13
#02712:0000001300000000
#0271b:0000000000000013
#02815:13
#0281b:0000000000130000
#02818:00130000
#02812:0000001300000013
#02817:0000000000000013
#03018:00000000001300000000000000000000
#03816:0013000000000000
#0381b:0013000000000000
#03817:0000000000000023
#04118:0013000000000000
#04112:0013000000130000
#04116:0000001300000000
#0411b:0000001300000000
#04117:0000000000130000
#0421b:0000000013130000
#04215:0000000000130000
#04217:00130000
#04212:0000130000000013
#04218:0000000000000013
#04315:0013000000000000
#0431b:0013000000130000
#04317:0000001300000000
#04312:0000001300000000
#04316:0000000000130000
#04518:0013130000000000
#04512:0013
#0451b:0013
#0461b:0000131300000013
#04615:00001313
#04618:0000000000130000
#04612:0000000000000013
#04718:0013001300000000
#04715:00130000
#04714:0024
#04713:00000025
#04815:0000001300000000
#0481b:0000000013130000
#04812:2600130000130013
#04818:26130000
#04816:0000000000000014
#0481f:21
#0491b:0000001300000000
#04916:0000001400000000
#05512:0014000000140000
#05516:14000000140000001400000000140000
#0551a:0000001400000000
#0611b:0000000013130013
#0611a:00140000000000000000000000000000
#06112:00141300
#06115:00000013
#06212:0000000000130000
#06215:0013000000000000
#06218:0000001300000013
#05615:0000001300000000
#05612:2400130013000014
#0561b:0000000013130000
#05618:00130000
#05616:0000000000000014
#0561a:24
#0571a:0014000000140000
#05717:00000000000000000000001300000000
#05716:000000000000000000000000000000000000000000000000000000000000000000000000000000000000000000000000000000000000000000000000000000000000000000000000000000000000000000000000000000000000000000000000000000000000000000000000000000000000000000000000000000000000000000000000000000000000000000000000000000000000000000000000000000000000000000000000000000000000000000000000000000000000000000000000000000000000000000000000000000000000000000000000000000000000000000000000000000000000000000000000140000000000000000000000000000000000000000000000000000000000000000000000000000000000000000000000000000000000000000000000000000000000000000000000000000000000000000000000000000000000000000000000000000000000000000000000000000000000000000000000000000000000000000000000000000000000000000000000000000000000000000000000000000000000000000000000000000000000000000000000000000000000000000000000000000000000000000000000000000000000000000000000000000000000000000000000000000000000000000000000000000000000000000000000000000000000000000000000000000000000000000000000000000000000000000000000000000000000000000000000000000000000000000000000000000000000000000000000000000000000000000000000000000000000000000000000000000000000000000000000000000000000000000000000000000000000000000000000000000000000000000000000000000000000000000000000000000000000000000000000000000000000000000000000000000000000000000000000000000000000000000000000000000000000000000000000000000000000000000000000000000000000000000000000000000000000000000000000000000000000000000000000000000000000000000000000000000000000000000000000000000000000000000000000000000000000000000000000000000000000000000000000000000000000000000000000000000000000000000000000000000000000000000000000000000000000000000000000000000000000000000000000000000000000000000000000000000000000000000000000000000000000000000000000000000000000000000000000000000000000000000000000000000000000000000000000000000000000000000000000000000000000000000000000000000000000000000000000000000000000000000000000000000000000000000000000000000000000000000000000000000000000000000000000000000000000000000000000000000000000000000000000000000000000000000000000000000000000000000000000000000000000000000000000000000000000000000000000000000000000000000000000000000000000000000000000000000000000000000000000000000000000000000000000000000000000000000000000000000000000000000000000000000000000000000000000000000000000000000000000000000000000000000000000000000000000000000000000000000000000000000000000000000000000000000000000000000000000000000000000000000000000000000000000000000000000000000000000000000000000000000000000000000000000000000000000000000000000000000000013000000000000000000000000000000000000000000000000000000000000000000000000000000000000000000000000000000000000000000000000000000000000000000000000000000000000000000000000000000000000000000000000000000000000000000000000000000000000000000000000000000000000000000000000000000000000000000000000000000000000000000000000000000000000000000000000000000000000000000000000000000000000000000000000000000000000000000000000000000000000000000000000000000000000000000000000000000000000000000000000000000000000000000000000000000000000000000000000000000000000000000000000000000000000000000000000000000000000000000000000000000000000000000000000000000000000000000000000000000000000000000000000000000000000000000000000000000000000000000000000000000000000000000000000000000000000000000000000000000000000000000000000000000000000000000000000000000000000000000000000000000000000000000000000000000000000000000000000000000000000000000000000000000000000000000000000000000000000000000000000000000000000000000000000000000000000000000000000000000000000000000000000000000000000000000000000000000000000000000000000000000000000000000000000000000000000000000000000000000000000000000000000000000000000000000000000000000000000000000000000
#05718:0000001400000000
#05714:0000001400000000
#05712:0000000000140000
#0601b:00130000
#06018:1300001300000000
#06016:0000000000000014
#06012:13
#06015:0000130000130000
#05818:0000001300000000
#0581b:00131313
#05812:0013
#05815:00130000
#05816:0000000000000014
#0581a:0000000000000014
#05916:0000001400000000
#05912:0000001400000000
#06314:0000000013130000
#06319:0000000013130000
#0631a:0000000000000014
#06316:0000000000000014
#06412:0014000000240014
#06416:0014001400000000
#0641a:0000002400240000
#06410:41
#06516:1400002400240000
#06512:0000141400000000
#0651a:0000000000140000
#06515:0000000000000013
#06518:0000000000000023
#0671a:0000000014000014
#06718:00000014
#06714:0000000000002414
#06712:0024
#07018:00130013
#07015:0000001300001300
#07012:1313
#0701b:1313
#07112:13000000130000000013000000000000
#07118:0000001300000000
#0711b:00000000130000000013000000000000
#07115:0000001300000000
#0721b:13130000
#07212:13130000
#07215:0013000000000013
#07218:0000001300130000
#07210:41
#07312:13130000
#0731b:13130000
#07318:0013000000000013
#07315:0000001300130000
#07415:0013
#07412:13000000000000000000001300000000
#07418:00000000000000000000001300000000
#0741b:0013
#07512:0000001314000014
#0751b:13
#07514:00000014
#07515:13
#07518:0000000000002414
#0751a:0024
#07812:13130013
#07818:0000001300001300
#0781b:1313
#07815:0013
#07918:13000000000000000013000000000000
#07919:00130000
#07914:00130000
#0791b:0000001300000000
#07912:0000001300000000
#07915:00000000000000000013000000000000
#0801b:1300001300000000
#08012:13
#08018:0000000000130013
#08112:1300001300000000
#0811b:13
#08115:0000000000130013
#08218:0013
#0821b:13000000000000000000001300000000
#08215:00000000000000000000001300000000
#08212:0013
#08315:0013000000000000
#08318:0000001300001300
#05112:0000001300000000
#05116:0000001400000000
#06812:0014000000000000
#06816:0024000000000000
#0761a:0014000000000000
#07616:0024000000000000
#00715:23
#00712:00002626
#00718:0000230000260024
#00714:00000000000000000000000000000024
#03912:00002363
#0391b:0063006300000000
#03918:00630000
#03915:0000000000630063
#08712:0052
#06912:00000069
#0691b:00000063
#07715:00000069
#07712:00000063
#08456:64
#01158:0000005300000000
#0115b:00000013
#01155:0000006300000000
#01152:00000013
#01552:63
#01555:00000023000000000000000000000000
#0155b:0000005300000000
#0155a:00000014
#02457:1400000000000053
#02455:0000000000530000
#03757:0000001300000063
#0375b:0063000000130000
#03756:0063000000130000
#03752:0000001300000000
#04052:14
#0405a:14
#04055:0000000000000063
#0405b:0000000000000053
#0425a:14
#04256:14
#04258:0000000000000053
#04252:0000000000000063
#04858:16
#04852:1600000000000053
#0485b:0000000000530000
#04856:0000000000000054
#00752:00001616
#00758:0000630000160000
#00755:53
#0085b:53
#00852:0063
#00958:63000053
#01052:63
#0105b:0063
#01058:00000023
#01458:0063
#0145b:00000000000000000000006300000000
#01452:0063000000000000
#01955:0000006300000000
#01958:0000005300000000
#01952:00000013
#0195b:00000013
#01652:63
#01655:0053
#01758:00000053
#01752:63
#01852:6353
#01855:00000023
#02255:0053
#02252:00000000000000000000005300000000
#0225b:0053000000000000
#0255a:0053000000000000
#02557:0000005300000000
#02652:53
#02752:0000005300000000
#02756:53
#02855:63
#02852:0000005300000000
#02952:0000005300000000
#02955:00000000000000000023000000000000
#0295b:0000000000000063
#03058:00000000002300000000000000000000
#0325a:14
#0325b:0000000000530000
#03355:0000006300000000
#03352:00000000000000000023000000000000
#03457:63
#03456:0000005300000000
#03558:63
#03555:53
#0355b:0000000000000053
#03652:0053000000130063
#03657:0053000000130000
#0365b:0000001300000000
#03656:0000001300000000
#03856:0063000000000000
#0385b:0053000000000000
#03857:0000000000000063
#04158:0053000000000000
#04152:0063000000630000
#04156:0000006300000000
#0415b:0000005300000000
#04157:0000000000530000
#04355:0063000000000000
#0435b:0053000000530000
#04357:0000005300000000
#04352:0000006300000000
#04356:0000000000630000
#04452:1400000000000063
#04456:14
#04552:0053
#0455b:0053
#04558:00530000
#04652:16
#04658:16
#04754:0014
#04753:00000015
#04758:0000005300000000
#04956:0013006400000000
#0495b:0000006300000000
#04957:0000000000130000
#04952:0000000000140000
#0495a:0014000000000000
#05258:0000000000530000
#05252:0000005300000000
#05256:0000000000000064
#05352:00240000000000000000000000000000
#05356:00140000
#0535a:00140000
#05355:0000000000000063
#05458:0053000000000000
#0545a:0000000000000064
#05552:0054000000540000
#05556:24000000240000002400000000240000
#0555a:0000006400000000
#05652:1400000000000014
#0565a:14
#05656:0000000000000014
#0575a:0014000000640000
#05757:00000000000000000000002300000000
#05756:000000000000000000000000000000000000000000000000000000000000000000000000000000000000000000000000000000000000000000000000000000000000000000000000000000000000000000000000000000000000000000000000000000000000000000000000000000000000000000000000000000000000000000000000000000000000000000000000000000000000000000000000000000000000000000000000000000000000000000000000000000000000000000000000000000000000000000000000000000000000000000000000000000000000000000000000000000000000000000000000140000000000000000000000000000000000000000000000000000000000000000000000000000000000000000000000000000000000000000000000000000000000000000000000000000000000000000000000000000000000000000000000000000000000000000000000000000000000000000000000000000000000000000000000000000000000000000000000000000000000000000000000000000000000000000000000000000000000000000000000000000000000000000000000000000000000000000000000000000000000000000000000000000000000000000000000000000000000000000000000000000000000000000000000000000000000000000000000000000000000000000000000000000000000000000000000000000000000000000000000000000000000000000000000000000000000000000000000000000000000000000000000000000000000000000000000000000000000000000000000000000000000000000000000000000000000000000000000000000000000000000000000000000000000000000000000000000000000000000000000000000000000000000000000000000000000000000000000000000000000000000000000000000000000000000000000000000000000000000000000000000000000000000000000000000000000000000000000000000000000000000000000000000000000000000000000000000000000000000000000000000000000000000000000000000000000000000000000000000000000000000000000000000000000000000000000000000000000000000000000000000000000000000000000000000000000000000000000000000000000000000000000000000000000000000000000000000000000000000000000000000000000000000000000000000000000000000000000000000000000000000000000000000000000000000000000000000000000000000000000000000000000000000000000000000000000000000000000000000000000000000000000000000000000000000000000000000000000000000000000000000000000000000000000000000000000000000000000000000000000000000000000000000000000000000000000000000000000000000000000000000000000000000000000000000000000000000000000000000000000000000000000000000000000000000000000000000000000000000000000000000000000000000000000000000000000000000000000000000000000000000000000000000000000000000000000000000000000000000000000000000000000000000000000000000000000000000000000000000000000000000000000000000000000000000000000000000000000000000000000000000000000000000000000000000000000000000000000000000000000000000000000000000000000000000000000000000000000000000000023000000000000000000000000000000000000000000000000000000000000000000000000000000000000000000000000000000000000000000000000000000000000000000000000000000000000000000000000000000000000000000000000000000000000000000000000000000000000000000000000000000000000000000000000000000000000000000000000000000000000000000000000000000000000000000000000000000000000000000000000000000000000000000000000000000000000000000000000000000000000000000000000000000000000000000000000000000000000000000000000000000000000000000000000000000000000000000000000000000000000000000000000000000000000000000000000000000000000000000000000000000000000000000000000000000000000000000000000000000000000000000000000000000000000000000000000000000000000000000000000000000000000000000000000000000000000000000000000000000000000000000000000000000000000000000000000000000000000000000000000000000000000000000000000000000000000000000000000000000000000000000000000000000000000000000000000000000000000000000000000000000000000000000000000000000000000000000000000000000000000000000000000000000000000000000000000000000000000000000000000000000000000000000000000000000000000000000000000000000000000000000000000000000000000000000000000000000000000000000000000
#05758:0000001400000000
#05754:0000001400000000
#05752:0000000000540000
#06058:0000005300000000
#06056:0000000000000054
#06055:0000000000630000
#0615a:00240000000000000000000000000000
#06152:00140000
#0615b:0000000000000063
#06156:00140000
#05859:15
#05852:15
#05856:0000000000000054
#0585a:0000000000000064
#05956:0014006400140000
#05952:0014005400000000
#0595a:0000000000140000
#06255:0063000000000000
#06258:0000005300000000
#06252:0000000000130000
#0625b:0000000000130000
#0635a:0000000000000054
#06452:0064000000140000
#06456:0054006400000000
#0645a:0000001400140000
#06556:5400001400140000
#06558:0000000000000063
#06552:0000001400000000
#0655a:0000000000140000
#06555:0000000000000053
#06752:16
#06758:16
#06754:0000000000000054
#06856:0054000000000000
#06852:0054000000000000
#07158:0000005300001300
#07155:0000006300001300
#07152:00000000000000000023000000000000
#0715b:00000000000000000023000000000000
#07052:63
#0705b:0063
#07058:00000023
#07455:0053
#07452:53000000000000000000005300000000
#07458:00000000000000000000006300000000
#0755b:53
#07558:0000000000000064
#07656:0064000000000000
#0765a:0064000000000000
#0785b:53
#07855:0063
#07852:00000023
#0795b:0000006300001300
#07958:00000000000000000023000000000000
#07952:0000005300001300
#07955:00000000000000000023000000000000
#08258:0063
#0825b:63000000000000000000006300000000
#08255:00000000000000000000005300000000
#08358:00000053
#0505b:0000000000000063
#05056:0000000000000064
#05157:0013000000000000
#05152:0014005300000000
#05156:0000005400130000
#0515a:0000000000140000
#007350:13
#007320:00260000
#007381:00132600
#0083b1:13
#008381:00230000
#008321:0013
#008351:00000023
#009381:13
#0093b1:00230000
#009381:00000013
#0103b1:23
#010320:13
#010350:00230000
#0103b0:0013
#010380:00000053
#0113b0:23
#011380:0000001300000000
#0113b0:00000023
#011351:0000001300000000
#011321:00000023
#012321:0000000013230000
#012351:0000000000001323
#0133b1:0000000013230000
#013381:0000000000001323
#014321:0013000000000000
#014351:0000002300000000
#014381:0000000013000023
#0143b1:00000000000000000000003300000000
#015321:1300002300000000
#015351:00000053000000000000000000000000
#0153b0:0000001300000000
#015380:0000000000230000
#016320:13
#016350:00230000
#016350:0013
#016320:00000023
#017320:13
#017350:00230000
#017380:00000013
#0183b0:23
#018321:13
#018351:00230000
#018321:0013
#018351:00000053
#019321:23
#019351:0000001300000000
#019321:00000023
#019380:0000001300000000
#0193b0:00000023
#020350:0013230000000000
#0203b1:0000132300000000
#020381:0000000013230000
#0203b1:0000000000001323
#021381:0013230000000000
#021320:0000132300000000
#021350:0000000013230000
#021320:0000000000001323
#0223b0:0013000000000000
#022380:0000002300000000
#022350:0000000013000023
#022320:00000000000000000000003300000000
#0233b0:00000013
#024370:24
#024350:0000000000130000
#024320:0000000000000023
#024371:0000000000000013
#0253a1:0033000000000000
#025371:0000003300000000
#0253b1:00000023
#026321:13
#026351:00230000
#027361:13000023
#027321:0000333300000000
#028351:13
#028321:00230000
#028321:0000001300000000
#028351:0000000000230000
#029321:0000001300002300
#029351:00000000000000000053000000000000
#0293b1:0000000000000013
#030381:00000000005300000000000000000000
#0303b1:00000023
#0323b1:0000000000130000
#032381:0000000000000023
#032350:0000000000000013
#032320:00000000000000000000000000000053
#033320:0023000000000000
#033381:0013000000000000
#0333b1:00000053000023000000000000000000
#033350:0000001300002300
#033320:00000000000000000053000000000000
#034370:13
#0343b0:00230000
#034360:0000001300000000
#034320:0000000000230000
#035380:13
#0353b0:00230000
#035351:13
#035321:00230000
#0353b1:0000000000000013
#036371:0033000000000000
#0363b1:0000002300000000
#036320:0013000000000000
#036360:0000002300000000
#036320:0000000000000013
#037360:0033000000000000
#037320:0000002300000000
#0373b1:0013000000000000
#037371:0000002300000000
#037371:0000000000000013
#0383b1:0033000000000000
#038371:00000023
#038360:0013000000000000
#038320:00000023
#0403b0:0000000000000013
#041380:0033000000000000
#0413b0:0000003300000000
#041370:0000000000330000
#0423a0:24
#040351:0000000000000013
#041321:0033000000330000
#041361:0000003300000000
#042361:24
#042321:0000000000000013
#043351:0033000000000000
#043321:0000003300000000
#043361:0000000000330000
#044321:24
#042380:0000000000000013
#0433b0:0033000000330000
#043370:0000003300000000
#044360:24
#044320:0000000000000013
#045350:0023000000000000
#045380:00130033
#0453b0:0033
#046380:26
#045321:0013
#045351:00000033
#046321:26
#047381:0000001300000000
#048381:26
#0483b1:0000000000130000
#048361:0000000000000034
#0493a1:0024000000000000
#048320:0000000000000013
#049360:0023000000000000
#0493b0:0000001300000000
#049370:0000000000230000
#049361:0000001400000000
#049321:0000000000240000
#0503b1:0000000000000013
#051371:0023000000000000
#050360:0000000000000014
#051320:0024000000000000
#051320:0000001300000000
#051360:0000000000230000
#051361:0000001400000000
#0513a1:0000000000240000
#052321:0000001300000000
#052351:00000000000000530000230000000000
#052380:0000000000130000
#0523b0:00000000000000000000005300002300
#052361:0000000000000014
#053321:00540000000000000000000000000000
#053361:00240000
#053351:0000000000000013
#053321:00000000000000000000000000000053
#054321:0023000000000000
#054380:0013000000000000
#0543b0:00000053000023000000000000000000
#0543a0:0000000000000014
#055360:54
#0553a0:0024000000000000
#055321:0014002400000000
#055361:00540000
#0553a0:0000001400240000
#055360:0054
#055321:0000000000140000
#055361:00000000000000000000000000540000
#056321:24
#0573a1:0000000000140000
#057371:00000000000000000000005300000000
#058391:25
#057320:0000000000140000
#057360:000000000000000000000000000000000000000000000000000000000000000000000000000000000000000000000000000000000000000000000000000000000000000000000000000000000000000000000000000000000000000000000000000000000000000000000000000000000000000000000000000000000000000000000000000000000000000000000000000000000000000000000000000000000000000000000000000000000000000000000000000000000000000000000000000000000000000000000000000000000000000000000000000000000000000000000000000000000000000000000000000000000000000000000000000000000000000000000000000000000000000000000000000000000000000000000000000000000000000000000000000000000000000000000000000000000000000000000000000000000000000000000000000000000000000000000000000000000000000000000000000000000000000000000000000000000000000000000000000000000000000000000000000000000000000000000000000000000000000000000000000000000000000000000000000000000000000000000000000000000000000000000000000000000000000000000000000000000000000000000000000000000000000000000000000000000000000000000000000000000000000000000000000000000000000000000000000000000000000000000000000000000000000000000000000000000000000000000000000000000000000000000000000000000000000000000000000000000000000000000000000000000000000000000000000000000000000000000000000000000000000000000000000000000000000000000000000000000000000000000000000000000000000000000000000000000000000000000000000000000000000000000000000000000000000000000000000000000000000000000000000000000000000000000000000000000000000000000000000000000000000000000000000000000000000000000000000000000000000000000000000000000000000000000000000000000000000000000000000000000000000000000000000000000000000000000000000000000000000000000000000000000000000000000000000000000000000000000000000000000000000000000000000000000000000000000000000000000000000000000000000000000000000000000000000000000000000000000000000000000000000000000000000000000000000000000000000000000000000000000000000000000000000000000000000000000000000000000000000000000000000000000000000000000000000000000000000000000000000000000000000000000000000000000000000000000000000000000000000000000000000000000000000000000000000000000000000000000000000000000000000000000000000000000000000000000000000000000000000000000000000000000000000000000000000000000000000000000000000000000000000000000000000000000000000000000000000000000000000000000000000000000000000000000000000000000000000000000000000000000000000000000000000000000000000000000000000000000000000000000000000000000000000000000000000000000000000000000000000000000000000000000000000000000000000000000000000000000000000000000000000000000000000000000000000000000000000000000000000000000053000000000000000000000000000000000000000000000000000000000000000000000000000000000000000000000000000000000000000000000000000000000000000000000000000000000000000000000000000000000000000000000000000000000000000000000000000000000000000000000000000000000000000000000000000000000000000000000000000000000000000000000000000000000000000000000000000000000000000000000000000000000000000000000000000000000000000000000000000000000000000000000000000000000000000000000000000000000000000000000000000000000000000000000000000000000000000000000000000000000000000000000000000000000000000000000000000000000000000000000000000000000000000000000000000000000000000000000000000000000000000000000000000000000000000000000000000000000000000000000000000000000000000000000000000000000000000000000000000000000000000000000000000000000000000000000000000000000000000000000000000000000000000000000000000000000000000000000000000000000000000000000000000000000000000000000000000000000000000000000000000000000000000000000000000000000000000000000000000000000000000000000000000000000000000000000000000000000000000000000000000000000000000000000000000000000000000000000000000000000000000000000000000000000000000000000000000000000000000000000000
#058320:25
#0583a0:0000000000000014
#059360:0024000000000000
#058361:0000000000000014
#059321:0024000000000000
#059321:0000001400000000
#059361:0000000000240000
#059360:0000001400000000
#0593a0:0000000000240000
#060380:0000001300000000
#0603b0:00000000000000530000230000000000
#060351:0000000000130000
#060321:00000000000000000000005300002300
#060360:0000000000000014
#0613a0:00540000000000000000000000000000
#061360:00240000
#0613b0:0000000000000013
#061380:00000000000000000000000000000053
#062380:0023000000000000
#062351:0013000000000000
#062321:00000053000023000000000000000000
#062380:0000001300000000
#0623b0:00000000000000530000230000000000
#063320:13230000
#0633b1:13230000
#0633a1:0000000000000014
#064361:0034000000000000
#0643a1:0000002400000000
#064320:0014000000240000
#064360:0000003400000000
#065360:14
#0653a0:00240000
#065380:0000000000000013
#067380:26
#065351:0000000000000013
#067321:26
#067341:0000000000000014
#068321:0034000000000000
#069321:00000029
#068360:0014000000000000
#0693b0:00000023
#070320:13
#070350:00230000
#0703b0:0013
#070380:00000053
#0713b0:23
#071380:0000001300002300
#0713b0:00000000000000000053000000000000
#071351:0000001300002300
#071321:00000000000000000053000000000000
#072321:0000000013230000
#0723b1:0000000000001323
#0733b1:0000000013230000
#073321:0000000000001323
#074321:13
#074351:0033002300000000
#0743b0:0013002300000000
#074350:0000000013000023
#074320:00000000000000000000003300000000
#074381:00000000000000000000001300000000
#0743b1:0000000000000023
#0753b1:13
#075371:0000002300000000
#075381:0000000000000014
#0763a1:0034000000000000
#077351:00000029
#076360:0014000000000000
#077320:00000023
#0783b0:13
#078380:00230000
#078350:0013
#078320:00000053
#079350:23
#0793b0:0000001300002300
#079380:00000000000000000053000000000000
#079321:0000001300002300
#079351:00000000000000000053000000000000
#080381:0013230000000000
#080320:0000132300000000
#080350:0013
#080320:0000000000230000
#080320:00000013
#080350:0000000000000023
#081350:0013230000000000
#0813b1:0000132300000000
#081381:0013
#0813b1:0000000000230000
#0813b1:00000013
#081381:0000000000000023
#0823b1:13
#082381:0033002300000000
#082320:0013002300000000
#082380:0000000013000023
#0823b0:00000000000000000000003300000000
#082351:00000000000000000000001300000000
#082321:0000000000000023
#0833b1:13230000
#083320:00132300
#0833b1:0013
#083381:0000000000230000
#083350:0000000000130000
#083320:00000023
#083381:00000013
#0843a1:24
#084360:14
#087320:0022
#001920:000000000000000000000000000000000000000000000000000000000000000000000000000000000000000000000000000000000000000000000000000000000000000000000000000000000000000000000000000000000000000000000000000000000000000000000000000000000000000000000000000000000000000000000000000000000000000000000000000000000000000000000000000000000000000000000000000000000000000000000000000000000000000000000000000000000000000000000000000000000000000000000000000000000000000000000000000000000000000000000000000000000000000000000000000000000000000000000000000000000000000000000000000000000000000000000000000000000000000000000000000000000000000000000000000000000000000000000000000000000000000000000000000000000000000000000000000000000000000000000000000000000000000000000000000000000000000000000000000000000000000000000000000000000000000000000000000000000000000000000000000000000000000000000000000000000000000000000000000000000000000000000000000000000000000000000000000000000000000000000000130000000000000000000000000000000000000000000000000000000000000000000000000000000000000000000000000000000000000000000000000000000000000000000000000000000000000000000000000000000000000000000000000000000000000000000000000000000000000000000000000000000000000000000000000000000000000000000000000000000000000000000000000000000000000000000000000000000000000000000000000000000000000000000000000000000000000000000000000000000000000000000000000000000000000000000000000000000000000000000000000000000000000000000000000000000000000000000000000000000000000000000000000000000000000000000000000000000000000000000000000000000000000000000000000000000000000000000000000000000000000000000000000000000000000000000000000000000000000000000000000000000000000000000000000000000000000000000000000000000000000000000000000000000000000000000000000000000000000000000000000000000000000000000000000000000000000000000000000000000000000000000000000000000000000000000000000000000000000000000000000000000000000000000000000000000000000000000000000000000000000000000000000000000000000000000000000000000000000000000000000000000000000000000000000000000000000000000000000000000000000000000000000000000000000000000000000000000000000000000000000000000000000000000000000000000000000000000000000000000000000000000000000000000000000000000000000000000000000000000000000000000000000000000000000000000000000000000000000000000000000000000000000000000000000000000000000000000000000000000000000000000000000000000000000000000000000000000000000000000000000000000000000000000000000000000000000000000000000000000000000000000000000000000000000000000000000000000000000000000000000000000000000000000000000000000000000000000000000000000000000000000000000000000000000000000000000000000000000000000000000000000000000000000000000000000000000000000000000000000000000000000000000000000000000000000000000000000000000000000000000000000000000000000000000000000000000000000000000000000000000000000000000000000000000000000000000000000000000000000000000000000000000000000000000000000000000000000000000000000000000000000000000000000000000000000000000000000000000000000000000000000000000000000000000000000000000000000000000000000000000000000000000000000000000000000000000000000000000000000000000000000000000000000000000000000000000000000000000000000000000000000000000000000000000000000000000000000000000000000000000000000000000000000000000000000000000000000000000000000000000000000000000000000000000000000000000000000000000000000000000000000000000000000000000000000000000000000000000000000000000000000000000000000000000000000000000000000000000000000000000000000000000000000000000000000000000000000000000000000000000000000000000000000000000000000000000000000000000000000000000000000000000000000000000000000000000000000000000000000000000000000000000000000000000000000000000000000000000000000000000000000000000000000000000000000000000000000000000000005353
#001960:0053
#002920:23
#0039b0:000000000000000000000000000000000000000000000000000000000000000000000000000000000000000000000000000000000000000000000000000000000000000000000000000000000000000000000000000000000000000000000000000000000000000000000000000000000000000000000000000000000000000000000000000000000000000000000000000000000000000000000000000000000000000000000000000000000000000000000000000000000000000000000000000000000000000000000000000000000000000000000000000000000000000000000000000000000000000000000000000000000000000000000000000000000000000000000000000000000000000000000000000000000000000000000000000000000000000000000000000000000000000000000000000000000000000000000000000000000000000000000000000000000000000000000000000000000000000000000000000000000000000000000000000000000000000000000000000000000000000000000000000000000000000000000000000000000000000000000000000000000000000000000000000000000000000000000000000000000000000000000000000000000000000000000000000000000000000000000000130000000000000000000000000000000000000000000000000000000000000000000000000000000000000000000000000000000000000000000000000000000000000000000000000000000000000000000000000000000000000000000000000000000000000000000000000000000000000000000000000000000000000000000000000000000000000000000000000000000000000000000000000000000000000000000000000000000000000000000000000000000000000000000000000000000000000000000000000000000000000000000000000000000000000000000000000000000000000000000000000000000000000000000000000000000000000000000000000000000000000000000000000000000000000000000000000000000000000000000000000000000000000000000000000000000000000000000000000000000000000000000000000000000000000000000000000000000000000000000000000000000000000000000000000000000000000000000000000000000000000000000000000000000000000000000000000000000000000000000000000000000000000000000000000000000000000000000000000000000000000000000000000000000000000000000000000000000000000000000000000000000000000000000000000000000000000000000000000000000000000000000000000000000000000000000000000000000000000000000000000000000000000000000000000000000000000000000000000000000000000000000000000000000000000000000000000000000000000000000000000000000000000000000000000000000000000000000000000000000000000000000000000000000000000000000000000000000000000000000000000000000000000000000000000000000000000000000000000000000000000000000000000000000000000000000000000000000000000000000000000000000000000000000000000000000000000000000000000000000000000000000000000000000000000000000000000000000000000000000000000000000000000000000000000000000000000000000000000000000000000000000000000000000000000000000000000000000000000000000000000000000000000000000000000000000000000000000000000000000000000000000000000000000000000000000000000000000000000000000000000000000000000000000000000000000000000000000000000000000000000000000000000000000000000000000000000000000000000000000000000000000000000000000000000000000000000000000000000000000000000000000000000000000000000000000000000000000000000000000000000000000000000000000000000000000000000000000000000000000000000000000000000000000000000000000000000000000000000000000000000000000000000000000000000000000000000000000000000000000000000000000000000000000000000000000000000000000000000000000000000000000000000000000000000000000000000000000000000000000000000000000000000000000000000000000000000000000000000000000000000000000000000000000000000000000000000000000000000000000000000000000000000000000000000000000000000000000000000000000000000000000000000000000000000000000000000000000000000000000000000000000000000000000000000000000000000000000000000000000000000000000000000000000000000000000000000000000000000000000000000000000000000000000000000000000000000000000000000000000000000000000000000000000000000000000000000000000000000000000000000000000000000000000000000000000000000000000000000000005353
#003970:0053
#0049b0:23
#0059b0:000000000000000000000000000000000000000000000000000000000000000000000000000000000000000000000000000000000000000000000000000000000000000000000000000000000000000000000000000000000000000000000000000000000000000000000000000000000000000000000000000000000000000000000000000000000000000000000000000000000000000000000000000000000000000000000000000000000000000000000000000000000000000000000000000000000000000000000000000000000000000000000000000000000000000000000000000000000000000000000000000000000000000000000000000000000000000000000000000000000000000000000000000000000000000000000000000000000000000000000000000000000000000000000000000000000000000000000000000000000000000000000000000000000000000000000000000000000000000000000000000000000000000000000000000000000000000000000000000000000000000000000000000000000000000000000000000000000000000000000000000000000000000000000000000000000000000000000000000000000000000000000000000000000000000000000000000000000000000000000000130000000000000000000000000000000000000000000000000000000000000000000000000000000000000000000000000000000000000000000000000000000000000000000000000000000000000000000000000000000000000000000000000000000000000000000000000000000000000000000000000000000000000000000000000000000000000000000000000000000000000000000000000000000000000000000000000000000000000000000000000000000000000000000000000000000000000000000000000000000000000000000000000000000000000000000000000000000000000000000000000000000000000000000000000000000000000000000000000000000000000000000000000000000000000000000000000000000000000000000000000000000000000000000000000000000000000000000000000000000000000000000000000000000000000000000000000000000000000000000000000000000000000000000000000000000000000000000000000000000000000000000000000000000000000000000000000000000000000000000000000000000000000000000000000000000000000000000000000000000000000000000000000000000000000000000000000000000000000000000000000000000000000000000000000000000000000000000000000000000000000000000000000000000000000000000000000000000000000000000000000000000000000000000000000000000000000000000000000000000000000000000000000000000000000000000000000000000000000000000000000000000000000000000000000000000000000000000000000000000000000000000000000000000000000000000000000000000000000000000000000000000000000000000000000000000000000000000000000000000000000000000000000000000000000000000000000000000000000000000000000000000000000000000000000000000000000000000000000000000000000000000000000000000000000000000000000000000000000000000000000000000000000000000000000000000000000000000000000000000000000000000000000000000000000000000000000000000000000000000000000000000000000000000000000000000000000000000000000000000000000000000000000000000000000000000000000000000000000000000000000000000000000000000000000000000000000000000000000000000000000000000000000000000000000000000000000000000000000000000000000000000000000000000000000000000000000000000000000000000000000000000000000000000000000000000000000000000000000000000000000000000000000000000000000000000000000000000000000000000000000000000000000000000000000000000000000000000000000000000000000000000000000000000000000000000000000000000000000000000000000000000000000000000000000000000000000000000000000000000000000000000000000000000000000000000000000000000000000000000000000000000000000000000000000000000000000000000000000000000000000000000000000000000000000000000000000000000000000000000000000000000000000000000000000000000000000000000000000000000000000000000000000000000000000000000000000000000000000000000000000000000000000000000000000000000000000000000000000000000000000000000000000000000000000000000000000000000000000000000000000000000000000000000000000000000000000000000000000000000000000000000000000000000000000000000000000000000000000000000000000000000000000000000000000000000000000000000000000000005353
#005970:0053
#0069b0:23
#038970:0000000000000013
#0399b0:000000000000000000000000000000000000000000000000000000000000000000000000000000000000000000000000000000000000000000000000000000000000000000000000000000000000000000000000000000000000000000000000000000000000000000000000000000000000000000000000000000000000000000000000000000000000000000000000000000000000000000000000000000000000000000000000000000000000000000000000000000000000000000000000000000000000000000000000000000000000000000000000000000000000000000000000000000000000000000000000530000000000000000000000000000000000000000000000000000000000000000000000000000000000000000000000000000000000000000000000000000000000000000000000000000000000000000000000000000000000000000000000000000000000000000000000000000000000000000000000000000000000000000000000000000000000000000000000000000000000000000000000000000000000000000000000000000000000000000000000000000000000000000000000000000000000000000000000000000000000000000000000000000000000000000000000000000000000000000000000000000000000000000000000000000000000000000000000000000000000000000000000000000000000000000000000000000000000000000000000000000000000000000000000000000000000000000000000000000000000000000000000000000000000000000000000000000000000000000000000000000000000000000000000000000000000000000000000000000000000000000000000000000000000000000000000000000000000000000000000000000000000000000000000000000000000000000000000000000000000000000000000000000000000000000000000000000000000000000000053230000000000000000000000000000000000000000000000000000000000000000000000000000000000000000000000000000000000000000000000000000000000000000000000000000000000000000000000000000000000000000000000000000000000000000000000000000000000000000000000000000000000000000000000000000000000000000000000000000000000000000000000000000000000000000000000000000000000000000000000000000000000000000000000000000000000000000000000000000000000000000000000000000000000000000000000000000000000000000000000000000000000000000000000000000000000000000000000000000000000000000000000000000000000000000000000000000000000000000000000000000000000000000000000000000000000000000000000000000000000000000000000000000000000000000000000000000000000000000000000000000000000000000000000000000000000000000000000000000000000000000000000000000000000000000000000000000000000000000000000000000000000000000000000000000000000000000000000000000000000000000000000000000000000000000000000000000000000000000000000000000000000000000000000000000000000000000000000000000000000000000000000000000000000000000000000000000000000000000000000000000000000000000000000000000000000000000000000000000000000000000000000000000000000000000000000000000000000000000000000000000000000000000000000000000000000000000000000000000000000000000000000000000000000000000000000000000000000000000000000000000000000000000000000000000000000000000000000000000000000000000000000000000000000000000000000000000000000000000000000000000000000000000000000000000000000000000000000000000000000000000000000000000000000000000000000000000000000000000000000000000000000000000000000000000000000000000000000000000000000000000000000000000000000000000000000000000000000000000000000000000000000000000000000000000000000000000000000000000000000000000000000000000000000000000000000000000000000000000000000000000000000000000000000000000000000000000000000000000000000000000000000000000000000000000000000000000000000000000000000000000000000000000000000000000000000000000000000000000000000000000000000000000000000000000000000000000000000000000000000000000000000000000000000000000000000000000000000000000000000000000000000000000000000000000000000000000000000000000000000000000000000000000000000000000000000000000000000000000000000000000000000000000000000000000000000000000000000000000000000000000000000000000000000000000000000000000000000000000000000000000000000000000000000000000000000000000000000000000000000
#039980:00530000
#039920:00001353
#039950:000000000000000000000000000000000000000000000000000000000000000000000000000000000000000000000000000000000000000000000000000000000000000000000000000000000000000000000000000000000000000000000000000000000000000000000000000000000000000000000000000000000000000000000000000000000000000000000000000000000000000000000000000000000000000000000000000000000000000000000000000000000000000000000000000000000000000000000000000000000000000000000000000000000000000000000000000000000000000000000000000000000000000000000000000000000000000000000000000000000000000000000000000000000000000000000000000000000000000000000000000000000000000000000000000000000000000000000000000000000000000000000000000000000000000000000000000000000000000000000000000000000000000000000000000000000000000000000000000000000000000000000000000000000000000000000000000000000000000000000000000000000000000000000000000000000000000000000000000000000000000000000000000000000000000000000000000000000000000000000000000000000000000000000000000000000000000000000000000000000000000000000000000000000000000000000000000000000000000000000000000000000000000000000000000000000000000000000000000000000000000000000000000000000000000000000000000000000000000000000000000000000000000000000000000000000000000000000000000000000000000000000000000000000000000000000000000000000000000000000000000000000000000000000000000000000000000000000000000000000000000000000000000000000000000000000000000000000000000000000000000000000000000000000000000000000000000000000000000000000000000000000000000000000000000000000000000000000000000000000000000000000000000000000000000000000000000000000000000000000000000000000000000000000000000000000000000000000000000000000000000000000000000000000000000000000000000000000000000000000000000000000000000000000000000000000000000000000000000000000000000000000000000000000000000000000000000000000000000000000000000000000000000000000000000000000000000000000000000000000000000000000000000000000000000000000000000000000000000000000000000000000000000000000000000000000000000000000000000000000000000000000000000000000000000000000000000000000000000000000000000000000000000000000000000000000000000000000000000000000000000000000000000000000000000000000000000000000000000000000000000000000000000000000000000000000000000000000000000000000000000000000000000000000000000000000000000000000000000000000000000000000000000000000000000000000000000000000000000000000000530000000000000000000000000000000000000000000000000000000000000000000000000000000000000000000000000000000000000000000000000000000000000000000000000000000000000000000000000000000000000000000000000000000000000000000000000000000000000000000000000000000000000000000000000000000000000000000000000000000000000000000000000000000000000000000000000000000000000000000000000000000000000000000000000000000000000000000000000000000000000000000000000000000000000000000000000000000000000000000000000000000000000000000000000000000000000000000000000000000000000000000000000000000000000000000000000000000000000000000000000000000000000000000000000000000000000000000000000000000000000000000000000000000000000000000000000000000000000000000000000000000000000000000000000000000000000000000000000000000000000000000000000000000000000000000000000000000000000000000000000000000000000000000000000000000000000000000000000000000000000000000000000000000000000000000000000000000000000000005353230000000000000000000000000000000000000000000000000000000000000000000000000000000000000000000000000000000000000000000000000000000000000000000000000000000000000000000000000000000000000000000000000000000000000000000000000000000000000000000000000000000000000000000000000000000000000000000000000000000000000000000000000000000000000000000000000000000000000000000000000000000000000000000000000000000000000000000000000000000000000000000000000000000000000000000000000000000000000000000000
