This file was generated by Ched 2.7.0.0.
#TITLE ""
#ARTIST ""
#DESIGNER ""
#DIFFICULTY 0
#PLAYLEVEL
#SONGID ""
#WAVE ""
#WAVEOFFSET 0
#JACKET ""
#REQUEST "ticks_per_beat 480"
#00002: 4
#BPM01: 167
#00008: 01
#TIL00: ""
#VOLUME: ""
#HISPEED 00
#MEASUREHS 00
#03415:0000001300000000
#03412:1300000000001313
#0341b:00130000
#03418:0000000000130000
#08416:14
#00112:54000000145454545400000000000000
#00113:0000000000540000
#00114:00000054
#0031a:54000000145454545400000000000000
#00319:0000000000540000
#00318:00000054
#00514:54000000145454545400000000000000
#00513:0000000000540000
#00512:00000054
#00815:0000001300000000
#0081b:00131300
#00812:24000013
#00818:0000000000000013
#0081a:24
#00810:41
#00912:13
#00918:00131300
#00915:0000001300000000
#0091b:0000000000330000
#01012:13
#0101b:00130000
#01015:0000001300000000
#01115:13130000
#0111b:13
#01118:0000001300000000
#01212:0013001300000000
#01218:00130000
#0121b:00001313
#01215:0000000000130013
#01318:0013001300000000
#01312:00130000
#01315:00001313
#0131b:0000000000130013
#01415:13
#01418:0013
#01412:0033000000000000
#0141b:00000000000000000000003300000000
#01512:13
#01518:0000000000130000
#01515:00000013
#01618:0000001300001300
#01615:0000130000000013
#01612:2413
#0161a:24
#0171b:13
#01712:0000130000330000
#01718:0000001300000000
#01715:0013
#0181b:13
#01815:00130000
#01818:0000001300000000
#01918:13130000
#01912:13
#01915:0000001300000000
#02018:0013000000130013
#02012:00130013
#0201b:0000001300000000
#02015:0013
#02115:0013000000130013
#0211b:00130013
#02112:0000001300000000
#02118:0013
#02218:13
#02215:0013
#0221b:0033000000000000
#02212:00000000000000000000003300000000
#0231b:13
#02315:0013000000130000
#02318:00131300
#02312:0000001300000000
#02415:0000001300000000
#02412:0000000000130000
#02414:0000000000000013
#0241b:2300000000000013
#02418:0013
#02410:41
#02513:0013000000000000
#0251a:0013000000000000
#02512:0000001300000000
#02519:0000001300000000
#02515:0000000000000013
#0261b:13
#02615:00131300
#02618:0000001300000000
#02612:00000000000000000000003300000000
#02818:1300001300000000
#02815:00130000
#02812:0000000000130000
#0281b:0000000000000013
#02814:0000000000000013
#03118:13000013
#03112:1300130000000013
#03115:0000000000130000
#0311a:0024
#03215:0000001300000000
#0321b:0000000013130000
#03212:0000000000000013
#03218:0000000000000013
#0321a:24
#03210:41
#03318:0000001300000013
#03315:0013000000000000
#0331b:0013000000000000
#03312:0000001300000000
#03512:00001313
#03518:0000000000130000
#0351b:0000000000000013
#03618:0013000000000000
#03612:0000001300000000
#03614:0000000000130000
#0361b:0000001300000013
#03619:0000000000130000
#03616:0000000000000013
#03712:0000001300000013
#0371b:0000000000130000
#03714:0013000000000000
#03719:0013000000000000
#03717:0000001300000000
#03716:0000000000130000
#03718:0000000000000013
#03918:13
#03915:0013
#03919:0053000000000000
#0391a:00530000
#0391b:0000005300000000
#03914:0000000000530000
#03913:00000053
#03912:0000000000000053
#04012:0013
#04018:0000000000130000
#0401a:14
#0401f:11
#04015:0000000000000013
#0401b:0000000000000013
#04215:00001313
#04218:0000000000130000
#0421b:0000000000000013
#0441b:0013
#04415:0000000000130000
#04418:00000013
#04412:0000000000000013
#0461b:00131300
#04615:0000001300000023
#04612:0000000000130000
#04618:00000013
#04812:0000001300000013
#0481b:0000000013130000
#04818:2600000000000013
#0481f:21
#05012:1300000013130000
#0501b:1300000000000013
#05018:00130000
#05015:0000000000000013
#05010:41
#05212:1300000000130013
#05218:1300000000130000
#0521b:0000131300000013
#05215:0000131300000000
#0531b:0000000013130000
#05312:0000000000000013
#05317:0000000000000013
#05418:0000000000130000
#05415:00000013
#05414:0013000000000000
#05419:0013000000000000
#05416:0000001300000000
#0541b:0000001300000000
#05612:1300000013130000
#0561b:1300000000000013
#05618:0000001300000000
#05615:0000000000000013
#0581b:13001313
#05812:1300000000000013
#05815:0000001300000000
#05818:0000000000000013
#0601b:1300000000130013
#06015:1300000000130000
#06012:0000131300000013
#06018:0000131300000000
#06113:0013
#06119:0000000000130000
#06115:0000000000000013
#0611b:0000000000000013
#06212:0013000000130000
#06218:0013000000000013
#06214:0000001300000000
#06219:0000001300000000
#0621b:0000000000130000
#06315:0000000013130000
#06318:0000000000000013
#0631b:0000000013130000
#06415:0000001300000000
#06418:0000000000000013
#06410:41
#06512:1300000000240000
#06518:0000000000000024
#0651a:0000002400000000
#0701b:13
#07012:00130000
#07018:0000001300000000
#07015:0013
#0711b:13
#07112:13130000
#07118:0000001300000000
#07212:0013000000001300
#0721b:00130000
#07218:0000001300130013
#07215:0013
#07210:41
#07315:0013000000001300
#0731b:0000130000130013
#07318:0000001300000000
#07312:0013
#07415:13
#07418:0013
#07412:0033000000000000
#0741b:00000000000000000000003300000000
#07515:13
#0751a:0024
#07514:00000024
#07518:0000000000000024
#07512:00530000
#07812:13
#0781b:00130000
#07815:0000001300000000
#07818:0013
#07912:13
#0791b:13130000
#07915:0000001300000000
#0801b:0013000000001300
#08012:00130000
#08015:0000001300130013
#08018:0013
#08118:0013000000001300
#08112:0000130000130013
#08115:0000001300000000
#0811b:0013
#08218:13
#08215:0013
#0821b:0033000000000000
#08212:00000000000000000000003300000000
#0831b:13000013
#08318:0013000013000000
#08315:0000130000130000
#08312:0000001300000000
#0271b:13
#02715:0000130000000013
#02718:0000001300000000
#02913:0013000000000000
#0291a:0013000000000000
#02912:0000001300000000
#02919:0000001300000000
#0291b:00000013
#02915:0000000000000013
#04115:0000001300000000
#0411b:0000001300000000
#04118:0000000000130000
#04112:0000000000130000
#04318:0000001300000000
#04312:0000001300000000
#04315:0000000000130000
#0431b:0000000000130000
#0451b:0013000013000000
#04515:00130013
#04512:0013
#04518:00000013
#0491b:0000001300000000
#04915:0000001300000000
#05112:0000001300000000
#05118:0000001300000000
#06714:0000000000000024
#06712:0024
#06718:00000024
#00712:00260000
#00718:26002424
#00714:0000000000240000
#06812:0024000000000000
#0761a:0024000000000000
#03815:0033000000000000
#0381b:0033000000000000
#04714:0034343400000000
#08712:0053
#05718:0053000000530000
#0571b:0000005300000000
#05712:0053000000530000
#05715:0000005300000000
#0591b:0053000000530000
#05918:0000005300000000
#05915:0053000000530000
#05912:0000005300000000
#00752:00160000
#00758:16
#06558:0000000000000054
#06552:5300000000140000
#0655a:0000001400000000
#06754:0000000000000054
#08456:64
#00958:0053
#01158:0000005300000000
#0115a:00000014
#01455:53
#01458:0063
#01552:63
#01755:0063
#01955:0000006300000000
#01952:00000014
#02258:63
#02255:0053
#0245b:13
#03752:0000000000000063
#03758:0000000000000063
#0405a:14
#04055:0000000000000053
#0405b:0000000000000053
#04655:0000000000000053
#04752:00000016
#04858:1600000000000053
#04852:0000000000000053
#0555b:0013000000000000
#05552:0000000000130000
#05852:13
#0585b:13
#06358:0000000000000053
#06455:0000006300000000
#06852:0054000000000000
#07158:0000005300000000
#0715b:00000013
#07455:53
#07458:0063
#07055:0053
#07555:53
#07558:0000000000000064
#0765a:0064000000000000
#07955:0000006300000000
#07952:00000013
#08258:63
#08255:0053
#07858:0063
#02559:0000005300000000
#02655:0053
#02758:0000005300000000
#02955:0000000000000053
#03358:0000005300000000
#03352:0000005300000000
#04158:0000000000630000
#04152:0000000000630000
#0425b:0000000000000053
#04355:0000000000530000
#0435b:0000000000530000
#04452:13
#04458:13
#04558:00000063
#04555:00000063
#05252:0000000000000053
#0525b:0000000000000063
#0495b:0000006300000000
#04955:0000006300000000
#0505b:0000000000000063
#05055:0000000000000063
#05152:0000005300000000
#05158:0000005300000000
#0605b:0000000000000063
#06052:0000000000000053
#000340:1434000000000000
#000330:0000003434340000
#000320:0000000000000034
#001320:24
#002380:1434000000000000
#002390:0000003434340000
#0023a0:0000000000000034
#0033a0:24
#004320:1434000000000000
#004330:0000003434340000
#004340:0000000000000034
#005340:24
#0063a0:1434000000000000
#006390:0000003535350000
#006380:0000000000000036
#007380:26
#009380:0013
#0093b0:0000000000332300
#0103b0:00001323
#011380:0000001300000000
#0113a0:00000024
#014350:13
#014320:0033002300000000
#014380:0013
#0143b0:00000000000000000000003300002300
#015320:13
#015350:0000002300000000
#017350:0013
#017320:0000000000332300
#018320:00001323
#019350:0000001300000000
#019320:00000024
#022380:13
#0223b0:0033002300000000
#022350:0013
#022320:00000000000000000000003300002300
#0233b0:00000013
#0243b0:23
#025390:0000001300000000
#0253b0:00000023
#026350:0013
#026320:00000000000000000000003300002300
#027380:0000001300000000
#0273b0:00000023
#029350:0000000000000013
#030320:0023
#033320:0000001300000000
#033350:00000023
#033381:0000001300000000
#0333b1:00000023
#0353b1:13230000
#037321:0000000000000013
#038351:0033000000002300
#037380:0000000000000013
#0383b0:0033000000002300
#040350:0000000000000013
#041320:0023000000000000
#0403b1:0000000000000013
#041381:0023000000000000
#041381:0000000000130000
#0423b1:23
#041320:0000000000130000
#042350:23
#0423b0:0000000000000013
#043380:0023000000000000
#043350:0000000000130000
#044320:23
#0433b1:0000000000130000
#044381:23
#045381:00000013
#0463b1:23
#045350:00000013
#046320:23
#046350:0000000000000013
#047340:0034343400000000
#047320:00000026
#048320:0000000000000013
#049350:0023000000000000
#048381:0000000000000013
#0493b1:0023000000000000
#0493b1:0000001300000000
#049381:0000000000230000
#049350:0000001300000000
#049320:0000000000230000
#0503b0:0000000000000013
#051380:0023000000000000
#050351:0000000000000013
#051321:0023000000000000
#051321:0000001300000000
#051351:0000000000230000
#051380:0000001300000000
#0513b0:0000000000230000
#052320:0000000000000013
#053350:00230000
#0523b1:0000000000000013
#053381:00230000
#0543b1:0000000000000013
#0553b1:0023000000000000
#055321:0000001300230000
#0603b1:0000000000000013
#061381:00230000
#060320:0000000000000013
#061350:00230000
#063320:13230000
#063380:0000000000000013
#0643b0:0023000000000000
#064350:0000001300000000
#064320:0000000000230000
#065320:13
#065350:00230000
#065380:0000000000000014
#067380:26
#067340:0000000000000014
#068320:0034000000000000
#069320:00000026
#070350:0013
#070320:00000023
#071380:0000001300000000
#0713b0:00000023
#074350:13
#074320:0033002300000000
#074380:0013
#0743b0:00000000000000000000003300002300
#075350:13
#075320:00230000
#075380:0000000000000014
#0763a0:0034000000000000
#077380:00000026
#078380:0013
#0783b0:00000023
#079350:0000001300000000
#079320:00000023
#082380:13
#0823b0:0033002300000000
#082350:0013
#082320:00000000000000000000003300002300
#084360:14
#087320:0023
#001920:00145400
#001940:000000000000000000000000000000000000000000000000000000000000000000000000000000000000000000000000000000000000000000000000000000000000000000000000000000000000000000000000000000000000000000000000000000000000000000000000000000000000000000000000000000000000000000000000000000000000000000000000000000000000000000000000000000000000000000000000000000000000000000000000000000000000000000000000000000000000000000000000000000000000000000000000000000000000000000000000000000000000000000000000000000000000000000000000000000000000000000000000000000000000000000000000000000000000000000000000000000000000000000000000000000000000000000000000000000000000000000000000000000000000000000000000000000000000000000000000000000000000000000000000000000000000000000000000000000000000000000000000000000000000000000000000000000000000000000000000000000000000000000000000000000000000000000000000000000000000000000000000000000000000000000000000000000000000000000000000000000000000000000000000000000000000000000000000000000000000000000000000000000000000000000000000000000000000000000000000000000000000000000000000000000000000000000000000000000000000000000000000000000000000000000000000000000000000000000000000000000000000000000000000000000000000000000000000000000000000000000000000000000000000000000000000000000000000000000000000000000000000000000000000000000000000000000000000000000000000000000000000000000000000000000000000000000000000000000000000000000000000000000000000000000000000000000000000000000000000000000000000000000000000000000000000000000000000000000000000000000000000000000000000000000000000000000000000000000000000000000000000000000000000000000000000000000000000000000000000000000000000000000000000000000000000000000000000000000000000000000000000000000000000000000000000000000000000000000000000000000000000000000000000000000000000000000000000000000000000000000000000000000000000000000000000000000000000000000000000000000000000000000000000000000000000000000000000000000000000000000000000000000000000000000000000000000000000000000000000000000000000000000000000000000000000000000000000000000000000000000000000000000000000000000000000000000000000000000000000000000000000000000000000000000000000000000000000000000000000000000000000000000000000000000000000000000000000000000000000000000000000000000000000000000000000000000000000000000000000000000000000000000000000000000000000000000000000000000000000000000000000000000000000000000000000000000000000000000000000000000000000000000000000000000000000000000000000000000000000000000000000000000000000000000000000000000000000000000000000000000000000000000000000000000000000000000000000000000000000000000000000000000000000000000000000000000000000000000000000000000000000000000000000000000000000000000000000000000000000000000000000000000000000000000000000000000000000000000000000000000000000000000000000000000000000000000000000000000000000000000000000000000005454240000000000000000000000000000000000000000000000000000000000000000000000000000000000000000000000000000000000000000000000000000000000000000000000000000000000000000000000000000000000000000000000000000000000000000000000000000000000000000000000000000000000000000000000000000000000000000000000000000000000000000000000000000000000000000000000000000000000000000000000000000000000000000000000000000000000000000000000000000000000000000000000000000000000000000000000000000000000000000000000000000000000000000000000000000000000000000000000000000000000000000000000000000000000000000000000000000000000000000000000000000000000000000000000000000000000000000000000000000000000000000000000000000000000000000000000000000000000000000000000000000000000000000000000000000000000000000000000000000000000000000000000000000000000000000000000000000000000000000000000000000000000000000000000000000000000000000000000000000000000000000000000000000000000000000000000000000000000000000000000
#0039a0:00145400
#003980:000000000000000000000000000000000000000000000000000000000000000000000000000000000000000000000000000000000000000000000000000000000000000000000000000000000000000000000000000000000000000000000000000000000000000000000000000000000000000000000000000000000000000000000000000000000000000000000000000000000000000000000000000000000000000000000000000000000000000000000000000000000000000000000000000000000000000000000000000000000000000000000000000000000000000000000000000000000000000000000000000000000000000000000000000000000000000000000000000000000000000000000000000000000000000000000000000000000000000000000000000000000000000000000000000000000000000000000000000000000000000000000000000000000000000000000000000000000000000000000000000000000000000000000000000000000000000000000000000000000000000000000000000000000000000000000000000000000000000000000000000000000000000000000000000000000000000000000000000000000000000000000000000000000000000000000000000000000000000000000000000000000000000000000000000000000000000000000000000000000000000000000000000000000000000000000000000000000000000000000000000000000000000000000000000000000000000000000000000000000000000000000000000000000000000000000000000000000000000000000000000000000000000000000000000000000000000000000000000000000000000000000000000000000000000000000000000000000000000000000000000000000000000000000000000000000000000000000000000000000000000000000000000000000000000000000000000000000000000000000000000000000000000000000000000000000000000000000000000000000000000000000000000000000000000000000000000000000000000000000000000000000000000000000000000000000000000000000000000000000000000000000000000000000000000000000000000000000000000000000000000000000000000000000000000000000000000000000000000000000000000000000000000000000000000000000000000000000000000000000000000000000000000000000000000000000000000000000000000000000000000000000000000000000000000000000000000000000000000000000000000000000000000000000000000000000000000000000000000000000000000000000000000000000000000000000000000000000000000000000000000000000000000000000000000000000000000000000000000000000000000000000000000000000000000000000000000000000000000000000000000000000000000000000000000000000000000000000000000000000000000000000000000000000000000000000000000000000000000000000000000000000000000000000000000000000000000000000000000000000000000000000000000000000000000000000000000000000000000000000000000000000000000000000000000000000000000000000000000000000000000000000000000000000000000000000000000000000000000000000000000000000000000000000000000000000000000000000000000000000000000000000000000000000000000000000000000000000000000000000000000000000000000000000000000000000000000000000000000000000000000000000000000000000000000000000000000000000000000000000000000000000000000000000000000000000000000000000000000000000000000000000000000000000000000000000000000000000000000000005454240000000000000000000000000000000000000000000000000000000000000000000000000000000000000000000000000000000000000000000000000000000000000000000000000000000000000000000000000000000000000000000000000000000000000000000000000000000000000000000000000000000000000000000000000000000000000000000000000000000000000000000000000000000000000000000000000000000000000000000000000000000000000000000000000000000000000000000000000000000000000000000000000000000000000000000000000000000000000000000000000000000000000000000000000000000000000000000000000000000000000000000000000000000000000000000000000000000000000000000000000000000000000000000000000000000000000000000000000000000000000000000000000000000000000000000000000000000000000000000000000000000000000000000000000000000000000000000000000000000000000000000000000000000000000000000000000000000000000000000000000000000000000000000000000000000000000000000000000000000000000000000000000000000000000000000000000000000000000000000000
#005940:00145400
#005920:000000000000000000000000000000000000000000000000000000000000000000000000000000000000000000000000000000000000000000000000000000000000000000000000000000000000000000000000000000000000000000000000000000000000000000000000000000000000000000000000000000000000000000000000000000000000000000000000000000000000000000000000000000000000000000000000000000000000000000000000000000000000000000000000000000000000000000000000000000000000000000000000000000000000000000000000000000000000000000000000000000000000000000000000000000000000000000000000000000000000000000000000000000000000000000000000000000000000000000000000000000000000000000000000000000000000000000000000000000000000000000000000000000000000000000000000000000000000000000000000000000000000000000000000000000000000000000000000000000000000000000000000000000000000000000000000000000000000000000000000000000000000000000000000000000000000000000000000000000000000000000000000000000000000000000000000000000000000000000000000000000000000000000000000000000000000000000000000000000000000000000000000000000000000000000000000000000000000000000000000000000000000000000000000000000000000000000000000000000000000000000000000000000000000000000000000000000000000000000000000000000000000000000000000000000000000000000000000000000000000000000000000000000000000000000000000000000000000000000000000000000000000000000000000000000000000000000000000000000000000000000000000000000000000000000000000000000000000000000000000000000000000000000000000000000000000000000000000000000000000000000000000000000000000000000000000000000000000000000000000000000000000000000000000000000000000000000000000000000000000000000000000000000000000000000000000000000000000000000000000000000000000000000000000000000000000000000000000000000000000000000000000000000000000000000000000000000000000000000000000000000000000000000000000000000000000000000000000000000000000000000000000000000000000000000000000000000000000000000000000000000000000000000000000000000000000000000000000000000000000000000000000000000000000000000000000000000000000000000000000000000000000000000000000000000000000000000000000000000000000000000000000000000000000000000000000000000000000000000000000000000000000000000000000000000000000000000000000000000000000000000000000000000000000000000000000000000000000000000000000000000000000000000000000000000000000000000000000000000000000000000000000000000000000000000000000000000000000000000000000000000000000000000000000000000000000000000000000000000000000000000000000000000000000000000000000000000000000000000000000000000000000000000000000000000000000000000000000000000000000000000000000000000000000000000000000000000000000000000000000000000000000000000000000000000000000000000000000000000000000000000000000000000000000000000000000000000000000000000000000000000000000000000000000000000000000000000000000000000000000000000000000000000000000000000000000000000000000000000005454240000000000000000000000000000000000000000000000000000000000000000000000000000000000000000000000000000000000000000000000000000000000000000000000000000000000000000000000000000000000000000000000000000000000000000000000000000000000000000000000000000000000000000000000000000000000000000000000000000000000000000000000000000000000000000000000000000000000000000000000000000000000000000000000000000000000000000000000000000000000000000000000000000000000000000000000000000000000000000000000000000000000000000000000000000000000000000000000000000000000000000000000000000000000000000000000000000000000000000000000000000000000000000000000000000000000000000000000000000000000000000000000000000000000000000000000000000000000000000000000000000000000000000000000000000000000000000000000000000000000000000000000000000000000000000000000000000000000000000000000000000000000000000000000000000000000000000000000000000000000000000000000000000000000000000000000000000000000000000000000
#039980:13
#0399b0:000000000000000000000000000000000000000000000000000000000000000000000000000000000000000000000000000000000000000000000000000000000000000000000000000000000000000000000000000000000000000000000000000000000000000000000000000000000000000000000000000000000000000000000000000000000000000000000000000000000000000000000000000000000000000000000000000000000000000000000000000000000000000000000000000000000000000000000000000000000000000000000000000000000000000000000000000000000000000000000000000000000000000000000000000000000000000000000000000000000000000000000000000000000000000000000000000000000000000000000000000000000000000000000000000000000000000000000000000000000000000000000000000000000000000000000000000000000000000000000000000000000000000000000000000000000000000000000000000000000000000000000000000000000000000000000000000000000000000000000000000000000000000000000000000000000000000000000000000000000000000000000000000000000000000000000000000000000000000000000000000000000000000000000000000000000000000000000000000000000000000000000000000000000000000000000000000000000000000000000000000000000000000000000000000000000000000000000000000000000000000000000000000000000000000000000000000000000000000000000000000000000000000000000000000000000000000000000000000000000000000000000000000000000000000000000000000000000000000000000000000000000000000000000000000000000000000000000000000000000000000000000000000000000000000000000000000000000000000000005353230000000000000000000000000000000000000000000000000000000000000000000000000000000000000000000000000000000000000000000000000000000000000000000000000000000000000000000000000000000000000000000000000000000000000000000000000000000000000000000000000000000000000000000000000000000000000000000000000000000000000000000000000000000000000000000000000000000000000000000000000000000000000000000000000000000000000000000000000000000000000000000000000000000000000000000000000000000000000000000000000000000000000000000000000000000000000000000000000000000000000000000000000000000000000000000000000000000000000000000000000000000000000000000000000000000000000000000000000000000000000000000000000000000000000000000000000000000000000000000000000000000000000000000000000000000000000000000000000000000000000000000000000000000000000000000000000000000000000000000000000000000000000000000000000000000000000000000000000000000000000000000000000000000000000000000000000000000000000000000000000000000000000000000000000000000000000000000000000000000000000000000000000000000000000000000000000000000000000000000000000000000000000000000000000000000000000000000000000000000000000000000000000000000000000000000000000000000000000000000000000000000000000000000000000000000000000000000000000000000000000000000000000000000000000000000000000000000000000000000000000000000000000000000000000000000000000000000000000000000000000000000000000000000000000000000000000000000000000000000000000000000000000000000000000000000000000000000000000000000000000000000000000000000000000000000000000000000000000000000000000000000000000000000000000000000000000000000000000000000000000000000000000000000000000000000000000000000000000000000000000000000000000000000000000000000000000000000000000000000000000000000000000000000000000000000000000000000000000000000000000000000000000000000000000000000000000000000000000000000000000000000000000000000000000000000000000000000000000000000000000000000000000000000000000000000000000000000000000000000000000000000000000000000000000000000000000000000000000000000000000000000000000000000000000000000000000000000000000000000000000000000000000000000000000000000000000000000000000000000000000000000000000000000000000000000000000000000000000000000000000000000000000000000000000000000000000000000000000000000000000000000000000000000000000000000000000000000000000000000000000000000000000000000000000000000000000000000000000000000000
#039950:0013
#039920:000000000000000000000000000000000000000000000000000000000000000000000000000000000000000000000000000000000000000000000000000000000000000000000000000000000000000000000000000000000000000000000000000000000000000000000000000000000000000000000000000000000000000000000000000000000000000000000000000000000000000000000000000000000000000000000000000000000000000000000000000000000000000000000000000000000000000000000000000000000000000000000000000000000000000000000000000000000000000000000000000000000000000000000000000000000000000000000000000000000000000000000000000000000000000000000000000000000000000000000000000000000000000000000000000000000000000000000000000000000000000000000000000000000000000000000000000000000000000000000000000000000000000000000000000000000000000000000000000000000000000000000000000000000000000000000000000000000000000000000000000000000000000000000000000000000000000000000000000000000000000000000000000000000000000000000000000000000000000000000000000000000000000000000000000000000000000000000000000000000000000000000000000000000000000000000000000000000000000000000000000000000000000000000000000000000000000000000000000000000000000000000000000000000000000000000000000000000000000000000000000000000000000000000000000000000000000000000000000000000000000000000000000000000000000000000000000000000000000000000000000000000000000000000000000000000000000000000000000000000000000000000000000000000000000000000000000000000000000000000000000000000000000000000000000000000000000000000000000000000000000000000000000000000000000000000000000000000000000000000000000000000000000000000000000000000000000000000000000000000000000000000000000000000000000000000000000000000000000000000000000000000000000000000000000000000000000000000000000000000000000000000000000000000000000000000000000000000000000000000000000000000000000000000000000000000000000000000000000000000000000000000000000000000000000000000000000000000000000000000000000000000000000000000000000000000000000000000000000000000000000000000000000000000000000000000000000000000000000000000000000000000000000000000000000000000000000000000000000000000000000000000000000000000000000000000000000000000000000000000000000000000000000000000000000000000000000000000000000000000000000000000000000000000000000000000000000000000000000000000000000000000000000000000000000000000000000000000000000000000000000000000000000000000000000000000000000000000000000000000000000000000000000000000000000000000000000000000000000000000000000000000000000000000000000000000000000000000000000000000000000000000000000000000000000000000000000000000000000000000000000000000000000000000000000000000000000000000000000000000000000000000000000000000000000000000000000000000000000000000000000000000000000000000000000000000000000000000000000000000000000000000000000000000000000000000000000000000000000000000000000000000000000000000000000000000000000000000000000000000000000000000000000000000000000000000000000000000000000000000000000000000000000000000000000000000000000000000000000000000000000000000000000000000000000000000000000000000000000000000000000000000000000000000000000000000000000000000000000000000000000000000000000000000000000000000000000000000000000000000000000000000000000000000000000000000000000000000000000000000000000000000000000000000000000000000000000000000000000000000000000000000000000000000000000000000000000000000000000000005353230000000000000000000000000000000000000000000000000000000000000000000000000000000000000000000000000000000000000000000000000000000000000000000000000000000000000000000000000000000000000000000000000000000000000000000000000000000000000000000000000000000000000000000000000000000000000000000000000000000000000000000000000000000000000000000000000000000000000000000000000000000000000000000000000000000000000000000000000000000000000000000000000000000000000000000000000000000000000000000000
#0569b0:0000000000000013
#057980:000000000000000000000000000000000000000000000000000000000000000000000000000000000000000000000000000000000000000000000000000000000000000000000000000000000000000000000000000000000000000000000000000000000000000000000000000000000000000000000000000000000000000000000000000000000000000000000000000000000000000000000000000000000000000000000000000000000000000000000000000000000000000000000000000000000000000000000000000000000000000000000000000000000000000000000000000000000000000000000000530000000000000000000000000000000000000000000000000000000000000000000000000000000000000000000000000000000000000000000000000000000000000000000000000000000000000000000000000000000000000000000000000000000000000000000000000000000000000000000000000000000000000000000000000000000000000000000000000000000000000000000000000000000000000000000000000000000000000000000000000000000000000000000000000000000000000000000000000000000000000000000000000000000000000000000000000000000000000000000000000000000000000000000000000000000000000000000000000000000000000000000000000000000000000000000000000000000000000000000000000000000000000000000000000000000000000000000000000000000000000000000000000000000000000000000000000000000000000000000000000000000000000000000000000000000000000000000000000000000000000000000000000000000000000000000000000000000000000000000000000000000000000000000000000000000000000000000000000000000000000000000000000000000000000000000000000000000000000000000000000000000000000000000000000000000000000000000000000000000000000000000000000000000000000000000000000000000000000000000000000000000000000000000000000000000000000000000000000000000000000000000000000000000000000000000000000000000000000000000000000000000000000000000000000000000000000000000000000000000000000000000000000000000000000000000000000000000000000000000000000000000000000000000000000000000000000000000000000000000000000000000000000000000000000000000000000000000000000000000000000000000000000000000000000000000000000000000000000000000000000000000000000000000000000000000000000000000000000000000000000000000000000000000000000000000000000000000000000000000000000000000000000000000000000000000000000000000000000000000000000000000000000000000000000000000000000000000000000000000000000000000000000000000000000000000000000000000000000000000000000000000000000000000000000000000000000000000000000000000000000000000000000000000000000000000000000000000000000000005353230000000000000000000000000000000000000000000000000000000000000000000000000000000000000000000000000000000000000000000000000000000000000000000000000000000000000000000000000000000000000000000000000000000000000000000000000000000000000000000000000000000000000000000000000000000000000000000000000000000000000000000000000000000000000000000000000000000000000000000000000000000000000000000000000000000000000000000000000000000000000000000000000000000000000000000000000000000000000000000000000000000000000000000000000000000000000000000000000000000000000000000000000000000000000000000000000000000000000000000000000000000000000000000000000000000000000000000000000000000000000000000000000000000000000000000000000000000000000000000000000000000000000000000000000000000000000000000000000000000000000000000000000000000000000000000000000000000000000000000000000000000000000000000000000000000000000000000000000000000000000000000000000000000000000000000000000000000000000000000000000000000000000000000000000000000000000000000000000000000000000000000000000000000000000000000000000000000000000000000000000000000000000000000000000000000000000000000000000000000000000000000000000000000000000000000000000000000000000000000000000000000000000000000000000000000000000000000000000000000000000000000000000000000000000000000000000000000000000000000000000000000000000000000000000000000000000000000000000000000000000000000000000000000000000000000000000000000000000000000000
#0579b0:0000005300000000
#056951:0000000000000013
#057921:000000000000000000000000000000000000000000000000000000000000000000000000000000000000000000000000000000000000000000000000000000000000000000000000000000000000000000000000000000000000000000000000000000000000000000000000000000000000000000000000000000000000000000000000000000000000000000000000000000000000000000000000000000000000000000000000000000000000000000000000000000000000000000000000000000000000000000000000000000000000000000000000000000000000000000000000000000000000000000000000530000000000000000000000000000000000000000000000000000000000000000000000000000000000000000000000000000000000000000000000000000000000000000000000000000000000000000000000000000000000000000000000000000000000000000000000000000000000000000000000000000000000000000000000000000000000000000000000000000000000000000000000000000000000000000000000000000000000000000000000000000000000000000000000000000000000000000000000000000000000000000000000000000000000000000000000000000000000000000000000000000000000000000000000000000000000000000000000000000000000000000000000000000000000000000000000000000000000000000000000000000000000000000000000000000000000000000000000000000000000000000000000000000000000000000000000000000000000000000000000000000000000000000000000000000000000000000000000000000000000000000000000000000000000000000000000000000000000000000000000000000000000000000000000000000000000000000000000000000000000000000000000000000000000000000000000000000000000000000000000000000000000000000000000000000000000000000000000000000000000000000000000000000000000000000000000000000000000000000000000000000000000000000000000000000000000000000000000000000000000000000000000000000000000000000000000000000000000000000000000000000000000000000000000000000000000000000000000000000000000000000000000000000000000000000000000000000000000000000000000000000000000000000000000000000000000000000000000000000000000000000000000000000000000000000000000000000000000000000000000000000000000000000000000000000000000000000000000000000000000000000000000000000000000000000000000000000000000000000000000000000000000000000000000000000000000000000000000000000000000000000000000000000000000000000000000000000000000000000000000000000000000000000000000000000000000000000000000000000000000000000000000000000000000000000000000000000000000000000000000000000000000000000000000000000000000000000000000000000000000000000000000000000000000000000000000000000000000000000005353230000000000000000000000000000000000000000000000000000000000000000000000000000000000000000000000000000000000000000000000000000000000000000000000000000000000000000000000000000000000000000000000000000000000000000000000000000000000000000000000000000000000000000000000000000000000000000000000000000000000000000000000000000000000000000000000000000000000000000000000000000000000000000000000000000000000000000000000000000000000000000000000000000000000000000000000000000000000000000000000000000000000000000000000000000000000000000000000000000000000000000000000000000000000000000000000000000000000000000000000000000000000000000000000000000000000000000000000000000000000000000000000000000000000000000000000000000000000000000000000000000000000000000000000000000000000000000000000000000000000000000000000000000000000000000000000000000000000000000000000000000000000000000000000000000000000000000000000000000000000000000000000000000000000000000000000000000000000000000000000000000000000000000000000000000000000000000000000000000000000000000000000000000000000000000000000000000000000000000000000000000000000000000000000000000000000000000000000000000000000000000000000000000000000000000000000000000000000000000000000000000000000000000000000000000000000000000000000000000000000000000000000000000000000000000000000000000000000000000000000000000000000000000000000000000000000000000000000000000000000000000000000000000000000000000000000000000000000000000000000
#057951:0000005300000000
#058981:0000000000000013
#0599b1:000000000000000000000000000000000000000000000000000000000000000000000000000000000000000000000000000000000000000000000000000000000000000000000000000000000000000000000000000000000000000000000000000000000000000000000000000000000000000000000000000000000000000000000000000000000000000000000000000000000000000000000000000000000000000000000000000000000000000000000000000000000000000000000000000000000000000000000000000000000000000000000000000000000000000000000000000000000000000000000000530000000000000000000000000000000000000000000000000000000000000000000000000000000000000000000000000000000000000000000000000000000000000000000000000000000000000000000000000000000000000000000000000000000000000000000000000000000000000000000000000000000000000000000000000000000000000000000000000000000000000000000000000000000000000000000000000000000000000000000000000000000000000000000000000000000000000000000000000000000000000000000000000000000000000000000000000000000000000000000000000000000000000000000000000000000000000000000000000000000000000000000000000000000000000000000000000000000000000000000000000000000000000000000000000000000000000000000000000000000000000000000000000000000000000000000000000000000000000000000000000000000000000000000000000000000000000000000000000000000000000000000000000000000000000000000000000000000000000000000000000000000000000000000000000000000000000000000000000000000000000000000000000000000000000000000000000000000000000000000000000000000000000000000000000000000000000000000000000000000000000000000000000000000000000000000000000000000000000000000000000000000000000000000000000000000000000000000000000000000000000000000000000000000000000000000000000000000000000000000000000000000000000000000000000000000000000000000000000000000000000000000000000000000000000000000000000000000000000000000000000000000000000000000000000000000000000000000000000000000000000000000000000000000000000000000000000000000000000000000000000000000000000000000000000000000000000000000000000000000000000000000000000000000000000000000000000000000000000000000000000000000000000000000000000000000000000000000000000000000000000000000000000000000000000000000000000000000000000000000000000000000000000000000000000000000000000000000000000000000000000000000000000000000000000000000000000000000000000000000000000000000000000000000000000000000000000000000000000000000000000000000000000000000000000000000000000000000000000000005353230000000000000000000000000000000000000000000000000000000000000000000000000000000000000000000000000000000000000000000000000000000000000000000000000000000000000000000000000000000000000000000000000000000000000000000000000000000000000000000000000000000000000000000000000000000000000000000000000000000000000000000000000000000000000000000000000000000000000000000000000000000000000000000000000000000000000000000000000000000000000000000000000000000000000000000000000000000000000000000000000000000000000000000000000000000000000000000000000000000000000000000000000000000000000000000000000000000000000000000000000000000000000000000000000000000000000000000000000000000000000000000000000000000000000000000000000000000000000000000000000000000000000000000000000000000000000000000000000000000000000000000000000000000000000000000000000000000000000000000000000000000000000000000000000000000000000000000000000000000000000000000000000000000000000000000000000000000000000000000000000000000000000000000000000000000000000000000000000000000000000000000000000000000000000000000000000000000000000000000000000000000000000000000000000000000000000000000000000000000000000000000000000000000000000000000000000000000000000000000000000000000000000000000000000000000000000000000000000000000000000000000000000000000000000000000000000000000000000000000000000000000000000000000000000000000000000000000000000000000000000000000000000000000000000000000000000000000000000000000000
#059981:0000005300000000
#058920:0000000000000013
#059950:000000000000000000000000000000000000000000000000000000000000000000000000000000000000000000000000000000000000000000000000000000000000000000000000000000000000000000000000000000000000000000000000000000000000000000000000000000000000000000000000000000000000000000000000000000000000000000000000000000000000000000000000000000000000000000000000000000000000000000000000000000000000000000000000000000000000000000000000000000000000000000000000000000000000000000000000000000000000000000000000530000000000000000000000000000000000000000000000000000000000000000000000000000000000000000000000000000000000000000000000000000000000000000000000000000000000000000000000000000000000000000000000000000000000000000000000000000000000000000000000000000000000000000000000000000000000000000000000000000000000000000000000000000000000000000000000000000000000000000000000000000000000000000000000000000000000000000000000000000000000000000000000000000000000000000000000000000000000000000000000000000000000000000000000000000000000000000000000000000000000000000000000000000000000000000000000000000000000000000000000000000000000000000000000000000000000000000000000000000000000000000000000000000000000000000000000000000000000000000000000000000000000000000000000000000000000000000000000000000000000000000000000000000000000000000000000000000000000000000000000000000000000000000000000000000000000000000000000000000000000000000000000000000000000000000000000000000000000000000000000000000000000000000000000000000000000000000000000000000000000000000000000000000000000000000000000000000000000000000000000000000000000000000000000000000000000000000000000000000000000000000000000000000000000000000000000000000000000000000000000000000000000000000000000000000000000000000000000000000000000000000000000000000000000000000000000000000000000000000000000000000000000000000000000000000000000000000000000000000000000000000000000000000000000000000000000000000000000000000000000000000000000000000000000000000000000000000000000000000000000000000000000000000000000000000000000000000000000000000000000000000000000000000000000000000000000000000000000000000000000000000000000000000000000000000000000000000000000000000000000000000000000000000000000000000000000000000000000000000000000000000000000000000000000000000000000000000000000000000000000000000000000000000000000000000000000000000000000000000000000000000000000000000000000000000000000000000000000000000005353230000000000000000000000000000000000000000000000000000000000000000000000000000000000000000000000000000000000000000000000000000000000000000000000000000000000000000000000000000000000000000000000000000000000000000000000000000000000000000000000000000000000000000000000000000000000000000000000000000000000000000000000000000000000000000000000000000000000000000000000000000000000000000000000000000000000000000000000000000000000000000000000000000000000000000000000000000000000000000000000000000000000000000000000000000000000000000000000000000000000000000000000000000000000000000000000000000000000000000000000000000000000000000000000000000000000000000000000000000000000000000000000000000000000000000000000000000000000000000000000000000000000000000000000000000000000000000000000000000000000000000000000000000000000000000000000000000000000000000000000000000000000000000000000000000000000000000000000000000000000000000000000000000000000000000000000000000000000000000000000000000000000000000000000000000000000000000000000000000000000000000000000000000000000000000000000000000000000000000000000000000000000000000000000000000000000000000000000000000000000000000000000000000000000000000000000000000000000000000000000000000000000000000000000000000000000000000000000000000000000000000000000000000000000000000000000000000000000000000000000000000000000000000000000000000000000000000000000000000000000000000000000000000000000000000000000000000000000000000000000
#059920:0000005300000000
