This file was generated by Ched 2.7.0.0.
#TITLE ""
#ARTIST ""
#DESIGNER ""
#DIFFICULTY 0
#PLAYLEVEL
#SONGID ""
#WAVE ""
#WAVEOFFSET 0
#JACKET ""
#REQUEST "ticks_per_beat 480"
#00002: 4
#BPM01: 167
#00008: 01
#TIL00: ""
#VOLUME: ""
#HISPEED 00
#MEASUREHS 00
#0341a:14
#03414:0014
#03518:14
#03512:0014
#07118:1414
#07114:00140000
#07112:00000014
#00814:0014
#0081a:24
#00810:41
#0091a:14
#00914:0014
#01018:14
#01012:0014
#01118:14
#01112:0014
#01418:14
#01414:0014
#01618:0014
#01612:14
#01712:14
#01718:0014
#01814:14
#0181a:0014
#01914:14
#0191a:0014
#02214:14
#02218:0014
#02312:14
#0231a:0014
#03218:0014
#03212:24
#03210:41
#0401a:2414
#0401f:11
#04218:1414
#04414:0014
#0441a:14
#04412:14
#0481a:2414
#04814:00000014
#0481f:21
#04812:24
#0501a:14
#05012:1414
#05018:00000014
#05010:41
#05318:0014
#0561a:14
#05612:1414
#05618:00000014
#05812:14
#0581a:1414
#05814:00000014
#06114:0014
#06312:0014
#0631a:0014
#06414:00140014
#06418:0014
#0641a:24
#06410:41
#06512:00140014
#06518:0014
#0651a:24
#07012:0014
#0741a:14
#07414:00140000
#07418:0014
#07412:00000014
#07912:14
#07918:00140000
#07914:0014
#0791a:00000014
#0781a:0014
#08212:14
#08218:00140000
#08214:0014
#0821a:00000014
#08414:14
#04114:1414
#04118:00140000
#04314:1414
#04318:00140000
#04518:1414
#04514:00140000
#08314:14
#08318:00140000
#08312:0014
#0831a:00000014
#06618:24
#0681a:24
#00718:26
#00712:0026
#06712:0025
#06918:24
#07612:24
#07714:24
#04612:25
#04619:25
#02410:41
#07210:41
#08712:0053
#00758:16
#00752:0016
#06658:54
#06752:0015
#0685a:54
#06958:24
#07652:64
#07754:24
#08454:64
#000340:1434
#001340:24
#002380:1434
#003380:24
#004320:1434
#005320:24
#0063a0:14
#006390:0035
#007380:26
#0123a0:1424
#013320:1424
#015380:1424
#020320:1424
#0213a0:1424
#024340:14
#025320:24
#026380:14
#0273a0:24
#028340:14
#029320:24
#030380:14
#0313a0:24
#033340:1424
#0363a0:1424
#037340:1424
#038380:14
#0393a0:24
#047320:1424
#0473a1:1424
#049381:14
#0493a1:0024
#051341:14
#051321:0024
#052381:14
#0523a1:0034
#053381:24
#054341:14
#054321:0034
#055341:34
#055321:0024
#057341:14
#057321:0024
#059381:14
#0593a1:0024
#060321:14
#060341:0034
#061321:24
#0623a1:14
#062381:0034
#0633a1:24
#066381:14
#0673a1:24
#0683a1:14
#069381:54
#0703a1:24
#0723a1:1424
#073321:1424
#0753a1:1424
#076321:14
#077341:54
#078321:24
#080321:1424
#0813a1:1424
#084341:14
#087321:0023
