This file was generated by Ched 2.7.0.0.
#TITLE ""
#ARTIST ""
#DESIGNER ""
#DIFFICULTY 0
#PLAYLEVEL
#SONGID ""
#WAVE ""
#WAVEOFFSET 0
#JACKET ""
#REQUEST "ticks_per_beat 480"
#00002: 4
#BPM01: 207
#00008: 01
#TIL00: ""
#VOLUME: ""
#HISPEED 00
#MEASUREHS 00
#00418:0013000013000000
#00415:0000001300000000
#00412:2300000000130000
#0041b:0000000000000013
#00515:1300000000130013
#00518:00131300
#00512:0000001300000000
#0051b:00000013
#01218:0013001300000000
#01212:2313
#0121b:00000013
#01215:00130000
#01210:41
#01315:1313
#01318:0013001300001300
#01312:0000130000000013
#01915:00000013
#01918:0000000000000013
#01919:0024
#01913:0024000000000000
#02715:00000013
#02718:0000000026000013
#02712:0026000000000000
#0491b:0000130000000013
#04912:0013
#04918:0000000000130000
#04915:00000013
#05015:0013001300000000
#05018:0000130013000014
#05014:0000000000140000
#05115:0000000000130000
#0511b:0000000013000013
#05112:0014000000000000
#05212:0013000000130000
#05215:00130000
#05218:0000001300000013
#0521b:0013
#05513:00130000
#0551a:0000001300000000
#05515:00000013
#05514:0013
#05519:0000000000130000
#05512:23
#0551b:23
#0711b:0013000000000000
#07118:0000001300000000
#07115:0000000000130000
#07112:0000000000000013
#07215:0013
#07218:0000000000130000
#07212:00000013
#0721b:0000001300000013
#07318:1313
#07315:0013001300000000
#07312:00130000
#0731b:0000000000130000
#0811b:13130000
#08115:0013001300000000
#08118:00001313
#08112:0000000000130013
#08319:14141414
#08313:0014001400140000
#08314:0000000000000012
#08512:0000000000000013
#08516:0012000000000000
#08518:0000001200000000
#0851a:0000000000120000
#08615:0013000000000013
#08618:0000001300000000
#0861b:0000000000130000
#08718:0013000023000000
#08715:0000002300000000
#0201a:00141400
#02012:2400000000140000
#02016:0000001400001400
#02812:1333000000000000
#0281b:0000000000000013
#03112:0013
#03118:0000000000130000
#03115:00000013
#0311b:0000000000000013
#07914:00000014
#08416:0012000000000000
#08418:0000001200000000
#0841a:0000000000120000
#08414:0000000000000012
#09315:0000001300000000
#0931b:0013
#09312:0000000000130000
#09318:0000000000000013
#09310:41
#00615:0013000013000000
#00618:0000001300000000
#0061b:2300000000130000
#00612:0000000000000013
#00718:1300000000130013
#00715:00131300
#0071b:0000001300000000
#00712:00000013
#00818:0013000013000000
#00815:0000001300000000
#00812:2300000000130000
#0081b:0000000000000013
#00915:1300000000130013
#00918:00131300
#00912:0000001300000000
#0091b:00000013
#02112:1400000000140014
#02116:00140014
#0211a:0014
#02212:00141400
#0221a:2400000000140000
#02216:0000001400001400
#02210:41
#0231a:1400000000140014
#02316:00140014
#02312:0014
#0241a:00141400
#02412:2400000000140000
#02416:0000001400001400
#02512:1400000000140014
#02516:00140014
#0251a:0014
#02915:0000000000000013
#0291b:0033000000000000
#03018:0000000000000013
#03015:0033000000000000
#03212:0000000000000013
#0321b:0033000000000000
#03318:0000000000000013
#03312:0033000000000000
#03415:0000000000000013
#03418:0033000000000000
#03612:0000002400001300
#0361a:2424
#03616:00000024000000000000000000000000
#03610:41
#03718:1300000000130000
#03715:00130013
#0371b:0013
#0381b:00000013
#03812:2424
#03816:00000024000000000000000000000000
#0381a:0000002400000000
#03915:1300000000130000
#03918:00130013
#03912:0013
#04012:0000002400001300
#0401a:2424
#04016:00000024000000000000000000000000
#04118:1300000000130000
#04115:00130013
#0411b:0013
#04112:0000000000000013
#04312:14002424
#0431a:14002424
#05312:0013000000000000
#05315:0000130000130000
#05318:0000001300000000
#0531b:0000000013000013
#05418:0000001300000000
#05415:0000001300000000
#05712:0000130000000013
#0571b:0013
#05715:0000000000130000
#05718:00000013
#05818:0013001300140000
#05815:00131300
#05814:0000000000000014
#05918:0000000000130000
#05912:0000000013000013
#0591a:0014000000000000
#0601b:0013000000130000
#06018:00130000
#06015:0000001300000013
#06012:0013
#0611b:0013000000000000
#06118:0000130000130000
#06115:0000001300000023
#06112:0013
#06312:0023000000000013
#06318:23000023
#0631b:0000002300000000
#06315:0023
#06416:00000000000000000000000000000013
#0661a:0000120000000012
#06614:0012
#06618:0000000000120000
#06616:00000012
#06610:41
#06714:0012000000001200
#0671a:0000001200000012
#06716:0012
#06718:0000000000120000
#06816:12000012
#06818:0000120000120000
#06814:0012
#0681a:0000000000000012
#06914:0012000000001200
#06918:0000001200000012
#06916:0012
#0691a:0000000000120000
#07512:0013000000000000
#07515:0000001300000000
#07518:0000000000130000
#0751b:0000000000000013
#07618:0013
#07615:0000000000130000
#0761b:00000013
#07612:0000001300000000
#0821b:1313
#08215:0013000000130000
#08212:0000001300000013
#08218:00130013
#09115:0000000000000013
#0911a:0024000000000000
#09114:0024
#09118:0000000000240000
#09218:0013000013000000
#09215:0000000000130000
#0921b:0000000000000013
#09212:00240000
#0921f:00210000
#09415:0000001300000000
#09418:00000024
#0971b:00130013
#09715:0013
#09718:0000000000130000
#09712:0000000000000013
#09818:0013000000130000
#09815:00130000
#0981b:0000001300000013
#09812:0000000013000013
#09918:0013000000000000
#09912:0000000000000013
#09915:0013000000000000
#1001b:0013000000000000
#10018:00130000
#10015:0000001300000013
#1001a:0000000000140000
#10012:0013
#1011b:0013000000000000
#10118:0000130000140000
#10115:0000001300000000
#10112:0000000013000024
#10412:00000000000000000000000000140000
#1071a:0014
#10918:0000000000000013
#10915:0000000000000013
#01415:0013001300000000
#0141b:1313
#01412:00000013
#01418:00130000
#01518:1313
#01515:0013001300001300
#0151b:0000130000000013
#01618:0013001300000000
#01612:1313
#0161b:00000013
#01615:00130000
#01715:1313
#01718:0013001300001300
#01712:0000130000000013
#0771f:11
#00318:2323
#00315:00230000
#01018:2400002400000000
#01014:0024000000000000
#01012:00000023
#0101b:00000023
#02618:2626002600000000
#02612:0000000000002626
#04814:00240000
#04818:0024
#04812:00000024
#0481a:24
#04810:41
#06218:00230000
#0621b:0000000000230000
#06212:0000002300000000
#06215:00000023
#07018:0024
#07014:0000000000000024
#07012:24
#0881a:24
#08812:24
#09514:24
#09518:00000024
#1021a:00240000
#10216:0000002400002400
#10212:0000000000240000
#01819:2424002400000000
#01813:0000000000002424
#05618:00240000
#05614:0024
#0561a:00000024
#05612:24
#07414:0024
#07418:0000000000000024
#0741a:24
#08912:0000240000000024
#08916:0024
#0891a:00000024
#0901a:0000002400000000
#09012:0000000000000024
#09614:00240000
#09618:0024
#09612:00000024
#1031a:24000024
#10316:0024000024000024
#10312:0000002400000000
#10812:2400002400002400
#10816:0024000000000000
#1081a:0000002400002400
#00119:0000000000320032
#03515:0033000000000000
#1101b:00530000
#11012:00530000
#0035b:00000013
#00358:0053
#01052:00000053
#0105b:00000063
#01959:0014
#01953:0014000000000000
#02855:0013
#02852:53
#0285b:0000000000000053
#02958:0013
#02955:0000000000000053
#0365a:0014
#05252:0000000000130000
#05555:00000063
#07058:0014
#07054:0000000000000014
#07052:14
#07954:00000054
#01859:0000001400000000
#02658:0000001600000000
#02752:0016000000000000
#02758:0016
#03052:0013
#03058:0000000000000053
#0315b:0000130000000053
#03258:0013
#03252:0000000000000063
#03355:0013
#03358:0000000000000063
#0345b:0013
#03455:0000000000000053
#03552:0013
#03852:0014
#0405a:0014
#04654:0000000000000014
#04658:0000000000000014
#0485a:14
#04854:00140000
#04858:0014
#04852:00000014
#05054:0000000000140000
#05058:0000000000000014
#05152:0014000000000000
#05355:0000000000130000
#0535b:0000000000000053
#05455:0000005300000000
#05458:0000005300000000
#05858:0000000000140000
#05854:0000000000000014
#0605b:0000000000130000
#0595a:0014000000000000
#06158:0000000000130000
#05658:00140000
#05654:0014
#0565a:00000014
#05652:14
#06352:0000000000000053
#06456:00000000000000000000000000000023
#07454:0014
#07458:0000000000000014
#0745a:14
#08852:14
#0885a:14
#08952:0000000000000014
#0905a:0000001400000000
#09252:00140000
#0925b:0000000000000053
#09358:0000000000000053
#09455:0000005300000000
#0965a:14
#09654:00140000
#09658:0014
#09652:00000014
#09558:00000054
#0995b:0000000000130000
#09958:0053000000000000
#09955:0063000000000000
#09952:0000000000130000
#09858:0000000000530000
#0985b:0000000000000053
#09852:0000000000000063
#1005a:0000000000140000
#10158:0000000000140000
#10356:0000000000000054
#10452:00000000000000000000000000240000
#1075a:0054
#1085a:00000054
#10852:00000064
#10958:0000000000000053
#10955:0000000000000063
#000380:1232003232000000
#0003a0:0000000000330033
#001380:3200323232000000
#001390:0000000000320032
#0013a0:00000033
#002380:22
#002361:1232003232000000
#002331:0000000000330033
#003361:22
#003381:0013
#0033b1:00000023
#010321:00000013
#011351:00000023
#0103b0:00000013
#011380:00000023
#028320:1333000000000000
#028350:00332300
#0283b0:0000000000000013
#0293b0:0033000000000000
#029380:00332300
#029350:0000000000000013
#030350:0033000000000000
#030320:00332300
#030380:0000000000000013
#0313b0:0033230000000000
#0313b0:0000000000000013
#0323b0:0033000000000000
#032380:00332300
#032320:0000000000000013
#033320:0033000000000000
#033350:00332300
#033380:0000000000000013
#034380:0033000000000000
#0343b0:00332300
#034350:0000000000000013
#035350:0033000000000000
#035320:00332300
#0423a0:14000024
#042380:0000003400000000
#042321:14000024
#042341:0000003400000000
#0433a1:00000014
#046381:0000000000000024
#043320:00000014
#046340:0000000000000024
#0533b0:0000000000000013
#054380:0000003300000000
#0543b0:00000023
#054351:0000001300000000
#054321:00000023
#055351:00000013
#056321:24
#063321:0000000000000013
#064361:00000000000000000000000000000053
#066321:23
#077351:1300002300000000
#077380:0000001300002300
#077351:00000013
#078351:0023000000000000
#078380:0013000023000000
#078321:00001323
#0783b0:00000013
#0793b0:23
#079351:1300002300000000
#079380:0000001300002300
#079341:00000014
#081321:24
#0923b1:0000000000000013
#093381:00230000
#093381:0000000000000013
#0943b1:0000002300000000
#094350:0000001300000000
#094320:00000023
#095380:00000014
#0963a0:24
#098380:0000000000130000
#0983b0:0000000000000033
#099380:0033000000000000
#0993b0:0000000033230000
#098321:0000000000000013
#099351:0033000000000000
#099321:0000000033230000
#103361:0000000000000014
#104321:00000000000000000000000000540000
#105361:00000024
#1063a1:14
#106361:00240000
#106321:0000001400000000
#106361:0000000000240000
#1063a1:00000014
#107361:24
#107321:0014000000000000
#107361:0000002400000000
#1073a1:0014
#108361:24
#1083a1:00000014
#109381:0000000000333333
#1103b1:00230000
#108320:00000014
#109350:0000000000333333
#110320:00230000
