This file was generated by Ched 2.7.0.0.
#TITLE ""
#ARTIST ""
#DESIGNER ""
#DIFFICULTY 0
#PLAYLEVEL
#SONGID ""
#WAVE ""
#WAVEOFFSET 0
#JACKET ""
#REQUEST "ticks_per_beat 480"
#00002: 4
#BPM01: 268
#00008: 01
#TIL00: ""
#VOLUME: ""
#HISPEED 00
#MEASUREHS 00
#04612:0016
#04618:26
#04610:41
#0661a:14
#0671a:14
#07018:14
#0701f:11
#07114:14
#00514:14
#00618:14
#02218:14
#02210:41
#02314:14
#00718:14
#00812:14
#00912:14
#0101a:14
#0111a:14
#01518:14
#0191a:14
#02418:14
#02514:14
#0261a:14
#02712:14
#0281a:14
#02912:14
#03018:14
#03114:14
#0321a:14
#03312:14
#03418:14
#03410:41
#03514:14
#0361a:14
#03712:14
#04718:16
#05018:1616
#05112:1616
#05418:0016
#05412:26
#05512:16
#05812:1616
#05810:41
#05918:1616
#06812:14
#06912:14
#07218:14
#07314:14
#0741a:14
#07512:14
#0761a:14
#07712:14
#09012:0016
#09018:26
#0901f:21
#10218:2616
#10312:1616
#10418:16
#10412:0016
#09412:2616
#09518:1616
#09612:16
#09618:0016
#09818:16
#09812:0016
#09918:16
#09912:0016
#10112:0016
#10112:0016
#09118:16
#09112:0016
#09312:16
#09318:0016
#11018:0016
#11012:26
#11010:41
#11112:16
#11118:0016
#11212:16
#11218:0016
#11418:1616
#11512:1616
#11618:16
#11612:0016
#12218:14
#12214:0014
#12318:14
#12414:14
#12418:0014
#12514:14
#12618:14
#12614:0014
#12718:14
#1301a:14
#13014:0014
#1311a:14
#13212:14
#13218:0014
#13312:14
#1341a:14
#13414:0014
#1351a:14
#04812:16
#04818:0016
#04912:16
#05618:16
#05612:0016
#05718:16
#08619:24
#08613:24
#00414:24
#09210:41
#012340:14
#014320:24
#016320:14
#018340:24
#020320:14
#021320:24
#038380:14
#039380:24
#040340:14
#041340:24
#0423a0:14
#0433a0:24
#044320:14
#045320:24
#052380:16
#053380:26
#060320:16
#061320:26
#062380:15
#063380:25
#064340:14
#065340:24
#078380:14
#079380:24
#080340:14
#081340:24
#0823a0:14
#0833a0:24
#084320:14
#085320:24
#086390:14
#089380:26
#086331:14
#089321:26
#092381:1626
#097321:1626
#100381:16
#101381:26
#105381:1626
#106321:1636
#107321:3626
#108381:1636
#109381:3626
#113321:1626
#117381:16
#118381:26
#119321:16
#121321:24
#128321:14
#129321:24
#136321:14
#137321:24
#1383a1:14
#1393a1:34
#140381:00340000
#140391:0000000000340000
#1413a1:3424
