This file was generated by Ched 2.7.0.0.
#TITLE ""
#ARTIST ""
#DESIGNER ""
#DIFFICULTY 0
#PLAYLEVEL
#SONGID ""
#WAVE ""
#WAVEOFFSET 0
#JACKET ""
#REQUEST "ticks_per_beat 480"
#00002: 4
#BPM01: 170
#00008: 01
#TIL00: ""
#VOLUME: ""
#HISPEED 00
#MEASUREHS 00
#0081a:14
#00810:41
#0091a:14
#01014:14
#01114:14
#01218:14
#01318:14
#01412:14
#01512:14
#03218:16
#03412:16
#03618:16
#03812:16
#03918:16
#04012:14
#04010:41
#04118:14
#04214:14
#0431a:14
#04412:14
#04518:14
#0481a:14
#04917:0014
#0491a:34
#05212:14
#05315:0014
#05312:34
#07214:0016
#07212:26
#07316:16
#07318:0016
#07618:16
#07612:0016
#07718:1616
#07812:16
#07818:0016
#07912:1616
#08012:0014
#0801a:24
#0811a:14
#08112:0014
#08218:14
#08214:0014
#08318:14
#08314:0014
#08412:0014
#0841a:24
#0851a:14
#08512:0014
#0561f:11
#05618:14
#06418:2616
#0641f:00210000
#06410:0041
#06618:1616
#06512:1616
#06712:1616
#07112:16
#07118:0016
#02418:2616
#02518:1616
#02612:2616
#02712:1616
#02818:2616
#02810:41
#02918:1616
#03012:1600000000000016
#05718:14
#05814:14
#05914:14
#06019:15
#06119:15
#06212:15
#06312:15
#07412:2626
#07512:26
#00614:34
#00514:34
#00218:34
#00118:34
#0501a:34
#05412:34
#05510:41
#02010:41
#03258:56
#03452:66
#03658:56
#0485a:54
#04957:0024
#05252:64
#05355:0024
#03052:0000000000000066
#000380:14
#001380:34
#002380:34
#0033a0:24
#004340:14
#005340:34
#006340:34
#007320:24
#0163a0:14
#0173a0:24
#018320:14
#019320:24
#020380:14
#0213a0:24
#022340:14
#023320:24
#030320:0000000016000036
#031320:0024
#032380:16
#0323a0:0034
#0333a0:3424
#034320:1634
#035320:3424
#036380:16
#0363a0:0034
#0373a0:3424
#046340:14
#047340:24
#0483a0:14
#0493a0:34
#049370:0054
#0503a0:34
#0513a0:24
#052320:14
#053320:34
#053350:0054
#054320:34
#055320:24
#068380:1626
#069320:1626
#070380:1626
#075320:1626
#086380:14
#0863a0:00000034
#087380:0024
#088340:14
#090320:24
