This file was generated by Ched 2.7.0.0.
#TITLE ""
#ARTIST ""
#DESIGNER ""
#DIFFICULTY 0
#PLAYLEVEL
#SONGID ""
#WAVE ""
#WAVEOFFSET 0
#JACKET ""
#REQUEST "ticks_per_beat 480"
#00002: 4
#BPM01: 202
#00008: 01
#TIL00: ""
#VOLUME: ""
#HISPEED 00
#MEASUREHS 00
#01718:14
#01710:41
#01814:14
#01918:14
#02014:14
#0211a:14
#02212:14
#0231a:14
#02412:14
#01018:14
#00918:14
#01214:14
#01114:14
#0141a:14
#0131a:14
#01612:14
#01512:14
#0331a:14
#0341a:14
#03512:14
#03612:14
#03718:14
#03818:14
#03914:14
#04218:14
#04214:0014
#04318:2616
#04310:41
#04512:0016
#04518:16
#04412:1616
#04618:16
#04612:0016
#04912:0016
#04918:16
#05018:16
#05112:2616
#05318:0016
#05312:16
#05218:1616
#05412:16
#05418:0016
#05718:0016
#05712:16
#05812:16
#05912:0016
#05918:16
#06018:16
#06914:14
#0691f:11
#07018:14
#07112:14
#0721a:14
#07314:14
#07418:14
#07912:0016
#07918:26
#08318:0016
#08312:16
#08412:16
#08418:0016
#07718:1414
#07814:1414
#0781f:00000021
#08112:1616
#08218:1616
#08718:0016
#08712:16
#09112:0016
#09118:16
#09218:16
#09212:0016
#08918:1616
#09012:1616
#09010:41
#08512:2616
#08618:1616
#09312:0016
#09318:16
#09418:16
#09514:14
#09614:14
#09718:14
#09818:14
#09912:14
#0991a:0014
#10012:14
#1001a:0014
#10114:14
#10118:0014
#10214:14
#00312:0016
#00318:16
#00212:16
#00418:16
#00512:16
#00618:16
#00718:0016
#00712:16
#00812:16
#00118:26
#08010:41
#05510:41
#02910:41
#0253a0:14
#0263a0:24
#027320:14
#028320:24
#029380:14
#030380:24
#031340:14
#032340:24
#040340:14
#041340:24
#047380:1626
#048320:1626
#055320:1626
#056380:1626
#061340:14
#062320:34
#063340:34
#064320:24
#065380:14
#0663a0:34
#067380:34
#0683a0:24
#075320:14
#076320:24
#080380:1626
#088320:1626
