This file was generated by Ched 2.7.0.0.
#TITLE ""
#ARTIST ""
#DESIGNER ""
#DIFFICULTY 0
#PLAYLEVEL
#SONGID ""
#WAVE ""
#WAVEOFFSET 0
#JACKET ""
#REQUEST "ticks_per_beat 480"
#00002: 4
#BPM01: 95
#00008: 01
#TIL00: ""
#VOLUME: ""
#HISPEED 00
#MEASUREHS 00
#01412:0013000000000000
#01415:0000001313001300
#01418:0013001300130013
#00219:0012
#00213:000000000000000000000012120000000000000000000000
#00218:000000000000000000000000000000000012000000000000
#0021b:0000000000000012
#00215:0000000000000012
#00316:0012
#00318:0000000000000012
#0031b:0012
#00317:000000000000000000000000000000000012000000000000
#00313:0000000000000012
#01212:000000130000000000000000130000000000130000000013
#01214:00130000
#01219:00130000
#0121b:000000000000000000130000130000000013130000000000
#01217:0013000000000000
#01216:0000001300140014
#0131b:13130013
#01314:0013000023000000
#01312:13130000
#01315:00000013
#01319:0013000023000000
#01310:0041
#0341a:00000013
#03418:000000000000000000000013000000000000000000000000
#03419:0000000000130000
#0341b:0000000000000013
#03412:0013
#03516:13
#03514:0013000000000000
#03512:00132300
#0351b:13
#03519:0013000000000000
#03517:00130000
#03714:13
#03719:13
#0371a:00130000
#03717:0000001300000013
#03716:0000000000130000
#0381b:13
#03812:000000000013000000000000000000000000000000000000
#03816:0000001400140014
#03918:000000000000000000000013000000000000000000000000
#03912:1313
#03915:000000000000000000000000000000130000000000000013
#0391b:13
#03914:0000000000000013
#03919:0000000000000013
#04015:00001313
#04018:0013000013130000
#0401b:130000000000000000000000000000000000000000000023
#04014:0000001300000000
#04019:0000001300000000
#04012:000000000000000000000000000000000000000000000023
#01515:0013000000000000
#01518:001300000000000000130000
#01514:0013
#01519:0013
#01512:00000013
#0161b:0013001300000000
#01618:000000000000000000000013000000130000000000130000
#01615:0013000013001300
#01612:0000001300000000
#01717:00000013
#01712:000000000000000000000000000000000013000000000000
#01714:000000000013
#01719:0000131323000013
#01716:000000000000000000000000000000000000000000000013
#01710:0041
#0181b:130000000000130000000013000000000000000000000013
#01812:0013000000001313
#01815:000000000000130000000000000000000000000000000013
#01816:0013
#01819:000000000000001300000000
#01814:0000000000130000
#01817:000000000000000000000000000000000013000000000000
#01818:0013000000000013
#01914:0000131323000000
#01912:00000013
#01915:0000000000000013
#01918:000000000013
#0201b:130000000000130000000013000000000000000033000000
#02012:00130000
#02018:00001300000013000000131300000000
#02015:001300001300130000000000
#02512:000000000000130000000013000000000000130000130000
#02514:0013000000000000
#02517:000000000000000000000000130000000013000000000000
#0251b:0000130000130000
#02516:000000000000001300000000
#02519:0013000000000000
#02518:0000000000000013
#02510:0041
#0261b:000000000000000000000000130013000000000000130013
#02618:0000001300000000
#02615:001300
#02616:000000000000000000000000000000130000000013000000
#02617:000000000000000000000000000000000013000000000000
#02612:00001313
#02712:130000000000000013000000130000000000000000130000
#02718:000000130013000000000000000000000013000000130000
#02715:001300130000000000000000
#0271b:000013130000
#02817:0013000013000000
#02814:0000000000130000
#02819:00000013
#02812:0013001300000013
#0281b:0000131300000000
#02816:00130000
#02916:13
#0291b:1300000000130000
#02912:0000000000130000
#02918:00000013
#02915:000000000000000000000000000000000013000000000013
#04112:000000130000231300001300
#04119:0000001300000000
#0411b:000000000000130000000000230000000013000000000013
#04114:0000001300000000
#04117:0000000000130013
#04116:00000013
#0411f:0021
#04217:0013000013001300
#04216:1300001300130013
#04212:000013000000000000000013000000000013000000000013
#0421b:000000001300001300001300
#04210:0041
#0431b:000013000000000000000013000000000013000000000013
#04315:00001414
#04317:1300001400140014
#04312:000000001300001300001300
#04316:0013000000000000
#05314:0000001300001200
#05318:00000012
#05312:1313
#05316:0013000000000000
#05317:00130000
#0531b:0000001300000000
#05319:0013000000000000
#05416:1200001200000000
#0541a:0012000000120000
#0541b:0012
#05419:00000012
#05418:0000000000000012
#0541c:0000001200000000
#05415:0012
#05414:0000000000120000
#05413:00000012
#05412:0000000000000012
#05516:0012000000000000
#05518:001200000000000000000000
#05514:00000012
#0551a:00000012
#05619:0012000000000000
#0561c:0000001200000000
#05618:0012
#05616:000000000000000000000012000000000000000000000000
#05612:0000000000120000
#05615:12
#0561a:0000000000001212
#04412:000013000013000000000000000000000000000000000000
#04417:0014000000000000
#04418:000000001300130000130000
#04415:140000000000000000130013000000130000000013000000
#0441b:000000000013000000000000000000000000000000130000
#04512:000000000013000000000000230000130000000000130000
#04516:000000000000000000130000000014000014000014000014
#0451b:000000001300230000130000
#04517:00130000
#0461b:1300001300130013
#04612:000000000013000000000000130000000000130000000000
#04616:000014000000000014000014000014000014000014000014
#04712:130000001400000000141400
#0471b:0013000000000000
#04716:000014000000000000140014000000140014000000140014
#0471a:000000000000141400000000
#0481b:000000000013000000000000000000000000000000000000
#04815:000000001300130000130000
#04818:000000000000000000130013000000130000000013000000
#04812:000000000013000000000000000000000000000000130000
#04816:0014000000000000
#0481a:141400000000000000000000
#04912:00131300
#0491b:00130013
#05012:00130023
#0501b:00231300
#05014:0013000000000013
#05019:0000000000000013
#05116:13
#05118:0000130000000013
#05115:0000001313000000
#0511b:1300001300131300
#05112:0000230000130013
#05212:1300000000130000
#05214:0000000000000013
#05216:0013
#05217:0000130000000013
#05215:0013001300000000
#0521b:0000001300131300
#05218:0013000000000000
#02212:130000000000000013000013000000000000000000000013
#0221b:000000130000000013000000000000000000130000130000
#02218:000000000000130000000000000000000000000000000013
#02217:0013
#02214:000000000000001300000000
#02219:0000000000130000
#02216:000000000000000000000000000000000013000000000000
#02215:000000130013000000000000000000000000000000130000
#0231b:0000131313000013
#02315:0000000000001313
#02312:00130000
#02318:000000000000000000000000000000000013000000000000
#02412:13130013
#0241b:0013001300130000
#02418:13131300
#02415:000000130000000000000013000000130000000000000000
#02118:000000000000000000000000000000000000000013000013
#02112:0000131313000013
#0211b:000000000000130000000000000000000013000000000000
#02115:00000013
#0041b:00130013
#00412:00130000
#00415:000000000000000000000000000000000013000000130000
#00410:0041
#00518:130000130000000000000013000000000000130000000000
#00515:0000130000130013
#00512:0013
#0051b:00130000
#00618:130000000000000000330000000000000013000000130000
#00612:13130013
#0061b:00130000
#00615:0000003300000000
#00715:130000130000000000000013000000000000130000000000
#00718:0000130000130013
#0071b:0013
#00712:0000130000000013
#00815:00130013
#00818:000000000000130000000000000000000013000000130000
#00915:130000000000130000000013000000130000000000130000
#00912:0013000000000000
#00918:0013000013001300
#0091b:0000130000000013
#01012:1300003300000013
#01018:130000000000130000000000000000000013000000000000
#01015:00130013
#0101b:0000003300000000
#01115:13130000
#01118:0013000000000000
#0111b:13130000
#01112:0000001300000000
#03018:131300000000000000000000
#03015:0013000000000013
#03012:000000000000130000000013000000000000130000000013
#03017:000000000000000000000000130000000013000000000000
#03016:0000000000130000
#0301b:0000130000130013
#03010:0041
#03117:13130000
#03116:0013001300000000
#03112:000000000013000000000000000000130000000000130000
#0311b:000013000000000013000000000000130000000000130000
#03115:00000013
#03118:000000000000000000000000000000000013000000000000
#0331b:00132300
#03312:0013000000000000
#03317:0013000000000000
#03316:00130000
#0331f:0011
#03216:13
#03219:0013000000000000
#03214:00130000
#0321b:000000000000000000130000000000000000000013000000
#03212:000000000000000000000000130000130013000000000000
#03218:0000000013130000
#03613:00000013
#03615:000000000000000000000013000000000000000000000000
#03614:0000000000130000
#03612:0000000000000013
#0361b:0013
#03452:0053
#03552:00130000
#03557:00130000
#03754:13
#03759:13
#04055:00005353
#04058:0023000000530000
#04052:000000000000000000000000000000000000000000000013
#0405b:630000000000430000000000000000000000000000000013
#03952:63005333
#03955:0000000000230000
#0395b:63
#02058:00000000000000000000006300000000
#02055:0053
#04458:0063
#04455:0000000000630000
#0445b:000000000013000000000000000000000000000000130000
#04452:000000000013000000000000000000000000000000000000
#04257:0013000000000000
#0485b:000000000013000000000000000000000000000000000000
#04855:0053
#04858:0000000000530000
#04852:000000000013000000000000000000000000000000130000
#0485a:14
#0495b:00630053
#04952:0063
#05052:00630000
#0505b:0063
#05158:0000630000000023
#05155:0063
#0515b:0000002300006300
#05152:0000000000230000
#05252:6300000000230000
#05257:0000630000000023
#05256:0063
#0525b:0000002300006300
#05255:0023000000000000
#05352:53
#05356:0023000000000000
#05357:00630000
#0535b:0000002300000000
#02458:00005313
#0245b:0000000000230000
#02452:00000023
#02455:0000000000530013
#0215b:00630000
#02157:0013
#02152:0013
#02356:0013
#02352:00630000
#0235b:0013
#00452:00630000
#0045b:00630000
#01458:0013006300630000
#01455:00005353
#01452:0013000000000000
#0135b:00130063
#01355:00000063
#01352:00130000
#0165b:0013000000000000
#01655:0013000053005300
#01658:0000000000630000
#01552:00000053
#01558:00000053
#0275b:0043
#02752:0000000033000053
#02758:0000000000000053
#0295b:53
#02956:53
#02957:00130000
#02952:0000001300000000
#02958:00000063
#02852:0000006300000000
#02857:0063
#02854:0000000000630000
#02859:00000063
#03256:5300000000000013
#03259:0053000000000000
#03254:00530000
#03252:000000000000000000000000000000000063000000000000
#0325b:000000000013
#0315b:0000000000000053
#01756:0013
#01957:0013
#03852:13
#0385b:13
#02552:00130000
#0255b:00130000
#02655:000000000013000000000000000000000000000000000000
#02658:000000000013000000000000000000000000000000000000
#03052:00130000
#0305b:00130000
#04356:0013000000000000
#0455b:00000013
#0465b:13
#04652:000000000013000000000000130000000000130000000000
#04752:13000014
#0475a:0014
#00652:00530000
#0065b:00530000
#00858:00630000
#00855:00630000
#01058:00630000
#01055:00630000
#0365b:0063
#0043b0:00130000
#004380:0023
#004321:00130000
#004351:0023
#006321:00130000
#006351:0000003323000000
#0063b0:00130000
#006380:0000003323000000
#008380:00130000
#0083b0:0023
#008351:00130000
#008321:0023
#010381:00130000
#0103b1:0000003323000000
#010350:00130000
#010320:0000003323000000
#011380:0000000013000023
#011351:000000000000000000000000000000000013000000230000
#0133b1:00000013
#014381:23
#013350:00000013
#014320:23
#014380:0000001300000000
#0143b0:0023
#014351:0013
#014321:0000000000230000
#014380:0000000000130000
#0143b0:00000023
#014351:00000013
#014321:0000000000000023
#015321:00000013
#016351:23
#015380:00000013
#0163b0:23
#016350:0013
#016320:0000000000230000
#016381:0000000000130000
#0163b1:00000023
#016350:00000013
#016320:0000000000000023
#017320:00130000
#017360:0023
#0193b0:00130000
#019370:0023
#020350:0013
#020320:0000000000230000
#020380:00000000000000000000001300000000
#0203b0:000000000000000000000000000000000000000033230000
#0213b0:00130000
#021370:0023
#023320:00130000
#023360:0023
#024380:00001323
#0243b0:0000000000530000
#024351:0000000000130023
#024321:00000053
#0253b1:000000000000000000000000000000000000000000000013
#026381:000053000023000000000000000000000000000000000000
#026350:000013000023000000000000000000000000000000000000
#027320:0000000000001353
#028350:23
#027381:0000000000000013
#0283b1:23
#028321:0000001300000000
#028341:0023
#028370:0013
#028390:0000000000230000
#028341:0000000000130000
#028361:00000023
#028390:00000013
#0283b0:0000000000000023
#029360:13
#029320:0000532300000000
#0293b1:13
#029371:00230000
#029380:00000013
#0293a0:0000000000000023
#0313b0:0000000000000013
#032390:23
#032361:13
#032341:0023000000000000
#032390:0013000000000000
#032370:00230000
#032341:00130000
#032321:0000002300000000
#032321:000000000000000000000000000000000013000000000000
#032361:0000000000000023
#033321:0013
#033351:0000000000230000
#033380:0000000000130000
#0333b0:00000023
#033351:00000013
#034321:23
#0343b0:13
#034380:0023000000000000
#034351:0013000000000000
#034321:00230000
#034380:00130000
#0343b0:0000002300000000
#034320:0013
#034360:0000000000000023
#0353b0:0013
#035380:0000000000230000
#035351:0000000000130000
#035321:00000023
#035380:00000013
#0363b0:23
#036321:13
#036351:0023000000000000
#036380:0013000000000000
#0363b0:00230000
#036351:00130000
#036321:0000002300000000
#0363b1:0013
#036371:0000000000000023
#037331:00130000
#037321:0023
#0373a0:0013
#0373b0:00000023
#037331:00000013
#038321:23
#0383a1:00130000
#0383b1:0023
#038330:0013
#038320:00000023
#0383b1:00000013
#0393b1:33
#039381:00230000
#039320:13
#039350:00230000
#039320:00001323
#039350:0000000000530000
#0403b0:13230000
#040380:0053000000000000
#040350:0013
#040320:0000000000230000
#040381:0000000000130000
#0403b1:00000023
#040350:00000013
#040320:000000000000000000000000000000000000000000330023
#0403b1:000000000000000000000000000000000000000000130023
#044381:0013
#0443b1:0000000000230000
#044350:0000000000130000
#044320:00000023
#048350:0013
#048320:0000000000230000
#048381:0000000000130000
#0483b1:00000023
#0493b1:00130000
#049371:0023
#049320:0013
#049360:00000023
#0493b1:00000013
#050371:23
#050321:00130000
#050361:0023
#0503b0:0013
#050370:00000023
#051380:00132300
#0513b0:0000005300000000
#051351:00001323
#051321:0000000000530000
#0513b0:00000013
#051380:0000000000000053
#0523b0:23
#052321:13230000
#052351:0053000000000000
#052370:00130000
#0523b0:0000005300000000
#052390:0023
#052361:0013
#052321:0000000000530000
#052341:00000023
#0523b0:00000013
#052370:0000000000000053
#0533b0:23
#053321:13230000
#053361:0053000000000000
#053370:00132300
#0533b0:0000005300000000
#056340:0000000000001222
