This file was generated by Ched 2.7.0.0.
#TITLE ""
#ARTIST ""
#DESIGNER ""
#DIFFICULTY 0
#PLAYLEVEL
#SONGID ""
#WAVE ""
#WAVEOFFSET 0
#JACKET ""
#REQUEST "ticks_per_beat 480"
#00002: 4
#BPM01: 127
#00008: 01
#TIL00: ""
#VOLUME: ""
#HISPEED 00
#MEASUREHS 00
#0321f:11
#0321b:1313130000001300
#0321a:00000000000012000012000000000000
#0321c:00000000000000120000120000000000
#03216:24141414
#0041a:12
#00419:00120000
#00415:00000000000000000000000000000051
#00417:00000000000000000000000000000051
#00519:00120000
#00516:00120000
#0051b:0012
#00518:0012
#00614:12
#00615:00120000
#0061a:00000000000000000000000000000051
#00618:00000000000000000000000000000051
#00715:00120000
#00718:00120000
#00713:0012
#00716:0012
#00115:0012
#00118:0012
#00319:0012
#00316:0012
#00818:00001300000000000013000000001300
#00815:00000013001300000053130000130000
#00812:24000000000000000000000000000013
#0081b:00000000000000530000001300000000
#0081a:24
#00810:41
#00919:13000000000000000013000000000000
#00916:00130000000000000000130000000000
#00913:00001300000000000000001300000000
#0091b:00000023000000000000000013000000
#00918:00000013002300000000000000130000
#00915:00000000001300230063000000001300
#00912:00000000000000000053000000000013
#01218:00001300000000000000001300001300
#01215:00000013001300000053130000000013
#01212:25000000000000000013000000000000
#0121b:00000000000000530000000000130000
#0131b:13000000000000000053000013000000
#01318:00130000001300230063001300130000
#01315:00001300002300000000130000001300
#01312:00000023000000000013000000000013
#01615:00000000130000130013000013000000
#01618:0000000000000013
#01612:25
#0161a:00520000
#01619:0052
#05619:00001300000000000000001300000000
#05615:00000013000000000000000000000000
#0561b:00130000
#05613:00000000000000000013000000000000
#05616:0000000000130000
#0561a:24000000000000000053000000130000
#05614:00000000000000000000000000000013
#05617:00000000000000530000000000001300
#05612:24000013
#0571b:13130000
#05718:00130000000000000000001300000000
#05715:0013000000130000
#05712:00000013000000130013000013000000
#05716:00000000001300000000000000000000
#0571a:00000000000000000000000000130000
#05717:00000000000000000053000000001300
#05714:00000000000000000000000000000013
#06018:00001300000000530000000000000000
#06015:00000013000000000000000000000000
#0601b:00000000130000000053000000000000
#06014:00000000000000000013000000000000
#06017:0000000000130000
#0601a:00000000000000000000001300000000
#06019:00000000000000000000000000130000
#06016:0000000000000013
#06013:00000000000000000000000000000013
#06012:25000013
#0611b:13130013
#06118:00130000000000000000001300130000
#06115:00001300000000130000130000001300
#06112:00000013000000000013000013000013
#06117:00000000001300000000000000000000
#06119:00000000000000000053000000000000
#05814:00001300000000000000001300000000
#05818:00000013000000000000000000000000
#05812:00130000
#0581a:24000000000000000013000000000000
#05817:0000000000130000
#05813:00000000000000000053000000130000
#05819:00000000000000000000000000000013
#05816:00000000000000530000000000001300
#0581b:00000013
#05810:41
#05912:13130000
#05915:00130000000000000000001300000000
#05918:0013000000130000
#0591b:00000013000000130013000013000000
#05917:00000000001300000000000000000000
#05913:00000000000000000000000000130000
#05916:00000000000000000053000000001300
#05919:00000000000000000000000000000013
#06215:00001300000000530000000000000000
#06218:00000013000000000000000000000000
#06212:00000000130000000053000000000000
#06219:25000000000000000013000000000000
#06216:0000000000130000
#06213:00000000000000000000001300000000
#06214:00000000000000000000000000130000
#06217:0000000000000013
#0621a:00000000000000000000000000000013
#0621b:00000013
#06318:0000130000236313
#0631b:0000130000236313
#06316:0014001400000000
#06315:2300000000530053
#06312:2300000000530053
#01015:00001300000000000013000000001300
#01018:00000013001300000053130000130000
#0101b:00000000000000000000000000000013
#01012:00000000000000530000001300000000
#0101a:24
#01114:13000000000000000013000000000000
#01117:00130000000000000000130000000000
#0111a:00001300000000000000001300000000
#01112:00000023000000000000000013000000
#01115:00000013002300000000000000130000
#01118:00000000001300230063000000001300
#0111b:00000000000000000053000000000013
#01415:00001300000000000000001300001300
#01418:00000013001300000053130000000013
#0141b:00000000000000000013000000000000
#01412:00000000000000530000000000130000
#01419:25
#01512:13000000000000000053000013000000
#01515:00130000001300230063001300130000
#01518:00001300002300000000130000001300
#0151b:00000023000000000013000000000013
#01510:41
#0171a:14
#01718:00000000130000130013000013000000
#01715:0000000052000013
#01716:52
#01714:00520000
#01816:00000000140000140014000014000000
#01812:14
#01818:52
#0181a:00520000
#01814:0052
#0181b:00000052
#01918:00130000
#01915:00000013
#01916:0053000000000015
#0191b:00235253
#01912:00530023
#01913:52
#01919:0053000000000000
#01914:0000000000530000
#01917:0000000000530000
#0201b:00130000
#02019:25000000000000130013000000000000
#02016:0022620052001400
#0201a:0000000000000014
#02012:2500000000220000
#02014:0000002262000000
#02018:00520000
#02112:1400130000000014
#02114:00000000000000130013000000000000
#02116:53520014
#02118:0022620052000000
#0211a:0000002262000000
#0211c:0000000000220000
#02216:00140052
#02214:00000000520000140000220062000000
#02218:00005214
#0221a:1400002262000000
#02212:0022620000000000
#0221c:0000000000000022
#02217:53
#02316:0000000000000014
#02313:00240000
#02319:00000024
#02312:0000002262000000
#02315:0053000000005300
#02314:0052
#02318:0000530000530000
#0231a:52
#0231c:62
#02418:0013000000001300
#02415:00000000130000140014000013001400
#0241b:0000001300130000
#02412:25230023
#02419:25
#02515:00001313000000000000000013000000
#02518:00130013
#02512:1500001300130000
#02516:00000000000000140014000000000000
#02517:0000000000000014
#0251b:00230023
#02619:15
#02618:0013000000000000
#02615:00130013
#0261b:0000001300130000
#02617:00000000000000140014000000000000
#02612:00230023
#02712:1300000014000053
#0271b:0000230000530000
#0271a:0053000000002400
#02710:41
#02717:53
#02716:00530000
#02713:0000005300000000
#02718:0053
#02715:00000053
#0281b:13
#02818:5316001600161300
#02815:0000130000001314
#02817:00000000000000130013000000000000
#02812:25230023
#02912:1616001600160000
#02918:00130013
#02916:00000000000000130013000000000000
#02915:00000013
#02917:0000000000000014
#0291b:00230023
#03018:16001600000016000013000013000000
#03015:00000000130000130000000000000000
#03012:0000230000160016
#0301b:00000023
#03118:14000015000014000000000000000000
#03112:16250025
#03113:00000000000000000015000000000000
#03119:0000000000150000
#03115:0000000000000013
#03312:13001300130000120000000013000000
#03314:00000000000012000012001200000000
#03316:24141414
#0331b:0000000000000013
#0361b:1313130000000000
#0361a:00000000000012000012000000000000
#0361c:00000000000000120000120000000000
#03614:23131300
#03618:00000014
#03617:0000000000130000
#03712:13001300130000120000120014000000
#03714:00000000000012000012000000000000
#03719:23131300
#03716:0000000000130014
#0341a:24141414
#03412:24141414
#03417:1212120000001200
#03416:00000000000012000012000000001400
#03418:00000000000000120000120000000000
#03518:1313
#03516:0014001400140000
#03515:00130013
#03512:00005313
#0351b:00530000
#03815:1300002300001300
#03818:2312001312002314
#03816:0000120000120000
#03814:00000000000000000000000000000014
#03812:13000012000013000012000053000000
#0381c:00000012000000000012000000000000
#0381b:1300001300005300
#0391b:13
#03915:0000001300000000
#03912:13
#03918:0000001300000000
#03916:248400000000000000000000000000000000000000000000000000000000000000000000000000000000000000000000000000000000000000000000000000000000000000000000000000000000000000000000000000000000000000000000000000000000000000000000000000000000000000000000000000000000000000000000000000000000000000000000000000000000000000000000000000000000000000000000000000000000000000000000000000000000000000000000000000000000000000000000000000000000000000000000000000000000000000000000000000000000000000000000000000000000000000000000000000000000000000000000000000000000000000000000000000000000000000000000000000000000000000000000000000000000000000000000000000000000000000000000000000000000000000000000000000000000000000000000000000000000000000000000000000000000000000000000000000000000000000000000000000000000000000000000000000000000000000000000000000000000000000000000000000000000000000000000000000000000000000000000000000000000000000000000000000000000000000000000000000000000000000000000000000000000000000000000000000000000000000000000000000000000000000000000000000000000000000000000000000000000000000000000000000000000000000000000000000000000000000000000000000000000000000000000000000000000000000000000000000000000000000000000000000000000000000000000000000000000000000000000000000000000000000000000000000000000000000000000000000000000000000000000000000000000000000000000000000000000000000000000000000000000000000000000000000000000000000000000000000000000000000000000000000000000000000000000000000000000000000000000000000000000000000000000000000000000000000000000000000000000000000000000000000000000000000000000000000000000000000000000000000000000000000000000000000000000000000000000000000000000000000000000000000000000000000000000000000000000000000000000000000000000000000000000000000000000000000000000000000000000000000000000000000000000000000000000000000000000000000000000000000000000000000000000000000000000000000000000000000000000000000000000000000000000000000000000000000000000000000000000000000000000000000000000000000000000000000000000000000000000000000000000000000000000000000000000000000000000000000000000000000000000000000000000000000000000000000000000000000000000000000000000000000000000000000000000000000000000000000000000000000000000000000000000000000000000000000000000000000000000000000000000000000000000000000000000000000000000000000000000000000000000000000000000000000000000000000000000000000000000000000000000000000000000000000000000000000000000000000000000000000000000000000000000000000000000000000000000000000000000000000000000000000000000000000000000000000000000000000000000000000000000000000000000000000000000000000000000000000000000000000000000000000000000000000000000000000000000000000000000000000000000000000000000000000000000000000000000000000000000000000000000000000000000000000000000000000000000000000000000000000000000000000000000000000000000000000000000000000000000000000000000000000000000000000000000000000000000000000000000000000000000000000000000000000000000000000000000000000000000000000000000000000000000000000000000000000000000000000000000000000000000000000000000000000000000000000000000000000000000000000000000000000000000000000000000000000000000000000000000000000000000000000000000000000000000000000000000000000000000000000000000000000000000000000000000000000000000000000000000000000000000000000000000000000000000000000000000000000000000000000000000000000000000000000000000000000000000000000000000000000000000000000000000000000000000000000000000000000000000000000000000000000000000000000000000000000000000000000000000000000000000000000000000000000000000000000000000000000000000000000000000000000000000000000000000000000000000000000000000000000000000000000000000000000000000000000000000000000000000000000000000000000000000000000000000000000000000000000000000000000000000000000000000000000000000000000000000000000000000000000000000
#03917:000000000000000000000000000000000000000000000000000000000000000000000000000000000000000000000000000000000000000000000000000000000000000000000000000000000000000000000000000000000000000000000000000000000000000000000000000000000000000000000000000000000000000000000000000000000000000000000000000000000000000000000000000000000000000000000000000000000000000000000000000000000000000000000000000000000000000000000000000000000000000000000000000000000000000000000000000000000000000000000000000000000000000000000000000000000000000000000000000000000000000000000000000000000000000000000000000000000000000000000000000000000000000000000000000000000000000000000000000000000000000000000000000000000000000000000000000000000000000000000000000000000000000000000000000000000000000000000000000000000000000000000000000000000000000000000000000000000000000000000000000000000000000000000000000000000000000000000000000000000000000000000000000000000000000000000000000000000000000000000000000000000000000000000000000000000000000000000000000000000000000000000000000000000000000000000000000000000000000000000000000000000000000000000000000000000000000000000000000000000000000000000000000000000000000000000000000000000000000000000000000000000000000000000000000000000000000000000000000000000000000000000000000000000000000000000000000000000000000000000000000000000000000000000000000000000000000000000000000000000000000000000000000000000000000000000000000000000000000000000000000000000000000000000000000000000000000000000000000000000000000000000000000000000000000000000000000000000000000000000000000000000000000000000000000000000000000000000000000000000000000000000000000000000000000000000000000000000000000000000000000000000000000000000000000000000000000000000000000000000000000000000000000000000000000000000000000000000000000000000000000000000000000000000000000000000000000000000000000000000000000000000000000000000000000000000000000000000000000000000000000000000000000000000000000000000000000000000000000000000000000000000000000000000000000000000000000000000000000000000000000000000000000000000000000000000000000000000000000000000000000000000000000000000000000000000000000000000000000000000000000000000000000000000000000000000000000000000000000000000000000000000000000000000000000000000000000000000000000000000000000000000000000000000000000000000000000000000000000000000000000000000000000000000000000000000000000000000000000000000000000000000000000000000000000000000000000000000000000000000000000000000000000000000000000000000000000000000000000000000000000000000000000000000000000000000000000000000000000000000000000000000000000000000000000000000000000000000000000000000000000000000000000000000000000000000000000000000000000000000000000000000000000000000000000000000000000000000000000000000000000000000000000000000000000000000000000000000000000000000000000000000000000000000000000000000000000000000000000000007272620000000000000000000000000000000000000000000000000000000000000000000000000000000000000000000000000000000000000000000000000000000000000000000000000000000000000000000000000000000000000000000000000000000000000000000000000000000000000000000000000000000000000000000000000000000000000000000000000000000000000000000000000000000000000000000000000000000000000000000000000000000000000000000000000000000000000000000000000000000000000000000000000000000000000000000000000000000000000000000000000000000000000000000000000000000000000000000000000000000000000000000000000000000000000000000000000000000000000000000000000000000000000000000000000000000000000000000000000000000000000000000000000000000000000000000000000000000000000000000000000000000000000000000000000000000000000000000000000000000000000000000000000000000000000000000000000000000000000000000000000000000000000000000000000000000000000000000000000000000000000000000000000000000000000000000000000000000000000000000000
#04016:1313230013132300
#04012:0013000000130000
#04014:0000000000000013
#0401f:21
#0401a:2424
#04112:13001300133300000000000013000000
#04115:0000130000130000
#04118:23130023
#0411b:23002300233300000000000000001300
#04110:41
#04417:1313230013132300
#0441b:0013000000130000
#04419:0000000000000013
#04412:2424
#04812:1515250015152500
#04818:2615000026150000
#04815:0000000000000016
#05219:1515250015152500
#05213:0015000000150000
#05215:0000000000000016
#05212:2626
#05210:41
#04215:1300130000000053
#04212:1300230000530000
#04218:13001300001300000000000053000000
#04216:00000000000000130000000000000000
#0421b:00000000000000130000000023000000
#0431b:1300000000000000000000130000000000000000000000002300000000000000
#04317:00000014000000005300000000000000
#04318:13000013
#04314:0013000000000000
#04312:53231300
#04315:0000000000130013
#04316:0000001300000000
#0451b:23130013
#04518:23002300233300000000130000000000
#04512:0000130000000013
#04515:13001300133300000000000023000000
#04618:1300130000000053
#0461b:1300230000530000
#04615:13001300001300000000000053000000
#04617:00000000000000130000000000000000
#04612:00000000000000130000000023000000
#04712:1300000000000000000000130000000000000000000000002300000000000000
#04715:13000014000000000000000013000000
#04719:0013000000000000
#0471b:53231300
#04718:0000000000130000
#04717:0000001300000000
#04716:0000000053000014
#04912:1414000000140000
#0491a:1400230000000014
#04913:00000000001300000000000000000000
#04916:000000000000000000000000000000000000000000000000000000000000000000000000000000000000000000000000000000000000000000000000000000000000000000000000000000000000000000000000000000000000000000000000000000000000000000000000000000000000000000000000000000000000000000000000000000000000000000000000000000000000000000000000000000000000000000000000000000000000000000000000000000000000000000000000000000000000000000000000000000000000000000000000000000000000000000000000000000000000000000000000000000000000000000000000000000000000000000000000000000000000000000000000000000000000000000000000000000000000000000000000000000000000000000000000000000000000000000000000000000000000000000000000000000000000000000000000000000000000000000000000000000000000000000000000000000000000000000000000000000000000000000000000000000000000000000000000000000000000000000000000000000000000000000000000000000000000000000000000000000000000000000000000000000000000000000000000000000000000000000000000000000000000000000000000000000000000000000000000000000000000000000000000000000000000000000000000000000000000000000000000000000000000000000000000000000000000000000000000000000000000000000000000000000000000000000000000000000000000000000000000000000000000000000000000000000000000000000000000000000000000000000000000000000000000000000000000000000000000000000000000000000000000000000000000000000000000000000000000000000000000000000000000000000000000000000000000000000000000000000000000000000000000000000000000000000000000000000000000000000000000000000000000000000000000000000000000000000000000000000000000000000000000000000000000000000000000000000000000000000000000000000000000000000000000000000000000000000000000000000000074000000000000000000000000000000000000000000000000000000000000000000000000000000000000000000000000000000000000000000000000000000000000000000000000000000000000000000000000000000000000000000000000000000000000000000000000000000000000000000000000000000000000000000000000000000000000000000000000000000000000000000000000000000000000000000000000000000000000000000000000000000000000000000000000000000000000000000000000000000000000000000000000000000000000000000000000000000000000000000000000000000000000000000000000000000000000000000000000000000000000000000000000000000000000000000000000000000000000000000000000000000000000000000000000000000000000000000000000000000000000000000000000000000000000000000000000000000000000000000000000000000000000000000000000000000000000000000000000000000000000000000000000000000000000000000000000000000000000000000000000000000000000000000000000000000000000000000000000000000000000000000000000000000000000000000000000000000000000000000000000000000000000000000000000000000000000000000000000000000000000000000000000000000000000000000000000000000000000000000000000000000000000000000000000000000000000000000000000000000000000000000000000000000000000000000000000000000000000000000000000240000000000000000000000000000000000000000000000000000000000000000000000000000000000000000000000000000000000000000000000000000000000000000000000000000000000000000000000000000000000000000000000000000000000000000000000000000000000000000000000000000000000000000000000000000000000000000000000000000000000000000000000000000000000000000000000000000000000000000000000000000000000000000000000000000000000000000000000000000000000000000000000000000000000000000000000000000000000000000000000000000000000000000000000000000000000000000000000000000000000000000000000000000000000000000000000000000000000000000000000000000000000000000000000000000000000000000000000000000000000000000000000000000000000000000000000000000000000000000000000000000000000000000000000000000000000000000000000000000000000000000000000000000000000000000000000000000000000000000000000000000000000000000000000000000000000000000000000000000000000000000000000000000000000000000000000000000000000000000000000
#05015:1300130000000053
#05012:1300230000530000
#0501b:00001300000000130000000023000000
#05016:00000000000000140000000000000000
#05018:13000000001300000000000053000000
#0511b:13000023
#05118:1300000053130013
#05115:0000000000000000000000130000000000000000130000000000000013000000
#05117:00000014000000000000000000000000
#05114:0013000000000000
#05112:53231413
#05119:0000001400000000
#05312:1400000000000023
#0531a:14001400001300000000000000000000
#05318:0000000000231300
#0531b:0000000000130000
#05315:0000000000002313
#05313:00230000
#05316:000000000000000000000000000000000000000000000000000000000000000000000000000000000000000000000000000000000000000000000000000000000000000000000000000000000000000000000000000000000000000000000000000000000000000000000000000000000000000000000000000000000000000000000000000000000000000000000000000000000000000000000000000000000000000000000000000000000000000000000000000000000000000000000000000000000000000000000000000000000000000000000000000000000000000000000000000000000000000000000000000000000000000000000000000000000000000000000000000000000000000000000000000000000000000000000000000000000000000000000000000000000000000000000000000000000000000000000000000000000000000000000000000000000000000000000000000000000000000000000000000000000000000000000000000000000000000000000000000000000000000000000000000000000000000000000000000000000000000000000000000000000000000000000000000000000000000000000000000000000000000000000000000000000000000000000000000000000000000000000000000000000000000000000000000000000000000000000000000000000000000000000000000000000000000000000000000000000000000000000000000000000000000000000000000000000000000000000000000000000000000000000000000000000000000000000000000000000000000000000000000000000000000000000000000000000000000000000000000000000000000000000000000000000000000000000000000000000000000000000000000000000000000000000000000000000000000000000000000000000000000000000000000000000000000000000000000000000000000000000000000000000000000000000000000000000000000000000000000000000000000000000000000000000000000000000000000000000000000000000000000000000000000000000000000000000000000000000000000000000000000000000000000000000000000000000000000000000000000000000074000000000000000000000000000000000000000000000000000000000000000000000000000000000000000000000000000000000000000000000000000000000000000000000000000000000000000000000000000000000000000000000000000000000000000000000000000000000000000000000000000000000000000000000000000000000000000000000000000000000000000000000000000000000000000000000000000000000000000000000000000000000000000000000000000000000000000000000000000000000000000000000000000000000000000000000000000000000000000000000000000000000000000000000000000000000000000000000000000000000000000000000000000000000000000000000000000000000000000000000000000000000000000000000000000000000000000000000000000000000000000000000000000000000000000000000000000000000000000000000000000000000000000000000000000000000000000000000000000000000000000000000000000000000000000000000000000000000000000000000000000000000000000000000000000000000000000000000000000000000000000000000000000000000000000000000000000000000000000000000000000000000000000000000000000000000000000000000000000000000000000000000000000000000000000000000000000000000000000000000000000000000000000000000000000000000000000000000000000000000000000000000000000000000000000000000000000000000000000000000000000000000000000000000000000000000000000000000000000000000000000000000000000000000000000000000000000000000000000000000000000000000000000000000000000000000000000000000000000000000000000000000000000000000000000000000000000000000000000000000000000000000000000000000000000000000000000000000000000000000000000000000000000000000000000000000000000000000000000000000000000000000000000000000000000000000000000000000000000000000000000000000000000000000000000000000000000000000000000000000000000000000000000000000000000000000000000000000000000000000000000000000000000000000000000000000000000000000000000000000000000000000000000000000000000000000000000000000000000000000000000000000000000000000000000000000000000000000000000000000000000000000000000000000000000000000000000000000000000000000000000000000000000000000000000000000000000000000000000000000000000000000000000000000000000000000000000000000000000000000000000000000000000000000000000000000000000000000000000000000000
#05418:13000000000013000000000013000013
#0541b:1300001300001300
#05412:2414142414142400
#05416:0000130000130000
#05415:0000000000000013
#05516:14
#05512:24
#0551a:24
#05517:000000000000000000000000000000000000000000000000000000000000000000000000000000000000000000000000000000000000000000000000000000000000000000000000000000000000000000000000000000000000000000000000000000000000000000000000000000000000000000000000000000000000000000000000000000000000000000000000000000000000000000000000000000000000000000000000000000000000000000000000000000000000000000000000000000000000000000000000000000000000000000000000000000000000000000000000000000000000000000000000000000000000000000000000000000000000000000000000000000000000000000000000000000000000000000000000000000000000000000000000000000000000000000000000000000000000000000000000000000000000000000000000000000000000000000000000000000000000000000000000000000000000000000000000000000000000000000000000000000000000000000000000000000000000000000000000000000000000000000000000000000000000000000000000000000000000000000000000000000000000000000000000000000000000000000000000000000000000000000000000000000000000000000000000000000000000000000000000000000000000000000000000000000000000000000000000000000000000000000000000000000000000000000000000000000000000000000000000000000000000000000000000000000000000000000000000000000000000000000000000000000000000000000000000000000000000000000000000000000000000000000000000000000000000000000000000000000000000000000000000000000000000000000000000000000000000000000000000000000000000000000000000000000000000000000000000000000000000000000000000000000000000000000000000000000000000000000000000000000000000000000000000000000000000000000000000000000000000000000000000000000000000000000000000000000000000000000000000000000000000000000000000000000000000000000000000000000000000000000000000000000000000000000000000000000000000000000000000000000000000000000000000000000000000000000000000000000000000000000000000000000000000000000000000000000000000000000000000000000000000000000000000000000000000000000000000000000000000000000000000000000000000000000000000000000000000000000000000000000000000000000000000000000000000000000000000000000000000000000000000000000000000000000000000000000000000000000000000000000000000000000000000000000000000000000000000000000000000000000000000000000000000000000000000000000000000000000000000000000000000000000000000000000000000000000000000000000000000000000000000000000000000000000000000000000000000000000000000000000000000000000000000000000000000000000000000000000000000000000000000000000000000000000000000000000000000000000000000000000000000000000000000000000000000000000000000000000000000000000000000000000000000000000000000000000000000000000000000000000000000000000000000000000000000000000000000000000000000000000000000000000000000000000000000000000000000000000000000000000000000000000000000000000000000000000000000000000000000000000000000000000000000000000000000000000000000000000000000000000000000000000000000000000000000000000000000000000000000000000007272620000000000000000000000000000000000000000000000000000000000000000000000000000000000000000000000000000000000000000000000000000000000000000000000000000000000000000000000000000000000000000000000000000000000000000000000000000000000000000000000000000000000000000000000000000000000000000000000000000000000000000000000000000000000000000000000000000000000000000000000000000000000000000000000000000000000000000000000000000000000000000000000000000000000000000000000000000000000000000000000000000000000000000000000000000000000000000000000000000000000000000000000000000000000000000000000000000000000000000000000000000000000000000000000000000000000000000000000000000000000000000000000000000000000000000000000000000000000000000000000000000000000000000000000000000000000000000000000000000000000000000000000000000000000000000000000000000000000000000000000000000000000000000000000000000000000000000000000000000000000000000000000000000000000000000000000000000000000000000000000
#00015:00000000000000000000000000000051
#0021a:00000000000000000000000000000051
#0105a:14
#01052:00000000000000000000001300000000
#01252:35
#01258:00000000000000000000001300000000
#0085b:00000000000000000000001300000000
#00852:14
#01459:45
#01455:00000000000000000000001300000000
#0605b:00130000
#06052:35000013
#0615b:00130000
#06152:00000013
#06252:00130000
#0625b:00000013
#06259:45
#05652:14000013
#0565b:00130000
#0585a:14
#05852:00130000
#0585b:00000013
#06355:13
#06352:13
#06358:0000130000000013
#0635b:0000130000000013
#0575b:00130000
#05752:00000013
#01652:35
#01655:00000063
#01658:0000000000001223
#01758:00000053
#01755:0000000000000023
#01756:00000012
#02059:45
#02056:00000054
#0205a:0000000000000024
#02054:00000012
#02052:00000012
#02452:35
#02458:00000063
#02455:0000000000000024
#02152:0000000000000024
#02156:00000064
#0215a:00000012
#0215c:00000012
#02559:45
#02555:00000053
#02557:0000000000000024
#02652:35
#02852:35
#02858:00000063
#02855:0000000000000024
#02959:45
#02955:00000053
#02957:0000000000000024
#03052:35
#03152:66
#03158:44000025000064000000000046000000
#03153:00000000000000000025000000000000
#03154:0000003400000000
#03658:00000064
#03657:0000000000230000
#03654:00000034
#03756:0000000000230000
#03758:00000044
#0325b:00000013
#03256:00000014
#03356:00000014
#03352:00000013
#03452:00000014
#0355b:00000013
#03555:00000063
#03852:63000022000063000022000000000000
#0385c:00000022000000000022000000000000
#0385b:5300005300000000
#0395b:63
#03955:0000002300000000
#03952:53
#03958:0000002300000000
#03956:006400000000000000000000000000000000000000000000000000000000000000000000000000000000000000000000000000000000000000000000000000000000000000000000000000000000000000000000000000000000000000000000000000000000000000000000000000000000000000000000000000000000000000000000000000000000000000000000000000000000000000000000000000000000000000000000000000000000000000000000000000000000000000000000000000000000000000000000000000000000000000000000000000000000000000000000000000000000000000000000000000000000000000000000000000000000000000000000000000000000000000000000000000000000000000000000000000000000000000000000000000000000000000000000000000000000000000000000000000000000000000000000000000000000000000000000000000000000000000000000000000000000000000000000000000000000000000000000000000000000000000000000000000000000000000000000000000000000000000000000000000000000000000000000000000000000000000000000000000000000000000000000000000000000000000000000000000000000000000000000000000000000000000000000000000000000000000000000000000000000000000000000000000000000000000000000000000000000000000000000000000000000000000000000000000000000000000000000000000000000000000000000000000000000000000000000000000000000000000000000000000000000000000000000000000000000000000000000000000000000000000000000000000000000000000000000000000000000000000000000000000000000000000000000000000000000000000000000000000000000000000000000000000000000000000000000000000000000000000000000000000000000000000000000000000000000000000000000000000000000000000000000000000000000000000000000000000000000000000000000000000000000000000000000000000000000000000000000000000000000000000000000000000000000000000000000000000000000000000000000000000000000000000000000000000000000000000000000000000000000000000000000000000000000000000000000000000000000000000000000000000000000000000000000000000000000000000000000000000000000000000000000000000000000000000000000000000000000000000000000000000000000000000000000000000000000000000000000000000000000000000000000000000000000000000000000000000000000000000000000000000000000000000000000000000000000000000000000000000000000000000000000000000000000000000000000000000000000000000000000000000000000000000000000000000000000000000000000000000000000000000000000000000000000000000000000000000000000000000000000000000000000000000000000000000000000000000000000000000000000000000000000000000000000000000000000000000000000000000000000000000000000000000000000000000000000000000000000000000000000000000000000000000000000000000000000000000000000000000000000000000000000000000000000000000000000000000000000000000000000000000000000000000000000000000000000000000000000000000000000000000000000000000000000000000000000000000000000000000000000000000000000000000000000000000000000000000000000000000000000000000000000000000000000000000000000000000000000000000000000000000000000000000000000000000000000000000000000000000000000000000000000000000000000000000000000000000000000000000000000000000000000000000000000000000000000000000000000000000000000000000000000000000000000000000000000000000000000000000000000000000000000000000000000000000000000000000000000000000000000000000000000000000000000000000000000000000000000000000000000000000000000000000000000000000000000000000000000000000000000000000000000000000000000000000000000000000000000000000000000000000000000000000000000000000000000000000000000000000000000000000000000000000000000000000000000000000000000000000000000000000000000000000000000000000000000000000000000000000000000000000000000000000000000000000000000000000000000000000000000000000000000000000000000000000000000000000000000000000000000000000000000000000000000000000000000000000000000000000000000000000000000000000000000000000000000000000000000000000000000000000000000000000000000000000000000000000000000000000000000000000000000000000000000000000000000000000000000000000000000
#04056:0023000000230000
#0405a:64446444
#0415b:00000000000000130000000000000000
#04152:00000000000000130000000000000000
#04155:00630000
#04158:00630000
#04457:0023000000230000
#04452:54345434
#04858:66466646
#04852:0025000000250000
#05259:0025000000250000
#05252:56365636
#04255:33
#04252:33
#0425b:00000000000000130000000000000000
#04256:00000000000000630000000000000000
#04357:00000064000000000000000000000000
#0435b:1300000000000000000000230000000000000000000000000000000000000000
#04358:13
#0455b:00530000
#04558:00000000000000130000000000000000
#04552:00530000
#04555:00000000000000130000000000000000
#04658:43
#0465b:43
#04657:00000000000000530000000000000000
#04652:00000000000000130000000000000000
#04752:1300000000000000000000230000000000000000000000000000000000000000
#04755:13000054000000000000000000000000
#05055:33
#05052:33
#05056:00000000000000640000000000000000
#0505b:00000000000000130000000000000000
#0515b:13
#05158:13
#05155:0000000000000000000000230000000000000000000000000000000000000000
#05157:00000064000000000000000000000000
#05352:54
#0535a:0054000000000000
#05356:00000000000000140000000000000000
#05458:4300004300004300
#0545b:4300004300004300
#05556:64
#05552:64
#0555a:64
#0495a:64
#04952:0064000000000000
#04956:00000000000000140000000000000000
#0595b:00000013
#05952:00130000
#000340:13
#000350:00000000000000000000000000000021
#002390:13
#0023a0:00000000000000000000000000000021
#004340:13
#004350:00000000000000000000000000000021
#004381:0012
#004371:00000000000000000000000000000021
#006391:13
#0063a1:00000000000000000000000000000021
#006360:0012
#006380:00000000000000000000000000000021
#0083b0:00000000001300230000000000000000
#008351:00000000000000130023000000000000
#009321:00000000000000130023000000000000
#009350:00000000000000130023000000000000
#010320:00000000001300230000000000000000
#010381:00000000000000130023000000000000
#0113b1:00000000000000130023000000000000
#011380:00000000000000130023000000000000
#0123b0:00000000001300230000000000000000
#012351:00000000000000130023000000000000
#0133b1:00000000000000130023000000000000
#013380:00000000000000130023000000000000
#014320:00000000001300230000000000000000
#014381:00000000000000130023000000000000
#015321:00000000000000130023000000000000
#015350:00000000000000130023000000000000
#0163a0:0012220000000000
#016390:0000001222000000
#016380:0000000000122200
#016351:00000013
#016381:0000000000000053
#017361:22
#017341:0012220000000000
#017351:0000001222000000
#017361:0000000000122200
#017380:00000013
#017350:0000000000000053
#018380:22
#0183a0:0012220000000000
#018340:0000001222000000
#0183b0:0000000000122200
#018330:0000000000000012
#019330:22
#019361:1323000000000000
#019392:1323000000000000
#019320:0013230000000000
#0193b0:0000001222000000
#019371:0000000013230000
#019342:0000000013230000
#0193b0:0000000000132300
#020380:0012220000000000
#020361:0012220000000000
#020361:0000001222000000
#020340:0000001222000000
#020340:0000000000122200
#020321:0000000000122200
#020362:00000014
#0203a2:0000000000000054
#021362:23
#021362:0012220000000000
#021381:0012220000000000
#021381:0000001222000000
#0213a2:0000001222000000
#0213a2:0000000000122200
#0213c1:0000000000122200
#021360:00000014
#021320:0000000000000054
#022370:23
#022340:0012220000000000
#022321:0012220000000000
#022381:0000001222000000
#0223a0:0000001222000000
#022360:0000000000122200
#022341:0000000000122200
#0223a1:0000000000000012
#0233a1:22
#0223c0:0000000000000012
#0233c0:22
#023352:1323000000000000
#023380:0013230000000000
#023340:0000001222000000
#023322:0000001222000000
#023381:0000000013230000
#023352:0000000000132300
#024382:00000013
#024352:0000000000000054
#025392:25
#025352:00000013
#025372:0000000000000054
#026322:25
#026372:0000000000000013
#027372:23
#0273a1:1323000000000000
#027362:0013230000000000
#027331:0000132300000000
#027382:0000001323000000
#0273b1:0000000013230000
#027352:0000000000132300
#027321:0000000000001323
#027382:0000000000000013
#028382:23
#028382:00000013
#028352:0000000000000054
#029392:25
#029352:00000013
#029372:0000000000000054
#030322:25
#031322:16
#031382:00000055000000000000000000000000
#031342:0000002400000000
#031381:0000001400002600
#031331:00000000000000000055000000000000
#0353b1:13230000
#035322:00132300
#0353b1:00001323
#035352:00000013
#035372:0000000000000053
#036372:0000000000530000
#036342:00000024
#036381:00000014
#036361:0000000000000053
#037361:0000000000530000
#037381:00000024
#0383b1:1300003300002300
#0383c1:00000052000000000052000000000000
#038322:13000052000033000052000023000000
#0393b2:13
#039352:0000005300000000
#039372:000000000000000000000000000000000000000000000000000000000000000000000000000000000000000000000000000000000000000000000000000000000000000000000000000000000000000000000000000000000000000000000000000000000000000000000000000000000000000000000000000000000000000000000000000000000000000000000000000000000000000000000000000000000000000000000000000000000000000000000000000000000000000000000000000000000000000000000000000000000000000000000000000000000000000000000000000000000000000000000000000000000000000000000000000000000000000000000000000000000000000000000000000000000000000000000000000000000000000000000000000000000000000000000000000000000000000000000000000000000000000000000000000000000000000000000000000000000000000000000000000000000000000000000000000000000000000000000000000000000000000000000000000000000000000000000000000000000000000000000000000000000000000000000000000000000000000000000000000000000000000000000000000000000000000000000000000000000000000000000000000000000000000000000000000000000000000000000000000000000000000000000000000000000000000000000000000000000000000000000000000000000000000000000000000000000000000000000000000000000000000000000000000000000000000000000000000000000000000000000000000000000000000000000000000000000000000000000000000000000000000000000000000000000000000000000000000000000000000000000000000000000000000000000000000000000000000000000000000000000000000000000000000000000000000000000000000000000000000000000000000000000000000000000000000000000000000000000000000000000000000000000000000000000000000000000000000000000000000000000000000000000000000000000000000000000000000000000000000000000000000000000000000000000000000000000000000000000000000000000000000000000000000000000000000000000000000000000000000000000000000000000000000000000000000000000000000000000000000000000000000000000000000000000000000000000000000000000000000000000000000000000000000000000000000000000000000000000000000000000000000000000000000000000000000000000000000000000000000000000000000000000000000000000000000000000000000000000000000000000000000000000000000000000000000000000000000000000000000000000000000000000000000000000000000000000000000000000000000000000000000000000000000000000000000000000000000000000000000000000000000000000000000000000000000000000000000000000000000000000000000000000000000000000000000000000000000000000000000000000000000000000000000000000000000000000000000000000000000000000000000000000000000000000000000000000000000000000000000000000000000000000000000000000000000000000000000000000000000000000000000000000000000000000000000000000000000000000000000000000000000000000000000000000000000000000000000000000000000000000000000000000000000000000000000000000000000000000000000000000000000000000000000000000000000000000000000000000000000000000000000000000000000000000000000000000000000000000000000000000000000000000000000000000000000000000000000000000000000000000022000000000000000000000000000000000000000000000000000000000000000000000000000000000000000000000000000000000000000000000000000000000000000000000000000000000000000000000000000000000000000000000000000000000000000000000000000000000000000000000000000000000000000000000000000000000000000000000000000000000000000000000000000000000000000000000000000000000000000000000000000000000000000000000000000000000000000000000000000000000000000000000000000000000000000000000000000000000000000000000000000000000000000000000000000000000000000000000000000000000000000000000000000000000000000000000000000000000000000000000000000000000000000000000000000000000000000000000000000000000000000000000000000000000000000000000000000000000000000000000000000000000000000000000000000000000000000000000000000000000000000000000000000000000000000000000000000000000000000000000000000000000000000000000000000000000000000000000000000000000000000000000000000000000000000000000000000000000000000000000000
#039321:13
#039381:0000005300000000
#039371:000000000000000000000000000000000000000000000000000000000000000000000000000000000000000000000000000000000000000000000000000000000000000000000000000000000000000000000000000000000000000000000000000000000000000000000000000000000000000000000000000000000000000000000000000000000000000000000000000000000000000000000000000000000000000000000000000000000000000000000000000000000000000000000000000000000000000000000000000000000000000000000000000000000000000000000000000000000000000000000000000000000000000000000000000000000000000000000000000000000000000000000000000000000000000000000000000000000000000000000000000000000000000000000000000000000000000000000000000000000000000000000000000000000000000000000000000000000000000000000000000000000000000000000000000000000000000000000000000000000000000000000000000000000000000000000000000000000000000000000000000000000000000000000000000000000000000000000000000000000000000000000000000000000000000000000000000000000000000000000000000000000000000000000000000000000000000000000000000000000000000000000000000000000000000000000000000000000000000000000000000000000000000000000000000000000000000000000000000000000000000000000000000000000000000000000000000000000000000000000000000000000000000000000000000000000000000000000000000000000000000000000000000000000000000000000000000000000000000000000000000000000000000000000000000000000000000000000000000000000000000000000000000000000000000000000000000000000000000000000022000000000000000000000000000000000000000000000000000000000000000000000000000000000000000000000000000000000000000000000000000000000000000000000000000000000000000000000000000000000000000000000000000000000000000000000000000000000000000000000000000000000000000000000000000000000000000000000000000000000000000000000000000000000000000000000000000000000000000000000000000000000000000000000000000000000000000000000000000000000000000000000000000000000000000000000000000000000000000000000000
#039360:001400000000000000000000000000000000000000000000000000000000000000000000000000000000000000000000000000000000000000000000000000000000000000000000000000000000000000000000000000000000000000000000000000000000000000000000000000000000000000000000000000000000000000000000000000000000000000000000000000000000000000000000000000000000000000000000000000000000000000000000000000000000000000000000000000000000000000000000000000000000000000000000000000000000000000000000000000000000000000000000000000000000000000000000000000000000000000000000000000000000000000000000000000000000000000000000000000000000000000000000000000000000000000000000000000000000000000000000000000000000000000000000000000000000000000000000000000000000000000000000000000000000000000000000000000000000000000000000000000000000000000000000000000000000000000000000000000000000000000000000000000000000000000000000000000000000000000000000000000000000000000000000000000000000000000000000000000000000000000000000000000000000000000000000000000000000000000000000000000000000000000000000000000000000000000000000000000000000000000000000000000000000000000000000000000000000000000000000000000000000000000000000000000000000000000000000000000000000000000000000000000000000000000000000000000000000000000000000000000000000000000000000000000000000000000000000000000000000000000000000000000000000000000000000000000000000000000000000000000000000000000000000000000000000000000000000000000000000000000000000000000000000000000000000000000000000000000000000000000000000000000000000000000000000000000000000000000000000000000000000000000000000000000000000000000000000000000000000000000000000000000000000000000000000000000000000000000000000000000000000000000000000000000000000000000000000000000000000000000000000000000000000000000000000000000000000000000000000000000000000000000000000000000000000000000000000000000000000000000000000000000000000000000000000000000000000000000000000000000000000000000000000000000000000000000000000000000000000000000000000000000000000000000000000000000000000000000000000000000000000000000000000000000000000000000000000000000000000000000000000000000000000000000000000000000000000000000000000000000000000000000000000000000000000000000000000000000000000000000000000000000000000000000000000000000000000000000000000000000000000000000000000000000000000000000000000000000000000000000000000000000000000000000000000000000000000000000000000000000000000000000000000000000000000000000000000000000000000000000000000000000000000000000000000000000000000000000000000000000000000000000000000000000000000000000000000000000000000000000000000000000000000000000000000000000000000000000000000000000000000000000000000000000000000000000000000000000000000000000000000000000000000000000000000000000000000000000000000000000000000000000000000000000000000000000000000000000000000000000000000000000000000000000000000000000000000000000000000000000000000000000000000000000000000000000000000000000000000000000000000000000000000000000000000000000000000000000000000000000000000000000000000000000000000000000000000000000000000000000000000000000000000000000000000000000000000000000000000000000000000000000000000000000000000000000000000000000000000000000000000000000000000000000000000000000000000000000000000000000000000000000000000000000000000000000000000000000000000000000000000000000000000000000000000000000000000000000000000000000000000000000000000000000000000000000000000000000000000000000000000000000000000000000000000000000000000000000000000000000000000000000000000000000000000000000000000000000000000000000000000000000000000000000000000000000000000000000000000000000000000000000000000000000000000000000000000000000000000000000000000000000000000000000000000000000000000000000000000000000000000000000000000000000000000000000000000000000000000000000000000000000000000000000000000000000000000000000000000000000000000
#039370:00000022
#0403a0:14240000
#040360:0053000000000000
#0403a0:00001424
#040360:0000000000530000
#041350:13330000
#041320:00000000003353230000000000000000
#041382:13330000
#0413b2:00000000003353230000000000000000
#042362:00000000000000130000000000000000
#042322:0000000000230000
#042380:0000000000132300
#042352:0000000000001323
#042320:0000000000000013
#043320:23
#043370:00000014000000002300000000000000
#0433b0:0000000000000000000000530000000000000000000000000000000000000000
#044320:14240000
#044370:0053000000000000
#044320:00001424
#044370:0000000000530000
#0453b0:13330000
#045380:00000000003353230000000000000000
#045322:13330000
#045352:00000000003353230000000000000000
#046372:00000000000000130000000000000000
#0463b2:0000000000230000
#046350:0000000000132300
#046382:0000000000001323
#0463b0:0000000000000013
#0473b0:23
#047350:00000014000000000000000000000000
#047320:0000000000000000000000530000000000000000000000000000000000000000
#047360:0023
#048380:16260000
#048320:0055000000000000
#048380:00001626
#048320:0000000000550000
#0493a0:14
#049360:000000000000000000000000000000000000000000000000000000000000000000000000000000000000000000000000000000000000000000000000000000000000000000000000000000000000000000000000000000000000000000000000000000000000000000000000000000000000000000000000540000000000000000000000000000000000000000000000000000000000000000000000000000000000000000000000000000000000000000000000000000000000000000000000000000000000000000000000000000000000000000000000000000000000000000000000000000000000000000000000000000000000000000000000000000000000000000000000000000000000000000000000000000000000000000000000000000000000000000000000000000000000000000000000000000000000000000000000000000000000000000000000000000000000000000000000000000000000000000000000000000000000000000000000000000000000000000000000000000000000000000000000000000000000000000000000000000000000000000000000000000000000000000000000000000000000000000000000000000000000000000000000000000000000000000000000000000000000000000000000000000000000000000000000000000000000000000000000000000000000000000000000000000000000000000000000000000000000000000000000000000000000000000000000000000000000000000000000000000000000000000000000000000000000000000000000000000000000000000000000000000000000000000000000000000000000000000000000000000000000000000000000000000000000000000000000000000000000000000000000000000000000000000000000000000000000000000000000000000000000000000000000000000000000000000000000000000000000000000000000000000000000000000000000000000000000000000000000000000000000000000000000000000000000000000000000000000000000000000000000000000000000000000000000000000000000000000000000000000000000000000000000000000000000000000000000000000000000000000000024000000000000000000000000000000000000000000000000000000000000000000000000000000000000000000000000000000000000000000000000000000000000000000000000000000000000000000000000000000000000000000000000000000000000000000000000000000000000000000000000000000000000000000000000000000000000000000000000000000000000000000000000000000000000000000000000000000000000000000000000000000000000000000000000000000000000000000000000000000000000000000000000000000000000000000000000000000000000000000000000000000000000000000000000000000000000000000000000000000000000000000000000000000000000000000000000000000000000000000000000000000000000000000000000000000000000000000000000000000000000000000000000000000000000000000000000000000000000000000000000000000000000000000000000000000000000000000000000000000000000000000000000000000000000000000000000000000000000000000000000000000000000000000000000000000000000000000000000000000000000000000000000000000000000000000000000000000000000000000000000000000000000000000000000000000000000000000000000000000000000000000000000000000000000000000000000000000000000000000000000000000000000000000000000000000000000000000000000000000000000000000000000000000000000000000000000000000000000000000000000000000000000000000000000000000000000000000000000000000000000000000000000000000000000000000000000000000000000000000000000000000000000000000000000000000000000000000000000000000000000000000000000000000000000000000000000000000000000000000000000000000000000000000000000000000000000000000000000000000000000000000000000000000000000000000000000000000000000000000000000000000000000000000000000000000000000000000000000000000000000000000000000000000000000000000000000000000000000000000000000000000000000000000000000000000000000000000000000000000000000000000000000000000000000000000000000000000000000000000000000000000000000000000000000000000000000000000000000000000000000000000000000000000000000000000000000000000000000000000000000000000000000000000000000000000000000000000000000000000000000000000000000000000000000000000000000000000000000000000000000000000000000000000000000000000000000000000000000000000000000000000000000000000000000000000000000000000000000000000000000
#049322:0014000000000000
#049362:00000054000000240000000000000000
#050362:00000000000000140000000000000000
#050322:0000000000230000
#050380:0000000000132300
#050352:0000000000001323
#050320:0000000000000013
#051320:23
#051370:00000014000000000000000000000000
#051350:0000000000000000000000530000000000000000000000000000000000000000
#051380:0023
#052320:16260000
#052390:0055000000000000
#052320:00001626
#052390:0000000000550000
#053320:14
#053360:000000000000000000000000000000000000000000000000000000000000000000000000000000000000000000000000000000000000000000000000000000000000000000000000000000000000000000000000000000000000000000000000000000000000000000000000000000000000000000000000540000000000000000000000000000000000000000000000000000000000000000000000000000000000000000000000000000000000000000000000000000000000000000000000000000000000000000000000000000000000000000000000000000000000000000000000000000000000000000000000000000000000000000000000000000000000000000000000000000000000000000000000000000000000000000000000000000000000000000000000000000000000000000000000000000000000000000000000000000000000000000000000000000000000000000000000000000000000000000000000000000000000000000000000000000000000000000000000000000000000000000000000000000000000000000000000000000000000000000000000000000000000000000000000000000000000000000000000000000000000000000000000000000000000000000000000000000000000000000000000000000000000000000000000000000000000000000000000000000000000000000000000000000000000000000000000000000000000000000000000000000000000000000000000000000000000000000000000000000000000000000000000000000000000000000000000000000000000000000000000000000000000000000000000000000000000000000000000000000000000000000000000000000000000000000000000000000000000000000000000000000000000000000000000000000000000000000000000000000000000000000000000000000000000000000000000000000000000000000000000000000000000000000000000000000000000000000000000000000000000000000000000000000000000000000000000000000000000000000000000000000000000000000000000000000000000000000000000000000000000000000000000000000000000000000000000000000000000000000000024000000000000000000000000000000000000000000000000000000000000000000000000000000000000000000000000000000000000000000000000000000000000000000000000000000000000000000000000000000000000000000000000000000000000000000000000000000000000000000000000000000000000000000000000000000000000000000000000000000000000000000000000000000000000000000000000000000000000000000000000000000000000000000000000000000000000000000000000000000000000000000000000000000000000000000000000000000000000000000000000000000000000000000000000000000000000000000000000000000000000000000000000000000000000000000000000000000000000000000000000000000000000000000000000000000000000000000000000000000000000000000000000000000000000000000000000000000000000000000000000000000000000000000000000000000000000000000000000000000000000000000000000000000000000000000000000000000000000000000000000000000000000000000000000000000000000000000000000000000000000000000000000000000000000000000000000000000000000000000000000000000000000000000000000000000000000000000000000000000000000000000000000000000000000000000000000000000000000000000000000000000000000000000000000000000000000000000000000000000000000000000000000000000000000000000000000000000000000000000000000000000000000000000000000000000000000000000000000000000000000000000000000000000000000000000000000000000000000000000000000000000000000000000000000000000000000000000000000000000000000000000000000000000000000000000000000000000000000000000000000000000000000000000000000000000000000000000000000000000000000000000000000000000000000000000000000000000000000000000000000000000000000000000000000000000000000000000000000000000000000000000000000000000000000000000000000000000000000000000000000000000000000000000000000000000000000000000000000000000000000000000000000000000000000000000000000000000000000000000000000000000000000000000000000000000000000000000000000000000000000000000000000000000000000000000000000000000000000000000000000000000000000000000000000000000000000000000000000000000000000000000000000000000000000000000000000000000000000000000000000000000000000000000000000000000000000000000000000000000000000000000000000000000000000000000000000000000000000000000000000
#0533a2:0014000000000000
#053362:00000054000000240000000000000000
#055362:14
#055372:00000022
#0553a0:14
#055370:000000000000000000000000000000000000000000000000000000000000000000000000000000000000000000000000000000000000000000000000000000000000000000000000000000000000000000000000000000000000000000000000000000000000000000000000000000000000000000000000000000000000000000000000000000000000000000000000000000000000000000000000000000000000000000000000000000000000000000000000000000000000000000000000000000000000000000000000000000000000000000000000000000000000000000000000000000000000000000000000000000000000000000000000000000000000000000000000000000000000000000000000000000000000000000000000000000000000000000000000000000000000000000000000000000000000000000000000000000000000000000000000000000000000000000000000000000000000000000000000000000000000000000000000000000000000000000000000000000000000000000000000000000000000000000000000000000000000000000000000000000000000000000000000000000000000000000000000000000000000000000000000000000000000000000000000000000000000000000000000000000000000000000000000000000000000000000000000000000000000000000000000000000000000000000000000000000000000000000000000000000000000000000000000000000000000000000000000000000000000000000000000000000000000000000000000000000000000000000000000000000000000000000000000000000000000000000000000000000000000000000000000000000000000000000000000000000000000000000000000000000000000000000000000000000000000000000000000000000000000000000000000000000000000000000000000000000000000000000000000000000000000000000000000000000000000000000000000000000000000000000000000000000000000000000000000000000000000000000000000000000000000000000000000000000000000000000000000000000000000000000000000000000000000000000000000000000000000000000000000000000000000000000000000000000000000000000000000000000000000000000000000000000000000000000000000000000000000000000000000000000000000000000000000000000000000000000000000000000000000000000000000000000000000000000000000000000000000000000000000000000000000000000000000000000000000000000000000000000000000000000000000000000000000000000000000000000000000000000000000000000000000000000000000000000000000000000000000000000000000000000000000000000000000000000000000000000000000000000000000000000000000000000000000000000000000000000000000000000000000000000000000000000000000000000000000000000000000000000000000000000000000000000000000000000000000000000000000000000000000000000000000000000000000000000000000000000000000000000000000000000000000000000000000000000000000000000000000000000000000000000000000000000000000000000000000000000000000000000000000000000000000000000000000000000000000000000000000000000000000000000000000000000000000000000000000000000000000000000000000000000000000000000000000000000000000000000000000000000000000000000000000000000000000000000000000000000000000000000000000000000000000000000000000000000000000000000000000000000000000000000000000000000000000000000000000000000000000000000000022000000000000000000000000000000000000000000000000000000000000000000000000000000000000000000000000000000000000000000000000000000000000000000000000000000000000000000000000000000000000000000000000000000000000000000000000000000000000000000000000000000000000000000000000000000000000000000000000000000000000000000000000000000000000000000000000000000000000000000000000000000000000000000000000000000000000000000000000000000000000000000000000000000000000000000000000000000000000000000000000000000000000000000000000000000000000000000000000000000000000000000000000000000000000000000000000000000000000000000000000000000000000000000000000000000000000000000000000000000000000000000000000000000000000000000000000000000000000000000000000000000000000000000000000000000000000000000000000000000000000000000000000000000000000000000000000000000000000000000000000000000000000000000000000000000000000000000000000000000000000000000000000000000000000000000000000000000000000000000000000
#055321:14
#055371:000000000000000000000000000000000000000000000000000000000000000000000000000000000000000000000000000000000000000000000000000000000000000000000000000000000000000000000000000000000000000000000000000000000000000000000000000000000000000000000000000000000000000000000000000000000000000000000000000000000000000000000000000000000000000000000000000000000000000000000000000000000000000000000000000000000000000000000000000000000000000000000000000000000000000000000000000000000000000000000000000000000000000000000000000000000000000000000000000000000000000000000000000000000000000000000000000000000000000000000000000000000000000000000000000000000000000000000000000000000000000000000000000000000000000000000000000000000000000000000000000000000000000000000000000000000000000000000000000000000000000000000000000000000000000000000000000000000000000000000000000000000000000000000000000000000000000000000000000000000000000000000000000000000000000000000000000000000000000000000000000000000000000000000000000000000000000000000000000000000000000000000000000000000000000000000000000000000000000000000000000000000000000000000000000000000000000000000000000000000000000000000000000000000000000000000000000000000000000000000000000000000000000000000000000000000000000000000000000000000000000000000000000000000000000000000000000000000000000000000000000000000000000000000000000000000000000000000000000000000000000000000000000000000000000000000000000000000000000000000022000000000000000000000000000000000000000000000000000000000000000000000000000000000000000000000000000000000000000000000000000000000000000000000000000000000000000000000000000000000000000000000000000000000000000000000000000000000000000000000000000000000000000000000000000000000000000000000000000000000000000000000000000000000000000000000000000000000000000000000000000000000000000000000000000000000000000000000000000000000000000000000000000000000000000000000000000000000000000000000000
#056372:00000000001300230000000000000000
#0563a0:00000000000000130023000000000000
#057370:00000000000000130023000000000000
#058360:00000000001300230000000000000000
#058332:00000000000000130023000000000000
#059362:00000000000000130023000000000000
#060382:00000000001300230000000000000000
#0603b0:00000000000000130023000000000000
#061390:00000000000000130023000000000000
#062350:00000000001300230000000000000000
#062322:00000000000000130023000000000000
#063322:0000000013230000
#063350:0000000013230000
#0633b1:000000000000000000000000000000000000000000000000000000000000135353535353230000000000000000000000
#0633a1:000000000000000000000000000000000000000000000000000000000000000000000000000000000000000000000000000000000000000000000000005300530000000000530053000000000000000000000000000000000000000000000000
#063391:000000000000000000000000000000000000000000000000000000000000000000000000000000000000000000000000000000000000000000000000000000000053005300000000000000000000000000000000000000000000000000000000
#063383:000000000000000000000000000000000000000000000000000000000000135353535353230000000000000000000000
#063373:000000000000000000000000000000000000000000000000000000000000000000000000000000000000000000000000000000000000000000000000005300530000000000530053000000000000000000000000000000000000000000000000
#063363:000000000000000000000000000000000000000000000000000000000000000000000000000000000000000000000000000000000000000000000000000000000053005300000000000000000000000000000000000000000000000000000000
#063320:0000000000001323
#063352:0000000000001323
