This file was generated by Ched 2.7.0.0.
#TITLE ""
#ARTIST ""
#DESIGNER ""
#DIFFICULTY 0
#PLAYLEVEL
#SONGID ""
#WAVE ""
#WAVEOFFSET 0
#JACKET ""
#REQUEST "ticks_per_beat 480"
#00002: 4
#BPM01: 152
#00008: 01
#TIL00: "42'480:1, 42'240:1, 42'270:0.9, 42'295:0.8, 42'315:0.7, 42'330:0.6, 42'350:0.4, 42'340:0.5, 42'360:0.3, 42'365:0.25, 42'370:0.2, 42'375:0.15, 42'380:0.1, 42'385:0.05"
#VOLUME: ""
#HISPEED 00
#MEASUREHS 00
#00012:0012
#00015:0012
#00018:0012
#00014:00000012
#00017:00000012
#0001a:00000012
#00116:1212
#00119:1212
#00115:0000000000000012
#0011c:0000000000000052
#00215:0012
#00218:0012
#0021b:0000000000000012
#00212:0000000000000052
#00312:0012
#00319:0000000000000012
#00318:0052
#00315:0000000000000052
#00412:0012
#00415:0012
#00414:00000012
#00417:00000012
#0041a:00000012
#0041c:0052
#00516:1200000000120012
#00519:12
#00514:0012
#00518:00000012
#00513:00120000
#0051c:0000000000000052
#00616:00120012
#0061a:0012
#00618:0000000000120012
#0081b:1323000000000000
#00815:1300000023000000000000000000000000000054000000000000005400000000
#00812:2313000014001400
#00818:23001300000000001600005400000054
#00813:0000000000000000000000000000000000540000000000000054000000000000
#00814:00000000000000000054000000540000
#00816:0000000000540054
#00817:0000000000000000000000000000000000000000005400000000000000540000
#00819:0000000000000000000000000000000000000000000000540000000000000054
#0081a:00000054
#00912:24131313
#00916:00141400
#00915:0000000000130000
#0091b:00005313
#00918:00000013
#00910:41
#0091a:54
#01012:13005313
#01018:1300000000130000
#0101b:00131313
#01016:00141400
#01015:00000013
#0111b:13005313
#01115:1300000000130000
#01112:00131313
#01116:00141400
#01118:00000013
#0121b:1300000000130000
#01212:1300000016131300
#01218:0013160000000013
#01215:00000013000016000000000013000013
#01312:1300001316000000
#01318:16000013000000000000001300001300
#01315:00000013000013000000001300000000
#0131b:0000000013000013
#01412:1300001316000000
#01418:16000013000000000000001300001300
#01415:00000013000013000000001300000000
#0141b:0000000013000013
#01512:13131313
#01518:16000000000000001300000000000013
#01515:0013001300130013
#01516:00130013
#01519:00130013
#0151b:0013
#01718:13
#0171b:0013
#01715:13
#01712:5213
#01710:41
#0171c:52
#0181b:13
#01818:5313
#01812:13
#01815:5313
#01918:13
#01912:5313
#01915:13
#0191b:5313
#0201b:1313
#02012:1313
#02018:53
#02015:53
#02118:1313
#02115:1313
#0211b:53
#02112:53
#0221b:13
#02215:5313
#02212:13
#02218:5313
#02318:1300000000000013
#02315:13000000000000000000000000000013
#0231b:53000053
#02312:53000053
#0241b:1300001300001300
#02418:1300131300000000
#02412:0013000000130000
#02415:0013130000000000
#02416:0000000000141400
#0251c:12121212
#0251a:0012001200120012
#02512:13
#02516:0013
#02510:41
#0261c:12121212
#02618:0012001200120012
#02615:00130013
#02612:5313
#02712:12121212
#02714:0012001200120012
#0271b:13330033
#02717:0013
#02812:12121212
#02816:0012001200120012
#0281b:5300001313000000
#02818:00000013
#02912:12120000
#02918:1600001200000000
#02914:0012000012001200
#0291a:0000120012000012
#02916:0000000000120000
#0291c:00000012
#0321b:0013001300130000
#03215:0013230013000013
#03212:00130000
#03218:00002300130000130000000013000000
#03312:1300260000130000
#03315:0000000000130000
#03318:0000000053001313
#0331b:0000000053000013
#03310:41
#03412:0013001300000013
#03415:00005300000000001300000000000013
#03418:0053000000130000
#0341b:00000013
#03518:1300260013130000
#0351b:0000000013130000
#03515:0000000053001313
#03512:0000000053000013
#0361b:000000130000000000000000000000000000000023000000
#03618:000000530000130000000000000000002300000023000000
#03615:000000530000000000130000230000002300000000000000
#03612:0023
#03715:0013000000130013
#03718:0013130013130013
#0371b:2300001300001300
#0371f:11
#03712:23232323
#03818:0013000000130013
#03815:0013130013130013
#03812:2300001300001300
#0381b:23232323
#03912:13
#03918:0000001313000000
#0391b:2300001313000000
#04014:0000001200000000
#04016:000000000000000000000000000000000000000000000000000000000000000000000000000000000000000000000000000000000000000000000000000000000000000000000000000000000000000000000000000000000000000000000000000000000000000000000000000000000000000000000000000000000000000000000000000000000000000000000000000000000000000000000000000000000000000000000000000000000000000000000000000000000000000000000000000000000000000000000000000000000000000000000000000000000000000000000000000000000000000000000000000000000000000000000000000000000000000000000000000000000000000000000000000000000000000000000000000000000000000000000000000000000000000000000000000000000000000000000000000000000000000000000000000000000000000000000000000000000000000000000000000000000000000000000000000000000000000000000000000000000000000000000000000000000000000000000000000000000000000000000000000000000000000000000000000000000000000000000000000000000000000000000000000000000000000000000000000000000000000000000074000000000000000000000000000000000000000000000000000000000000000000000000000000000000000000000000000000000000000000000000000000000000000000000000000000000000000000000000000000000000000000000000000000000000000000000000000000000000000000000000000000000000000000000000000000000000000000000000000000000000000000000000000000000000000000000000000000000000000000000000000000000000000000000000000000000000000000000000000000000000000000000000000000000000000000000000000000000000000000000000000000000000000000000000000000000000000000000000000000000000000000000000000000000000000000000000000000000000000000000000000000000000000000000000000000000000000000000000000000000000000000000000000000000000000000000000000000000000000000000000000000000000000000000000000000000000000000000000000000000000000000000000000000000000000000000000000000000000000000000000000000000000000000000000000000000000000000000000000000000000000000000000000000000000000000000000000000000000000000000000120000000000000000000000000000000000000000000000000000000000000000000000000000000000000000000000000000000000000000000000000000000000000000000000000000000000000000000000000000000000000000000000000000000000000000000000000000000000000000000000000000000000000000000000000000000000000000000000000000000000000000000000000000000000000000000000000000000000000000000000000000000000000000000000000000000000000000000000000000000000000000000000000000000000000000000000000000000000000000000000000000000000000000000000000000000000000000000000000000000000000000000000000000000000000000000000000000000000000000000000000000000000000000000000000000000000000000000000000000000000000000000000000000000000000000000000000000000000000000000000000000000000000000000000000000000000000000000000000000000000000000000000000000000000000000000000000000000000000000000000000000000000000000000000000000000000000000000000000000000000000000000000000000000000000000000000000000000000000000000000000000000000000000000000000000000000000000000000000000000000000000000000000000000000000000000000000000000000000000000000000000000000000000000000000000000000000000000000000000000000000000000000000000000000000000000000000000000000000000000000000000000000000000000000000000000000000000000000000000000000000000000000000000000000000000000000000000000000000000000000000000000000000000000000000000000000000000000000000000000000000000000000000000000000000000000000000000000000000000000000000000000000000000000000000000000000000000000000000000000000000000000000000000000000000000000000000000000000000000000000000000000000000000000000000000000000000000000000000000000000000000000000000000000000000000000000000000000000000000000000000000000000000000000000000000000000000000000000000000000000000000000000000000000000000000000000000000000000000000000000000000000000000000000000000000000000000000000000000000000000000000000000000000000000000000000000000000000000000000000000
#04018:0000530000120000
#0401a:00000012
#04015:00530000
#04118:1200000000000052
#0411c:00000000001200000000000000000000
#04116:1200000000121212
#0431a:0014
#04312:2513
#04318:0000130000140000
#04316:00000014
#04314:0000000000000014
#04315:00130000
#04319:22
#0431c:22
#0431f:21
#04412:1414
#0441b:1313
#04415:00130000
#04418:0000130000000014
#04414:0000000000140000
#04416:00000014
#04410:41
#0451a:14
#04512:13000053
#04518:00131313
#04515:00531353
#0451b:00005313
#04612:13131313
#04615:5313001300130013
#0461b:00130013
#04618:53000013000000001300000013000000
#0471b:0013000000005300
#04715:0000001300000000
#04718:0000530000130000
#04712:1300000053000013
#0481b:1313
#04818:0013001300000013
#04815:5313001300000013
#04812:00130013
#04912:2300000000000000130000000000000000000000006400000000000000000000
#04915:00130000
#0491b:23
#04916:0000002400240024
#04918:00000000000000000000000000000000000000000000000000640000000000000000000000000000000000000000000000000000000000000064000000000000
#0491a:0000000000000000000000000064000000000000000000000000000000640000
#04914:00000000000000000000000000000000000000000000000000000000000000000000000000000000006400000000000000000000000000000000000000000000
#05012:0013000000000000
#05018:0000000013000000230000000000000000000053000000000000530000000000
#0501b:00131300
#05015:0000000023000000130000000000000000000000000053000000000000530000
#0501a:0000000000000000000000000000000000530000000000001300000000000000
#05019:0000000000000000000000000000000000005300000000000053000000000000
#05017:0000000000000000000000000000000000000000530000000000005300000000
#05016:0000000000000000000000000000000000000000005300000000000053000000
#05014:0000000000000000000000000000000000000000000000530000000000005300
#05013:0000000000000000000000000000000000000000000000005300000000000053
#05112:5314
#0511b:0013
#05114:0000000000140000
#05116:00000014
#05118:0000130000000014
#05115:00130000
#05119:25
#0521a:1414
#05212:1313
#05218:0000130000140000
#05215:00130000
#05216:00000014
#05214:0000000000000014
#05312:14131300
#05314:0014000000000014
#05316:00140014
#05318:0000001400140000
#0531a:0014
#0531b:13000013
#05412:1400001313000000
#0541b:1300000000000013
#05418:00001300000013001300000013000013
#05415:00000000130000130000130000001300
#05714:12120000
#05716:00120000001200000000000000000000
#05718:0012001200130013
#0571a:00000012000000120000000000000000
#05712:00001313
#05715:00000000000000000013000000130000
#0571b:00000000000000000000001300000013
#05517:00000013000000000000000000001300
#05516:00000000000013000000001300000000
#05515:23
#0551b:23
#05514:00000023000000000000000000002300
#0551a:00000023000000000000000000002300
#05513:00000000000023000000002300000000
#05519:00000000000023000000002300000000
#05512:0026
#05518:0026
#05510:41
#05617:00000013000000000000000000001300
#05616:00000000000013000000001300000000
#05618:2626
#05612:2626
#05614:00000023000000000000000000002300
#0561a:00000023000000000000000000002300
#05613:00000000000023000000002300000000
#05619:00000000000023000000002300000000
#05917:0000001300000000
#05912:0000000000001323
#05916:0000000000001414
#0591b:23000053
#0591a:00630000000000000000000000000000000000000000000000000000000000000000000000000000000000000000000000000000000000000000000000000000
#05919:0063000000000000000000000000000000000000000000000000000000000000
#06016:00000013000000000000000000000000
#0601b:0013130000000000
#0601c:0012
#06019:0012
#06017:00000012
#0601a:00000012
#06012:0053
#06118:1200000000120000
#06115:12
#06119:0000120000000012
#0611c:00120000
#06116:0012
#0611a:00000012
#06112:0000000000000052
#06218:00000000000000000000000000000000000000000000000000000000000000001200000000000000000000000000000000000000000000001353000000000000
#06216:0000000000120000
#06212:00000000000000000000000000000000120000000000000000000000000000000000000000000000000000000000000000000000000000001353000000000000
#06215:00000000000000000000000000000000120000000000000000000000000000000000000000000000000000000000000000000000000000001353000000000000
#06214:00000012
#0621c:0000000000000052
#01618:0000001300000000
#0161b:23000000000000000000001300000000
#01612:23000000000000000000001300000000
#01615:0000001300000000
#03012:12120012
#0301c:12
#03016:00120012
#03018:0000001200120012
#0301a:0012
#0311a:12
#0311b:0053
#03118:0000000000530000
#03115:00000053
#03112:0000000000000053
#04217:0000000022000000528100000000000000000000000000000000000000000000
#04219:00000000000000000000000000000000008100000081000000000000000000000000000000000000000000000000000000000000000000000000000000000000
#0421b:00000000008100000000000000000000
#04218:0000000000000000008100000000000000000000000000000000000000000000
#04216:00000000000000000000000000000000008100000081000000000000000000000000000000000000000000000000000000000000000000000000000000000000
#04214:00000000008100000000000000000000
#05812:23
#05815:23
#0631c:0022
#06319:0022
#06316:0022
#06314:000022
#06317:000022
#0631a:000022
#06312:000000000022
#06315:000000000022
#06318:000000000022
#06416:22
#0641c:22
#06419:22
#00713:00000052
#0071b:00000052
#06812:00000052
#06818:00000052
#06815:00000052
#01358:16
#01352:0016
#01458:16
#01452:0016
#01558:16
#01758:53
#0175b:0053
#01755:63
#01752:0063
#01858:0053
#0185b:53
#01852:63
#01855:0063
#0205b:5363
#02052:6353
#01952:0053
#01958:53
#01955:63
#0195b:0063
#02155:6353
#02158:5363
#0225b:53
#02255:0053
#02252:63
#02258:0063
#02358:53
#02355:53
#02452:0000000000130000
#0245b:00000013
#02552:53
#02556:0053
#0275b:53
#02757:0053
#02958:16
#03358:0000000000000053
#0335b:0000000000000053
#03352:00360000
#03555:0000000000000063
#03552:0000000000000063
#03558:00460000
#03952:53
#03958:0053
#0395b:0053
#04158:52
#0415c:00000000002200000000000000000000
#04352:15
#04358:00130000
#04355:00130000
#04455:00130000
#04458:00130000
#04552:53
#04558:00535353
#04555:0053
#0455b:00000053
#0495b:13
#0495a:0000000000000000000000000044000000000000000000000000000000440000
#04952:1300000000000000000000000000000000000000003400000000000000000000
#05258:00130000
#05255:00130000
#05158:00130000
#05155:00130000
#05159:15
#05452:14
#05552:0016
#05558:0016
#05658:1616
#05652:1616
#05852:13
#05855:13
#05959:0053000000000000000000000000000000000000000000000000000000000000
#05957:0000002300000000
#05952:0000000000000053
#06056:00000023000000000000000000000000
#06456:52
#0645c:52
#06459:52
#01655:0000005300000000
#01658:0000005300000000
#0165b:00000000000000000000002300000000
#01652:00000000000000000000002300000000
#04752:13
#00858:0016
#0285b:0013
#02858:00000013
#0485b:0013
#0013c0:1200000000000022
#001321:0000000000000012
#002321:0000000000000022
#002380:0000000000000012
#003380:0022
#003351:0000000012000022
#0033c0:0000000000000012
#0043c0:0022
#0053c0:1200000000000022
#005331:0000000000000012
#007331:00000022
#0063b0:0000000000000012
#0073b0:00000022
#0093b0:00132300
#010320:00132300
#0113b0:00132300
#016320:0000001300000000
#017320:22
#0163b1:0000001300000000
#0173c1:22
#016382:0000001300000000
#0163b2:00000000000000000000005300000000
#017382:33
#0173b2:0033
#018382:23
#016353:0000001300000000
#016323:00000000000000000000005300000000
#017353:33
#017323:0033
#018353:23
#0183b1:13
#018381:0033
#0193b1:23
#018320:13
#018350:0033
#019320:23
#019383:13
#019323:0033
#020383:23
#019352:13
#0193b2:0033
#020352:23
#0203b0:13
#020320:0033
#0213b0:23
#020321:13
#0203b1:0033
#021321:23
#021382:13
#021352:0033
#022382:23
#021353:13
#021383:0033
#022353:23
#0223b1:13
#022351:0033
#0233b1:23
#022320:13
#022380:0033
#023320:23
#023383:13
#0233b3:00005323
#023352:13
#023322:00005323
#025322:13
#025362:0033
#026322:23
#0273b2:13330033
#027372:0033
#0283b2:23
#031322:1300000000000023
#031353:0013000000002300
#031380:0000130000230000
#0313b1:0000001323000000
#0333b2:00132300
#033383:00132300
#033383:0000000000000013
#034353:0023000000000000
#0333b2:0000000000000013
#034382:0023000000000000
#035322:00132300
#035353:00132300
#035353:0000000000000013
#036383:0023000000000000
#035322:0000000000000013
#036352:0023000000000000
#039322:13
#039362:00000000000000000053000000000000
#040362:000000000000000000000000000000000000000000000000000000000000000000000000000000000000000000000000000000000000000000000000000000000000000000000000000000000000000000000000000000000000000000000000000000000000000000000000000000000000000000000000000000000000000000000000000000000000000000000000000000000000000000000000000000000000000000000000000000000000000000000000000000000000000000000000000000000000000000000000000000000000000000000000000000000000000000000000000000000000000000000000000000000000000000000000000000000000000000000000000000000000000000000000000000000000000000000000000000000000000000000000000000000000000000000000000000000000000000000000000000000000000000000000000000000000000000000000000000000000000000000000000000000000000000000000000000000000000000000000000000000000000000000000000000000000000000000000000000000000000000000000000000000000000000000000000000000000000000000000000000000000000000000000000000000000000000000000000000000000000000000024000000000000000000000000000000000000000000000000000000000000000000000000000000000000000000000000000000000000000000000000000000000000000000000000000000000000000000000000000000000000000000000000000000000000000000000000000000000000000000000000000000000000000000000000000000000000000000000000000000000000000000000000000000000000000000000000000000000000000000000000000000000000000000000000000000000000000000000000000000000000000000000000000000000000000000000000000000000000000000000000000000000000000000000000000000000000000000000000000000000000000000000000000000000000000000000000000000000000000000000000000000000000000000000000000000000000000000000000000000000000000000000000000000000000000000000000000000000000000000000000000000000000000000000000000000000000000000000000000000000000000000000000000000000000000000000000000000000000000000000000000000000000000000000000000000000000000000000000000000000000000000000000000000000000000000000000000000000000000000000000000000000000000000000000000000000000000000000000000000000000000000000000000000000000000000000000000000000000000000000000000000000000000000000000000000000000000000000000000000000000000000000000000000000000000000000000000000000000000000000000000000000000000000000000000000000000000000000000000000000000000000000000000000000000000000000000000000000000000000000000000000000000000000000000000000000000000000000000000000000000000000000000000000000000000000000000000000000000000000000000000000000000000000000000000000000000000000000000000000000000000000000000000000000000000000000000000000000000000000000000000000000000000000000000000000000000000000000000000000000000000000000000000000000000000000000000000000000000000000000000000000000000000000000000000000000000000000000000000000000000000000000000000000000000000000000000000000000000000000000000000000000000000000000000000000000000000000000000000000000000000000000000000000000000000000000000000000000000000000000000000000000000000000000000000000000000000000000000000000000000000000000000000000000000000000000000000000000000000000000000000000000000000000000000000000000000000000000000000000000000000000000000000000000000000000000000000000000000000000000000000000000000000000000000000000000000000000000000000000000000000000000000000000000000000000000000000000000000000000000000000000000000000000000000000000000000000000000000000000000000000000000000000000000000000000000000000000000000000000000000000000000000000000000000000000000000000000000000000000000000000000000000000000000000000000000000000000000000000000000000000000000000000000000000000000000000000000000000000000000000000000000000000000000000000000000000000000000000000000000000000000000000000000000000000000000000000000000000000000000000000000000000000000000000000000000000000000000000000000000000000000000000000000000000000000000000000000000000000000000000000000000000000000000000000000000000000000000000000000000000
#039383:0013
#040353:00230000
#0393b0:0013
#040380:00230000
#041383:1200000000323222
#0413c3:00000000005200000000000000000000
#042373:0012220000000000
#045323:13
#045353:00230000
#045380:00130000
#0453b0:0023
#045353:0013
#045323:00000023
#045382:0013
#045352:00000023
#045380:00000013
#046350:23
#0453b1:00000013
#046381:23
#047381:13230000
#047320:00132300
#0473b1:00001323
#047350:00000013
#048350:23
#059390:0013000000000000000000000000000000000000000000000000000000000000
#059370:0000005300000000
#0593b0:00000023
#059320:0000000000000013
#060360:00000053000000000000000000000000
#060320:0023
#061320:1200000000000022
#0613c1:0000000000000012
#0623c1:0000000000000022
#064361:12
#068321:00000022
#0643c0:12
#068380:00000022
#064393:12
#068353:00000022
#008920:0014
#0089a0:00000024
#008921:00000014
#0099a1:24
#042961:00000000000000000000000000000000001100000000000000000000000000000000000000000000000000000000000000000000000000000000000000000000
#042951:00000000000000000000000000000000000000210000000000000000000000000000000000000000000000000000000000000000000000000000000000000000
#042990:00000000000000000000000000000000001100000000000000000000000000000000000000000000000000000000000000000000000000000000000000000000
#0429a0:00000000000000000000000000000000000000210000000000000000000000000000000000000000000000000000000000000000000000000000000000000000
#042972:0000000000000000001100000000000000000000000000000000000000000000
#042962:00000000002100000000000000000000
#042983:0000000000000000001100000000000000000000000000000000000000000000
#042993:00000000002100000000000000000000
#0429b0:000000000000000000000000000000000000000000000000000000000000112100000000000000000000000000000000000000000000000000000000000000000000000000000000000000000000000000000000000000000000000000000000
#042941:000000000000000000000000000000000000000000000000000000000000112100000000000000000000000000000000000000000000000000000000000000000000000000000000000000000000000000000000000000000000000000000000
#042991:000000000000000000000000000000000000000000000000000000000000000000000000000000000000000000000000000000000000000000000000000000110021000000000000000000000000000000000000000000000000000000000000000000000000000000000000000000000000000000000000000000000000000000000000000000000000000000000000000000000000000000000000000000000000000000000000000000000000000000000000000000000000000000000000
#042960:000000000000000000000000000000000000000000000000000000000000000000000000000000000000000000000000000000000000000000000000000000110021000000000000000000000000000000000000000000000000000000000000000000000000000000000000000000000000000000000000000000000000000000000000000000000000000000000000000000000000000000000000000000000000000000000000000000000000000000000000000000000000000000000000
#0509b0:0013
#050930:00000023
#0509a1:00000013
#051921:23
#062921:00000000000000000000000000000000000000000000000000000000000000000000000000000000000000000000000000000000000000001323000000000000
#062950:00000000000000000000000000000000000000000000000000000000000000000000000000000000000000000000000000000000000000001323000000000000
#062983:00000000000000000000000000000000000000000000000000000000000000000000000000000000000000000000000000000000000000001323000000000000
