This file was generated by Ched 2.7.0.0.
#TITLE ""
#ARTIST ""
#DESIGNER ""
#DIFFICULTY 0
#PLAYLEVEL
#SONGID ""
#WAVE ""
#WAVEOFFSET 0
#JACKET ""
#REQUEST "ticks_per_beat 480"
#00002: 4
#BPM01: 190
#00008: 01
#TIL00: ""
#VOLUME: ""
#HISPEED 00
#MEASUREHS 00
#0001a:1200000000120000
#00014:12120000
#00018:00001200000000001200005200000000
#00016:0000001200005212
#00116:0012000000120000
#0011a:0000001200000012
#00114:12
#00118:00120012
#00112:0000000000520000
#01219:0000000000000013
#01212:2c13132c00002c00
#01215:0013130000000000
#01217:0000000013130000
#01214:0000000013130000
#01216:0000000000000013
#01918:0013001300130000
#0191b:0013000013000000
#01915:00000000130000130000000013000000
#01912:00131313
#02015:00120012
#0201b:23131313
#02014:2212
#02012:00120012
#02017:2212
#02010:41
#0221b:13131313
#02215:00000012
#02216:0000001200000000
#02217:12
#02214:00520000
#02213:0000000000520000
#0231b:13131313
#02312:00521200
#02314:00000012
#02315:0012
#02317:00000012
#05518:0023001300131313
#05515:00001300000023000000001300130013
#0551b:0013000000000000
#05512:0000001300000000
#05618:1300000000005313
#0561b:0000531313000000
#05612:13
#05615:0013
#0581b:0000001300130000
#05818:0013
#05815:1300001300130013
#05812:0000130000001313
#08014:0000000023000013
#0801a:0000000000130000
#08017:0000000000130013
#08012:0000001300000000
#08015:2300001300000000
#08018:13230000
#08019:00000023
#0841a:1200001200120000
#08418:00000000120000000000005200000000
#0841c:0012
#08416:0012000000005212
#08412:13
#08514:12
#08516:0012000000120000
#08518:00120012
#0851a:0000001200000012
#08616:00000000000000000012000000000000000000000000000000000000001200000000000000000000000000000000000000000000000000000000000000000000
#0861c:12000000000000000000000000000000000000120000000000000000000000000000000000000000000000000000000000000000000000000000000000000000
#08612:52000000000000000012000000000000000000000000000000000000001200000000000000000000000000000000000000000000000000000000000000000000
#08618:00000000000000000000000000000000000000120000000000000000000000000000000000000000000000000000000000000000000000000000000000000000
#02612:13131313
#02619:00000012
#02618:0000001200000000
#02617:12
#0261a:00520000
#0261b:0000000000520000
#06417:00000000000000000000000072000000000000000000000000000000000012121212000000000000000000000000000000000000000000000000000000000000
#06413:000000000000000000000000000000000000000000000000000000000000000000000000000000000000000000000000000000000000000000000000000000000000000000000000000000000000000000000000000000000000000000000000000000000000000000000000000000000000000000000000000000000000000000000000000000000000000000000000000000000000000000000000000000000000000000000000000000000000000000000000000000000000000000000000000000000000000000000000000000000000000000000000000000000000000000000000000000000000000000000000000000000000000000000000000000000000000000000000000000000000000000000000000000000000000000000000000000000000000000000000000000000000000000000000000000000000000000000000000000000000000000000000000000000000000000000000000000000000000000000000000000000000000000000000000000000000000000000014
#06419:000000000000000000000000000000000000000000000000000000000000000000000000000000000000000000000000000000000000000000000000000000000000000000000000000000000000000000000000000000000000000000000000000000000000000000000000000000000000000000000000000000000000000000000000000000000000000000000000000000000000000000000000000000000000000000000000000000000000000000000000000000000000000000000000000000000000000000000000000000000000000000000000000000000000000000000000000000000000000000000000000000000000000000000000000000000000000000000000000000000000000000000000000000000000000000000000000000000000000000000000000000000000000000000000000000000000000000000000000000000000000000000000000000000000000000000000000000000000000000000000000000000000000000000000000000000000000000000014
#0641b:23
#06512:1600000000001313
#06518:160000000000000000000000000000000000000000000000000000000000000000000000000000000000000000000000000000000000000000000000000000000000000000000000000000000000000000000000000000000000000000000000000000000000000000000000000000000000000000000000000000000000000000000000000000000000000000000000000000000000000000000000000000000000000000000000000000000000000000000000000000000000000000000000000000000000000000000000000000000000000000000000000000000000000000000000000000000000000000000000000000000000000000000000000000000000000000000000000000000000000000000000000000000000000000000000000000000000000000000000000000000000000000000000000000000000000000000000000000000000000000000000000000000000000000000000000000000000000000000000000000000000000000000000000000000000000000000000000000000000000000000000000000000000000000000000000000000000000000000000000000000000000000000000000000000000000000000000000000000000000000000000000000000000000000000000000000000000000000000072000000000000000000000000000000000000000000000000000000000000000000000000000000000000000000000000000000000000000000000000000000000000000000000000000000000000000000000000000000000000000000000000000000000000000000000000000000000000000000000000000000000000000000000000000000000000000000000000000000000000000000000000000000000000000000000000000000000000000000000000000000000000000000000000000000000000000000000000000000000000000000000000000000000000000000000000000000000000000000000000000000000000000000000000000000000000000000000000000000000000000000000000000000000000000000000000000000000000000000000000130000000000000000000000000000000000000000000000000000000000000000000000000000000000000000000000000000000000000000000000000000000000000000000000000000000000000000000000000000000000000000000000000000000000000000000000000000000000000000000000130000000000000000000000000000000000000000000000000000000000000000000000000000000000000000000000000000000000000000000000
#06515:0000000000001313
#0651b:00000000000000000000000000130013
#06516:000000000000000000000000000000000000000000000000000000000000000000000000000000000000000000000000000000000000000000000000000000000000000000000000000000000000000000000000000000000000000000000000000000000000000000000000000000000000000000000000000000000000000000000000000000000000000000000000000000000000000000000000000000000000000000000000000000000000000000000000000000000000000000000000000000000000000000000000000000000000000000000000000000000000000000000000000000000000000000000000000000000000000000000000000000000000000000000000000000000000000000000000000000000000000000000000000000000000000000000000000000000000000000000000000000000000000000000000000000000000000000000000000000000000000000000000000000000000000000000000000000000000000000000000000000000000000000000000000000000000000000000000000000000000000000000000000000000000000000000000000000000000000000000000000000000000000000000000000000000000000000000000000000000000000000000000000000000000000000000072000000000000000000000000000000000000000000000000000000000000000000000000000000000000000000000000000000000000000000000000000000000000000000000000000000000000000000000000000000000000000000000000000000000000000000000000000000000000000000000000000000000000000000000000000000000000000000000000000000000000000000000000000000000000000000000000000000000000000000000000000000000000000000000000000000000000000000000000000000000000000000000000000000000000000000000000000000000000000000000000000000000000000000000000000000000000000000000000000000000000000000000000000000000000000000000000000000000000000000000000000000000000000000000000000000000000000000000000000000000000000000000000000000000000000000000000000000000000000000000000000000000000000000000000000000000000000000000000000000000000000000000000000000000000000000000000000000000000000000000000000000000000000000000000000000000000000000000000000000000000000000000000000000000000000000000000000000000000000000000000
#00416:00120000
#00414:0012000000000000
#00413:0000001200005200
#00415:00000000000000001200005200001200
#00418:12
#00417:0000000000120000
#00412:12
#06615:13170000
#06616:0000001600002300
#0661c:0000121212121212
#06612:13230000
#06617:0015
#06618:0000000000140000
#06619:00000013
#0661a:0000000000000012
#06614:0023
#06610:41
#0211b:13131313
#02115:00125212
#02118:52120000
#02112:00005212
#0831b:13
#08319:00130000
#08317:0013
#08315:0013000000001300
#08318:13
#08312:0013000000001300
#08316:00130000
#08314:0013
#03814:1200000000005212
#03818:0000120000120000
#03816:00001200000000000000005200000000
#0381a:1200001200000000
#03912:12
#03914:0012000000000012
#03916:00120012
#0391a:00000012
#03918:0000000000520012
#0391c:0000000000520000
#0441f:11
#04415:0000001300230000
#04418:00230013
#0441b:0053
#0071b:00120000
#0071a:0012
#00719:00000012
#0111a:5400002400001400
#01116:2400001400002400
#01112:5400002400001400
#02412:23131313
#02419:00120012
#0241a:2212
#0241c:00120012
#02417:2212
#02512:13131313
#02519:00125212
#0251c:00005212
#02516:52120000
#02712:1300130000001313
#02718:0000131300000000
#02715:0000000013130000
#0271c:00520000
#0271b:00000053
#00512:12
#00516:00120012
#00518:0000001200000012
#00514:0012000000120000
#0051a:0000000000520000
#0351b:0000000000130000
#03518:00000000000000130000000013000000
#03515:0013001300130013
#03512:13131300
#0591b:0053131300000000
#05918:0000001300000013
#05912:0000000000531300
#05915:00000000000000000000000000130000
#08218:1300005313131313
#08215:00000000000053130013001300130013
#08212:26000000000013000013001300130013
#0821b:1300000013131313
#0021c:1200000000120000
#00216:12120000
#0021a:00001200000000001200005200000000
#00218:0000001200005212
#00316:1200000000120012
#00318:0012000000000000
#0031a:00120000
#0031c:0000001200001200
#00314:0000000000520000
#00616:00120000
#00614:0012000000000000
#00613:0000001200005200
#00615:00000000000000001200005200001200
#0061a:12
#00617:0000000000120000
#00612:12
#00815:12
#00819:12
#00812:000000000000000000000000000000000000000000000000000000000000000000000000000000000000000000000000000000000000000000000000000000000000000000000000000000000000000000000000000000000000000000000000000000000000000000000000000000000000000000000000000000000000000000000000000000000000000000000000000000000000000000000000000000000000000000000000000000000000000000000000000000000000000000000000000000000000000000000000000000000000000000000000000000000000000000000000000000000000000000000000000000000000000000000000000000000000000000000000000000000000000000000000000000000000000000000000000000000000000000000000000000000000000000000000000000000000000000000000000000000000000000000000000000000000000000000000000000000000000000000000000000000000000000000000000000000000000000000000000000000000000000000000000000000000000000000000000000000000000000000000000000000000000000000000000000000000000000000000000000000000000000000000000000000000000000000000000000000000000000000000000000000000000000000000000000000000000000000000000000000000000000000000000000000000000000000000000000000000000000000000000000000000000000000000000000000000000000000000000000000000000000000000000000000000000000000000000000000000000000000000000000000000000000000000000000000000000000000000000000000000000000000000000000000000000000000000000000000000000000000000000000000000000000000000000000000000000000000000000000000000000000000000000000000000000000000000000000000000000000000000000000000000000000000000000000000000000000000000000000000000000000000000000000000000000000000000000000000000000000000000000000000000000000000000000000000000000000000000000000000000000000000000000000000000000000000000000000000000000000000000000000000000000000000000000000000000000000000000000000000000000000000000000000000000000000000000000000000000000000000000000000000000000000000000000000000000000000000000000000000000000000000000000000000000000000000000000000000000000000000000000000000000000000000000000000000000000000000000000000000000000000000000000000000000000000000000000000000000000000000000000000000000000000000000000000000000000000000000000000000000000000000000000000000000000000000000000000000000000000000000000000000000000000000000000000000000000000000000000000000000000000000000000000000000000000000000000000000000000000000000000000000000000000000000000000000000000000000000000000000000000000000000000000000000000000000000000000000000000000000000000000000000000000000000000000000000000000000000000000000000000000000000000000000000000000000000000000000000000000000000000000000000000000000000000000000000000000000000000000000000000000000000000000000000000000000000000000000000000000000000000000000000000000000000000000000000000000000000000000000000000000000000000000000000000000000000000000000000000000000000000000000000000000000000000000000000000000000000000000000000000000000000000000000000000000000000000000000000000000000000000000000000000000000000000000000000000000000000000000000000000000000000000000000000000000000000000000000000000000000000000000000000000000000000000000000000000000000000000000000000000000000000000000000000000000000000000000000000000000000000000000000000000000000000000000000000000000000000000000000000000000000000000000000000000000000000000000000000000000000000000000000000000000000000000000000000000000000000000000000000000000000000000000000000000000000000000000000000000000000000000000000000000000000000000000000000000000000000000000000000000000000000000000000000000000000000000000000000000000000000000000000000000000000000000000000000000000000000000000000000000000000000000000000000000000000000000000000000000000000000000000000000000000000000000000000000000000000000000000000000000000000000000000000000000000000000000000000000000000000000000000000000000000000000000000000000000000000000000000000000000000000000000000000000000000000000000000000000000000000018
#00810:41
#00817:52
#00916:18
#01017:000000000000000000000000000000000000000000000000000000000000000000000000000000000000000000000000000000000000000000000000000000000000000000000000000000000000000000000000000000000000000000000000000000000000000000000000000000000000000000000000000000000000000000000000000000000000000000000000000000000000000000000000000000000000000000000000000000000000000000000000000000000000000000000000000000000000000000000000000000000000000000000000000000000000000000000000000000000000000000000000000000000000000000000000000000000000000000000000000000000000000000000000000000000000000000000000000000000000000000000000000000000000000000000000000000000000000000000000000000000000000000000000000000000000000000000000000000000000000000000000000000000000000000000000000000000000000000000000000000000000000000000000000000000000000000000000000000000000000000000000000000000000000000000000000000000000000000000000000000000000000000000000000000000000000000000000000000000000000000000000000000000000000000000000000000000000000000000000000000000000000000000000000000000000000000000000000000000000000000000000000000000000000000000000000000000000000000000000000000000000000000000000000000000000000000000000000000000000000000000000000000000000000000000000000000000000000000000000000000000000000000000000000000000000000000000000000000000000000000000000000000000000000000000000000000000000000000000000000000000000000000000000000000000000000000000000000000000000000000000000000000000000000000000000000000000000000000000000000000000000000000000000000000000000000000000000000000000000000000000000000000000000000000000000000000000000000000000000000000000000000000000000000000000000000000000000000000000000000000000000000000000000000000000000000000000000000000000000000000000000000000000000000000000000000000000000000000000000000000000000000000000000000000000000000000000000000000000000000000000000000000000000000000000000000000000000000000000000000000000017000000000000000000000000000000000000000000000000000000000000000000000000000000000000000000000000000000000000000000000000000000000000000000000000000000000000000000000000000000000000000000000000000000000000000000000000000000000000000000000000000000000000000000000000000000000000000000000000000000000000000000000000000000000000000000000000000000000000000000000000000000000000000000000000000000000000000000000000000000000000000000000000000000000000000000000000000000000000000000000000000000000000000000000000000000000000000000000000000000000000000000000000000000000000000000000000000000000000000000000000000000000000000000000000000000000000000000000000000000000000000000000000000000000000000000000000000000000000000000000000000000000000000000000000000000000000000000000000000000000000000000000000000000000000000000000000000000000000000000000000000000000000000000000000000000000000000000000000000000000000000000000000000000000000000000000000000000000000000000000000000000000000000000000000000000000000000000000000000000000000000000000000000000000000000000000000000000000000000000000000000000000000000000000000000000000000000000000000000000000000000000000000000000000000000000000000000000000000000000000000000000000000000000000000000000000000000000000000000000000000000000000000000000000000000000000000000000000000000000000000000000000000000000000000000000000000000000000000000000000000000000000000000000000000000000000000000000000000000000000000000000000000000000000000000000000000000000000000000000000000000000000000000000000000000000000000000000000000000000000000000000000000000000000000000000000000000000000000000000000000000000000000000000000000000000000000000000000000000000000000000000000000000000000000000000000000000000000000000000000000000000000000000000000000000000000000000000000000000000000000000000000000000000000000000000000000000000000000000000000000000000000000000000000000000000000000000000000000000000000000
#01012:1317
#0101b:13
#01015:52
#01019:52
#01319:13
#01317:0000131300000000
#01314:0000131300000000
#01315:0000000000131300
#01312:002c00002c131324
#01316:1300000000000014
#0131a:0000000000000024
#0281b:1313131300000000
#02818:5300000013131313
#0321b:13131313
#03218:0013001300130013
#03210:41
#03115:1313000013130000
#03112:0000131300001313
#0301b:1313000013130000
#03018:0000131300001313
#02915:1313131300000000
#02912:0000000013131313
#03418:13131313
#0341b:0013001300130013
#03612:13131313
#0361b:13
#03615:0000001300000000
#03616:0063
#03618:00000063
#05715:1300000013005313
#05712:13
#05718:1300531313000000
#0571b:0013
#05218:13000013
#0521b:13000013
#05215:2300000000000013
#05212:23000000000000000000000000000000000000000000000000000000000000000000000000000000000000000000000000000000000000000000000000000000000000000000000000000000000000000000000000000000000000000000000000000000000000000000000000000000000000000000000000000000000000000000000000000000000000000000000000000000000000000000000000000000000000000000000000000000000000000000000000000000000000000000000000000000000000000000000000000000000000000000000000000000000000000000000000745400000000000000000000000000000000000000000000000000000000000000000000000000000000000000000000000000000000000000000000000000000000000000000000000000000000000000000000000000000000000000000000000000000000000000000000000000000000000000000000000000000000000000000000000000000000000000000000000000000000000000000000000000000000000000000000000000000000000000000000000000000000000000000000000000000000000000000000000000000000000000000000000000000000000000000000000000000000000000000000000000000000000000000000000000000000000000000000000000000000000000000000000000000000000000000000000000000000000000000000000000000000000000000000000000000000000000000000000000000000001300000000000000000000000000000000000000000000000000000000000000000000000000000000000000000000000000000000000000000000000000000000000000000000000000000000000000
#0521f:21
#0521a:00000000000000000000000000000000000000000000000000540000000000000000000000000000000000000000000000000000000000000000000000000000
#05216:0000005400000000
#03715:00190000000000000000000063000000
#03712:13131313
#0371a:63
#03719:00630000
#03717:0063
#0401b:13131313
#04012:13
#04018:0000001300000000
#04017:0063
#04015:00000063
#0411b:13131313
#04112:00190000000000000000000000000000
#04113:63
#04114:00630000
#04116:0063
#04118:00000063
#06816:0000000000001313
#06817:0000131313000000
#06812:0000000023001313
#0681b:0000131313000000
#0681c:52
#06818:64
#0711b:1300005300130000
#07113:00000013
#0711a:0000000000000013
#07115:0000001313000000
#07118:1300005313130000
#07116:00000013
#07117:00000013000000000000000000001300
#07112:5300001300000000
#07114:00000013000000000000000000000000
#08114:0000001400000000
#08118:0013001400150016
#08115:0013000000000000
#08113:2400000000150000
#08112:0000000025000016
#08119:00240025
#03312:13131313
#03315:0013001300130013
#04317:000000000000000000000000000000000000000000000000000000000000000000000000000000000000000000000000000000000000000000000000000000000000000000000000000000000000000000000000000000000000000000000000000000000000000000000000000000000000000000000000000000000000000000000000000000000000000000000000000000000000000000000000000000000000000000000000000000000000000000000000000000000000000000000000000000000000000000000000000000000000000000000000000000000000000000000000000000000000000000000000000000000000000000000000000000000000000000000000000000000000000000000000000000000000000000000000000000000000000000000000000000000000000000000000000000000000000000000000000000000000000000000000000000000000000000000000000000000000000000000000000000000000000000000000000000000000000000000000000000000000000000000000000000000000000000000000000000000000000000000000000000000000000000000000000000000000000000000000000000000000000000000000000000000000000000000000000000000000000000000000000000000000000000000000000000000000000000000000000000000000000000000000000000000000000000000000000000000000000000000000000000000000000000000000000000000000000000000000000000000000000000000000000000000000000000000000000000000000000000000000000000000000000000000000000000000000000000000000000000000000000000000000000000000000000000000000000000000000000000000000000000000000000000000000000000000000000000000000000000000000000000000000000000000000000000000000000000000000000000000000000000000000000000000000000000000000000000000000000000000000000000000000000000000000000000000000000000000000000000000000000000000000000000000000000000000000000000000000000000000000000000000000000000000000000000000000000000000000000000000012120000000000000000000000000000000000000000000000000000000000000000000000000000000000000000000000000000000000000000000000000000000000000000000000000000000000000000000000000000000000000000000000000000000000000000000000000000000000000000000000
#04319:0000000000000012
#04315:0000000000001312
#04312:13000013
#04318:13000013
#0431b:00000013
#04212:1200000000005212
#04218:1200001200000000
#04214:00001200000000000000005200000000
#04216:0000120000120000
#0421a:0000000000000052
#05118:13
#05112:13
#05115:13
#07615:00001313
#07612:230000000000130000000000000000000000005200000000
#0761b:1300001300000013
#07614:000000000000000000000000005300000000000000000000000000000000000000000000000000000000000000000000
#07616:000000000000005200000000000000000000000000000000
#07613:000000000000000000000000000000000000000000000000000000000000000000000000005300000000000000000000
#07715:0013
#07712:13130013
#0771b:0000001300130013
#07714:000000000000000000000000005300000000000000000000000000000000000000000000000000000000000000000000
#07716:000000000000005200000000000000000000000000000000
#07812:1300001300000013
#07818:230000000000005200000000130000000000130000000000
#0781b:00130000
#07819:000000000000000000000000005300000000000000000000000000000000000000000000000000000000000000000000
#0781a:000000000000000000000000000000000000000000000000000000000000000000000000005300000000000000000000
#0781c:000000000000000000000000000000000000005200000000
#07212:1313
#07215:13
#0721b:0013
#0721a:0000001300000013
#07219:00230023
#01618:1300130013131313
#01615:2300000000000063
#01612:0000000000000023
#01518:00000013000000130013000000130000
#01515:0000131300130013
#0151b:0013000013001300
#01512:00000000001300000000001300000013
#01516:0064000000000000
#0141a:0064000024006414
#01412:0064246424006414
#01416:0024642464000024
#0171b:0013131313131313
#01818:1300130013131313
#01812:6300000000000023
#01815:2300000000000063
#05418:0000001313005313
#0541b:0013
#05412:0000530000000013
#05415:0000531300005323
#05318:0000531300005313
#05312:0013
#05315:0000001313005300
#0531b:0000530000000013
#05310:41
#06215:0023002313000053
#06212:1300130013000053
#0621b:1300005313001300
#06218:1300005300230023
#0601b:1300005300001300
#06015:1323002300000000
#06012:0000130013000053
#06018:0000000013230023
#06115:1323002300000053
#06112:0000130013000053
#06118:0000005313230023
#0611b:1300005300001300
#06312:13230023
#0631b:1323
#06316:24
#0731b:1313
#07312:00005313
#07314:0000000000130000
#07317:00000013
#0731a:0000001300000000
#07316:0013
#07319:0000230000000013
#07315:53
#0741b:1313
#07416:13
#07412:0013
#07413:0000001300000013
#07414:00230023
#07410:41
#07512:1323
#07519:0000000000130000
#07516:00000013
#07513:0000001300000000
#07517:0013
#07514:0000230000000013
#0751b:00005323
#07518:53
#06917:0000131323630000
#0691b:2300131323630000
#06912:1300000053002363
#06916:1300000000002363
#07018:13131313
#07015:0000001300130013
#0701b:13
#0791b:13130013
#07912:0000001300130013
#07918:000000000000005200000000130000000000000000000000
#07919:000000000000000000000000005300000000000000000000000000000000000000000000000000000000000000000000
#04512:1353
#0451b:13
#04518:0000001300230000
#04515:00230013
#0481b:5313130000002300
#04816:0000000013130000
#04818:0013130000002300
#04819:0000000013130000
#04814:0000000000000013
#04817:0000000000000013
#04812:2300002300000000
#04815:2300002300000000
#04618:00230013
#0461b:1353
#04615:1300001300230000
#04715:00230013
#04718:1300001300230000
#04712:0053
#04914:13
#04915:0000131300000000
#04917:13
#04912:0000131300000000
#04918:00002300000000000013001300130013
#0491b:0023000013131313
#05018:00001300130023000013000000000000
#05015:23000013000000001300130023000000
#05012:2300002300002300
#0501b:2300002300002300
#06718:2300000000000000006300000000000063000000000000000064000000000000
#06716:00630000000000000000000000000000006300000000000000000000000000000000000000000000000000000000000000000000000000000000000000000000
#06714:0063000000000000630000000000000000000000000000000000000000000000
#06715:00000000000000000000000000000000000000000000000000000000000000000064000000000000000000000000000000640000000000000000000000000000
#06712:0000000000000000000000000000000000640000000000006400000000000000
#08819:00520000000000000000000000000000
#08818:00000000000000540000000000000000000000000000000000000000000000000000000000000000000000000000000000000000000000000000000000000000
#0881a:0000000000530000000000000000000000000000000000000000000000000000
#0881c:00000000000000000000000000520000000000000000000000000000000000000000000000000000000000000000000000000000000000000000000000000000
#08815:00520000000000000000000000000000
#08817:00520000000000000000000000000000
#05658:53
#05652:53
#0565b:0063
#05655:0063
#06457:00000000000000000000000000000000000000000000000000000000000052525252000000000000000000000000000000000000000000000000000000000000
#0645b:53
#06453:000000000000000000000000000000000000000000000000000000000000000000000000000000000000000000000000000000000000000000000000000000000000000000000000000000000000000000000000000000000000000000000000000000000000000000000000000000000000000000000000000000000000000000000000000000000000000000000000000000000000000000000000000000000000000000000000000000000000000000000000000000000000000000000000000000000000000000000000000000000000000000000000000000000000000000000000000000000000000000000000000000000000000000000000000000000000000000000000000000000000000000000000000000000000000000000000000000000000000000000000000000000000000000000000000000000000000000000000000000000000000000000000000000000000000000000000000000000000000000000000000000000000000000000000000000000000000000000024
#06459:000000000000000000000000000000000000000000000000000000000000000000000000000000000000000000000000000000000000000000000000000000000000000000000000000000000000000000000000000000000000000000000000000000000000000000000000000000000000000000000000000000000000000000000000000000000000000000000000000000000000000000000000000000000000000000000000000000000000000000000000000000000000000000000000000000000000000000000000000000000000000000000000000000000000000000000000000000000000000000000000000000000000000000000000000000000000000000000000000000000000000000000000000000000000000000000000000000000000000000000000000000000000000000000000000000000000000000000000000000000000000000000000000000000000000000000000000000000000000000000000000000000000000000000000000000000000000000000024
#06552:26
#06558:2642
#06556:0032
#05955:0033000000430000
#05958:0033006300430000
#0595b:0000006300000000
#0075b:00420000
#00759:00000042
#0075a:0042
#0075c:42
#02855:00130000
#02852:00000013
#0295b:00130000
#02958:00000013
#04455:13
#04458:13000013
#04452:33
#0445b:43
#0635b:0053
#06352:00530053
#06356:54
#06655:13
#06652:13
#0835b:43
#08359:00430000
#08357:0043
#08355:00000043
#08358:43
#08356:00430000
#08354:0043
#08352:00000043
#00956:28
#00852:000000000000000000000000000000000000000000000000000000000000000000000000000000000000000000000000000000000000000000000000000000000000000000000000000000000000000000000000000000000000000000000000000000000000000000000000000000000000000000000000000000000000000000000000000000000000000000000000000000000000000000000000000000000000000000000000000000000000000000000000000000000000000000000000000000000000000000000000000000000000000000000000000000000000000000000000000000000000000000000000000000000000000000000000000000000000000000000000000000000000000000000000000000000000000000000000000000000000000000000000000000000000000000000000000000000000000000000000000000000000000000000000000000000000000000000000000000000000000000000000000000000000000000000000000000000000000000000000000000000000000000000000000000000000000000000000000000000000000000000000000000000000000000000000000000000000000000000000000000000000000000000000000000000000000000000000000000000000000000000000000000000000000000000000000000000000000000000000000000000000000000000000000000000000000000000000000000000000000000000000000000000000000000000000000000000000000000000000000000000000000000000000000000000000000000000000000000000000000000000000000000000000000000000000000000000000000000000000000000000000000000000000000000000000000000000000000000000000000000000000000000000000000000000000000000000000000000000000000000000000000000000000000000000000000000000000000000000000000000000000000000000000000000000000000000000000000000000000000000000000000000000000000000000000000000000000000000000000000000000000000000000000000000000000000000000000000000000000000000000000000000000000000000000000000000000000000000000000000000000000000000000000000000000000000000000000000000000000000000000000000000000000000000000000000000000000000000000000000000000000000000000000000000000000000000000000000000000000000000000000000000000000000000000000000000000000000000000000000000000000000000000000000000000000000000000000000000000000000000000000000000000000000000000000000000000000000000000000000000000000000000000000000000000000000000000000000000000000000000000000000000000000000000000000000000000000000000000000000000000000000000000000000000000000000000000000000000000000000000000000000000000000000000000000000000000000000000000000000000000000000000000000000000000000000000000000000000000000000000000000000000000000000000000000000000000000000000000000000000000000000000000000000000000000000000000000000000000000000000000000000000000000000000000000000000000000000000000000000000000000000000000000000000000000000000000000000000000000000000000000000000000000000000000000000000000000000000000000000000000000000000000000000000000000000000000000000000000000000000000000000000000000000000000000000000000000000000000000000000000000000000000000000000000000000000000000000000000000000000000000000000000000000000000000000000000000000000000000000000000000000000000000000000000000000000000000000000000000000000000000000000000000000000000000000000000000000000000000000000000000000000000000000000000000000000000000000000000000000000000000000000000000000000000000000000000000000000000000000000000000000000000000000000000000000000000000000000000000000000000000000000000000000000000000000000000000000000000000000000000000000000000000000000000000000000000000000000000000000000000000000000000000000000000000000000000000000000000000000000000000000000000000000000000000000000000000000000000000000000000000000000000000000000000000000000000000000000000000000000000000000000000000000000000000000000000000000000000000000000000000000000000000000000000000000000000000000000000000000000000000000000000000000000000000000000000000000000000000000000000000000000000000000000000000000000000000000000000000000000000000000000000000000000000000000000000000000000000000000000000000000000000000000000000000000000000000000000000000000000000028
#00855:52
#00859:52
#01057:000000000000000000000000000000000000000000000000000000000000000000000000000000000000000000000000000000000000000000000000000000000000000000000000000000000000000000000000000000000000000000000000000000000000000000000000000000000000000000000000000000000000000000000000000000000000000000000000000000000000000000000000000000000000000000000000000000000000000000000000000000000000000000000000000000000000000000000000000000000000000000000000000000000000000000000000000000000000000000000000000000000000000000000000000000000000000000000000000000000000000000000000000000000000000000000000000000000000000000000000000000000000000000000000000000000000000000000000000000000000000000000000000000000000000000000000000000000000000000000000000000000000000000000000000000000000000000000000000000000000000000000000000000000000000000000000000000000000000000000000000000000000000000000000000000000000000000000000000000000000000000000000000000000000000000000000000000000000000000000000000000000000000000000000000000000000000000000000000000000000000000000000000000000000000000000000000000000000000000000000000000000000000000000000000000000000000000000000000000000000000000000000000000000000000000000000000000000000000000000000000000000000000000000000000000000000000000000000000000000000000000000000000000000000000000000000000000000000000000000000000000000000000000000000000000000000000000000000000000000000000000000000000000000000000000000000000000000000000000000000000000000000000000000000000000000000000000000000000000000000000000000000000000000000000000000000000000000000000000000000000000000000000000000000000000000000000000000000000000000000000000000000000000000000000000000000000000000000000000000000000000000000000000000000000000000000000000000000000000000000000000000000000000000000000000000000000000000000000000000000000000000000000000000000000000000000000000000000000000000000000000000000000000000000000000000000000000000000000000000027000000000000000000000000000000000000000000000000000000000000000000000000000000000000000000000000000000000000000000000000000000000000000000000000000000000000000000000000000000000000000000000000000000000000000000000000000000000000000000000000000000000000000000000000000000000000000000000000000000000000000000000000000000000000000000000000000000000000000000000000000000000000000000000000000000000000000000000000000000000000000000000000000000000000000000000000000000000000000000000000000000000000000000000000000000000000000000000000000000000000000000000000000000000000000000000000000000000000000000000000000000000000000000000000000000000000000000000000000000000000000000000000000000000000000000000000000000000000000000000000000000000000000000000000000000000000000000000000000000000000000000000000000000000000000000000000000000000000000000000000000000000000000000000000000000000000000000000000000000000000000000000000000000000000000000000000000000000000000000000000000000000000000000000000000000000000000000000000000000000000000000000000000000000000000000000000000000000000000000000000000000000000000000000000000000000000000000000000000000000000000000000000000000000000000000000000000000000000000000000000000000000000000000000000000000000000000000000000000000000000000000000000000000000000000000000000000000000000000000000000000000000000000000000000000000000000000000000000000000000000000000000000000000000000000000000000000000000000000000000000000000000000000000000000000000000000000000000000000000000000000000000000000000000000000000000000000000000000000000000000000000000000000000000000000000000000000000000000000000000000000000000000000000000000000000000000000000000000000000000000000000000000000000000000000000000000000000000000000000000000000000000000000000000000000000000000000000000000000000000000000000000000000000000000000000000000000000000000000000000000000000000000000000000000000000000000000000000000000000000000
#01052:5327
#0105b:53
#03358:00130000
#0335b:00000013
#03255:00000013
#03252:00130000
#03055:00130000
#03052:00000013
#0315b:00130000
#03158:00000013
#03452:00130000
#03455:00000013
#05755:6363
#05752:63
#05758:6363
#0575b:0063
#05256:0000004400000000
#0525a:00000000000000000000000000000000000000000000000000440000000000000000000000000000000000000000000000000000000000000000000000000000
#05252:33000000000000000000000000000000000000000000004400000000000000000000000000000000000000000000000000000000000000001300000000000000
#0525b:53
#05258:53
#05255:3300000000000013
#0365b:53
#03655:0000005300000000
#03755:00290000000000000000000000000000
#05858:13
#05852:1300000000000053
#05855:1300000000000053
#06852:0043
#06858:34
#06857:0053
#0695b:33
#06956:53
#01252:4c00004c00004c00
#01352:004c00004c000000
#0355b:00130000
#04359:0000000000000022
#04357:000000000000000000000000000000000000000000000000000000000000000000000000000000000000000000000000000000000000000000000000000000000000000000000000000000000000000000000000000000000000000000000000000000000000000000000000000000000000000000000000000000000000000000000000000000000000000000000000000000000000000000000000000000000000000000000000000000000000000000000000000000000000000000000000000000000000000000000000000000000000000000000000000000000000000000000000000000000000000000000000000000000000000000000000000000000000000000000000000000000000000000000000000000000000000000000000000000000000000000000000000000000000000000000000000000000000000000000000000000000000000000000000000000000000000000000000000000000000000000000000000000000000000000000000000000000000000000000000000000000000000000000000000000000000000000000000000000000000000000000000000000000000000000000000000000000000000000000000000000000000000000000000000000000000000000000000000000000000000000000000000000000000000000000000000000000000000000000000000000000000000000000000000000000000000000000000000000000000000000000000000000000000000000000000000000000000000000000000000000000000000000000000000000000000000000000000000000000000000000000000000000000000000000000000000000000000000000000000000000000000000000000000000000000000000000000000000000000000000000000000000000000000000000000000000000000000000000000000000000000000000000000000000000000000000000000000000000000000000000000000000000000000000000000000000000000000000000000000000000000000000000000000000000000000000000000000000000000000000000000000000000000000000000000000000000000000000000000000000000000000000000000000000000000000000000000000000000000000000000000022220000000000000000000000000000000000000000000000000000000000000000000000000000000000000000000000000000000000000000000000000000000000000000000000000000000000000000000000000000000000000000000000000000000000000000000000000000000000000000000000
#04355:0000000000005322
#04352:00000053
#04358:00000053
#0435b:00000053
#08058:00130000
#08054:0013
#08059:00000013
#08055:13
#08153:14
#08159:00140015
#08152:0015
#07858:1313
#08252:16
#0825b:63
#08258:63
#08452:53
#07652:33
#07655:0013
#07752:13000033
#07755:0033
#01658:0000000000000043
#01858:0000000000000043
#02052:00000062
#02055:00000062
#02155:00520000
#02158:00520000
#0245c:00000052
#02459:00000052
#02559:00620000
#02556:00620000
#0545b:0063
#05452:0000000000000033
#05455:0000000000000033
#05458:0063
#0555b:0043000000000000
#05558:0043000000000000
#05552:0000003300000000
#05555:0000003300000000
#05355:0053
#05352:0053
#05358:0000000000000013
#0535b:0000000000000013
#07252:13
#07255:13
#0725b:0043
#0735b:4343
#07352:00000033
#0745b:43
#07456:33
#07452:0033
#07552:3333
#0755b:00000043
#06754:00430000
#06752:00000044
#06758:3333
#0715b:53
#07158:53
#07154:00000023000000000000000000000000
#07157:00000023000000000000000000000000
#0705b:13
#07058:13
#0795b:13000043
#07958:0043
#04052:63
#04058:0000006300000000
#04152:00290000000000000000000000000000
#04552:13
#0455b:13
#04555:00000013
#04658:00000013
#0465b:13
#04755:00000013
#04752:13
#05052:13000013
#05055:13000013
#05058:0000001300000000
#0505b:0000001300000000
#0885c:00000000000000000000000000420000000000000000000000000000000000000000000000000000000000000000000000000000000000000000000000000000
#000320:12
#001320:0000000000220000
#002340:12
#003340:0000000000220000
#0043a0:12
#0053a0:0000000000220000
#0063c0:12
#0073c0:22
#007371:12
#008371:22
#008350:12
#008320:000000000000000000000000000000000000000000000000000000000000000000000000000000000000000000000000000000000000000000000000000000000000000000000000000000000000000000000000000000000000000000000000000000000000000000000000000000000000000000000000000000000000000000000000000000000000000000000000000000000000000000000000000000000000000000000000000000000000000000000000000000000000000000000000000000000000000000000000000000000000000000000000000000000000000000000000000000000000000000000000000000000000000000000000000000000000000000000000000000000000000000000000000000000000000000000000000000000000000000000000000000000000000000000000000000000000000000000000000000000000000000000000000000000000000000000000000000000000000000000000000000000000000000000000000000000000000000000000000000000000000000000000000000000000000000000000000000000000000000000000000000000000000000000000000000000000000000000000000000000000000000000000000000000000000000000000000000000000000000000000000000000000000000000000000000000000000000000000000000000000000000000000000000000000000000000000000000000000000000000000000000000000000000000000000000000000000000000000000000000000000000000000000000000000000000000000000000000000000000000000000000000000000000000000000000000000000000000000000000000000000000000000000000000000000000000000000000000000000000000000000000000000000000000000000000000000000000000000000000000000000000000000000000000000000000000000000000000000000000000000000000000000000000000000000000000000000000000000000000000000000000000000000000000000000000000000000000000000000000000000000000000000000000000000000000000000000000000000000000000000000000000000000000000000000000000000000000000000000000000000000000000000000000000000000000000000000000000000000000000000000000000000000000000000000000000000000000000000000000000000000000000000000000000000000000000000000000000000000000000000000000000000000000000000000000000000000000000000000000000000000000000000000000000000000000000000000000000000000000000000000000000000000000000000000000000000000000000000000000000000000000000000000000000000000000000000000000000000000000000000000000000000000000000000000000000000000000000000000000000000000000000000000000000000000000000000000000000000000000000000000000000000000000000000000000000000000000000000000000000000000000000000000000000000000000000000000000000000000000000000000000000000000000000000000000000000000000000000000000000000000000000000000000000000000000000000000000000000000000000000000000000000000000000000000000000000000000000000000000000000000000000000000000000000000000000000000000000000000000000000000000000000000000000000000000000000000000000000000000000000000000000000000000000000000000000000000000000000000000000000000000000000000000000000000000000000000000000000000000000000000000000000000000000000000000000000000000000000000000000000000000000000000000000000000000000000000000000000000000000000000000000000000000000000000000000000000000000000000000000000000000000000000000000000000000000000000000000000000000000000000000000000000000000000000000000000000000000000000000000000000000000000000000000000000000000000000000000000000000000000000000000000000000000000000000000000000000000000000000000000000000000000000000000000000000000000000000000000000000000000000000000000000000000000000000000000000000000000000000000000000000000000000000000000000000000000000000000000000000000000000000000000000000000000000000000000000000000000000000000000000000000000000000000000000000000000000000000000000000000000000000000000000000000000000000000000000000000000000000000000000000000000000000000000000000000000000000000000000000000000000000000000000000000000000000000000000000000000000000000000000000000000000000000000000000000000000000000000000000000000000000000000000000000000000000000000000000000000000000000000000000000000000000000000000000000000000000000000000000000058
#010350:22
#008392:12
#009362:58
#010392:22
#010321:1357
#011321:24
#0103b3:13
#010373:000000000000000000000000000000000000000000000000000000000000000000000000000000000000000000000000000000000000000000000000000000000000000000000000000000000000000000000000000000000000000000000000000000000000000000000000000000000000000000000000000000000000000000000000000000000000000000000000000000000000000000000000000000000000000000000000000000000000000000000000000000000000000000000000000000000000000000000000000000000000000000000000000000000000000000000000000000000000000000000000000000000000000000000000000000000000000000000000000000000000000000000000000000000000000000000000000000000000000000000000000000000000000000000000000000000000000000000000000000000000000000000000000000000000000000000000000000000000000000000000000000000000000000000000000000000000000000000000000000000000000000000000000000000000000000000000000000000000000000000000000000000000000000000000000000000000000000000000000000000000000000000000000000000000000000000000000000000000000000000000000000000000000000000000000000000000000000000000000000000000000000000000000000000000000000000000000000000000000000000000000000000000000000000000000000000000000000000000000000000000000000000000000000000000000000000000000000000000000000000000000000000000000000000000000000000000000000000000000000000000000000000000000000000000000000000000000000000000000000000000000000000000000000000000000000000000000000000000000000000000000000000000000000000000000000000000000000000000000000000000000000000000000000000000000000000000000000000000000000000000000000000000000000000000000000000000000000000000000000000000000000000000000000000000000000000000000000000000000000000000000000000000000000000000000000000000000000000000000000000000000000000000000000000000000000000000000000000000000000000000000000000000000000000000000000000000000000000000000000000000000000000000000000000000000000000000000000000000000000000000000000000000000000000000000000000000000000000000000000000057000000000000000000000000000000000000000000000000000000000000000000000000000000000000000000000000000000000000000000000000000000000000000000000000000000000000000000000000000000000000000000000000000000000000000000000000000000000000000000000000000000000000000000000000000000000000000000000000000000000000000000000000000000000000000000000000000000000000000000000000000000000000000000000000000000000000000000000000000000000000000000000000000000000000000000000000000000000000000000000000000000000000000000000000000000000000000000000000000000000000000000000000000000000000000000000000000000000000000000000000000000000000000000000000000000000000000000000000000000000000000000000000000000000000000000000000000000000000000000000000000000000000000000000000000000000000000000000000000000000000000000000000000000000000000000000000000000000000000000000000000000000000000000000000000000000000000000000000000000000000000000000000000000000000000000000000000000000000000000000000000000000000000000000000000000000000000000000000000000000000000000000000000000000000000000000000000000000000000000000000000000000000000000000000000000000000000000000000000000000000000000000000000000000000000000000000000000000000000000000000000000000000000000000000000000000000000000000000000000000000000000000000000000000000000000000000000000000000000000000000000000000000000000000000000000000000000000000000000000000000000000000000000000000000000000000000000000000000000000000000000000000000000000000000000000000000000000000000000000000000000000000000000000000000000000000000000000000000000000000000000000000000000000000000000000000000000000000000000000000000000000000000000000000000000000000000000000000000000000000000000000000000000000000000000000000000000000000000000000000000000000000000000000000000000000000000000000000000000000000000000000000000000000000000000000000000000000000000000000000000000000000000000000000000000000000000000000000000000000000000
#0113a3:24
#013323:000000000000000000000000000000000000000000000000000000000000000000000000000000000000000000000000000000000000000000000000000000000000000000000000000000000000000000000000145354535453545354535453
#014323:545354535453545354535453240000000000000000000000000000000000000000000000000000000000000000000000000000000000000000000000000000000000000000000000000000000000000000000000000000000000000000000000
#0133a1:000000000000000000000000000000000000000000000000000000000000000000000000000000000000145454545454
#0133b1:000000000000000000000000000000000000000000000000000000000000000000000000000000000000000000000000000000000000000000000000000000000000000000000000000000000000000000000000005300530053005300530053
#0143a1:545454545454240000000000000000000000000000000000000000000000000000000000000000000000000000000000
#0143b1:005300530053005300530053000000000000000000000000000000000000000000000000000000000000000000000000000000000000000000000000000000000000000000000000000000000000000000000000000000000000000000000000
#014360:000000000000145454545454240000000000000000000000000000000000000000000000000000000000000000000000
#014370:000000000000000000000000005200520052005200520052000000000000000000000000000000000000000000000000000000000000000000000000000000000000000000000000000000000000000000000000000000000000000000000000
#014321:000000000000000000000000145454545454240000000000000000000000000000000000000000000000000000000000
#014331:000000000000000000000000000000000000000000000000005200520052005200520052000000000000000000000000000000000000000000000000000000000000000000000000000000000000000000000000000000000000000000000000
#014360:000000000000000000000000000000000000145454545454240000000000000000000000000000000000000000000000
#014370:000000000000000000000000000000000000000000000000000000000000000000000000005200520052005200520052000000000000000000000000000000000000000000000000000000000000000000000000000000000000000000000000
#0143a1:000000000000000000000000000000000000000000000000145454545454545454545454240000000000000000000000
#0143b1:000000000000000000000000000000000000000000000000000000000000000000000000000000000000000000000000005300530053005300530053005300530053005300530053000000000000000000000000000000000000000000000000
#014323:000000000000000000000000000000000000000000000000000000000000000000000000000000000000000000000000145354535453545354535453545354535453545354535453240000000000000000000000000000000000000000000000
#014361:000000000000000000000000000000000000000000000000000000000000000000000000000000000000000000000000000000000000000000000000000000000000000000000000000000000000000000000000145354535453545354535453
#015361:545354535453545354535453240000000000000000000000000000000000000000000000000000000000000000000000000000000000000000000000000000000000000000000000000000000000000000000000000000000000000000000000
#016351:1300000000000023
#016323:0000000000000013
#018323:23
#018351:1300000000000023
#020351:00000012
#021381:22
#020323:00000012
#021353:32320000
#021323:0022
#021381:00120000
#021351:0022
#022341:12220000
#022331:0000001200220000
#022321:00000012
#023321:00220000
#024391:00000012
#025361:22
#0243c3:00000012
#025393:32320000
#0253c3:0022
#025361:00120000
#025391:0022
#0263a1:12220000
#0263b1:0000001200220000
#0263c1:00000012
#0273c1:00220000
#0273b1:00001323
#027383:00000013
#028383:23
#028351:13230000
#028321:00001323
#0293b1:13230000
#029381:00001323
#030351:13230000
#030321:00001323
#0313b1:13230000
#031381:00001323
#032321:13230000
#032351:00001323
#033381:13230000
#0333b1:00001323
#034321:13230000
#034351:00001323
#0353b1:13230000
#0363b1:13
#036351:0000003300000000
#037351:00590000000000000000000023000000
#0383c1:0012
#0393c1:0000000000220000
#039383:0000001200220000
#040323:13
#040383:0000003300000000
#041323:00590000000000000000000000000000
#041383:00000023
#0423a3:0000000012000022
#0433b3:13000053
#043393:0000000000000052
#0443b3:23
#043381:00130053
#043371:000000000000000000000000000000000000000000000000000000000000000000000000000000000000000000000000000000000000000000000000000000000000000000000000000000000000000000000000000000000000000000000000000000000000000000000000000000000000000000000000000000000000000000000000000000000000000000000000000000000000000000000000000000000000000000000000000000000000000000000000000000000000000000000000000000000000000000000000000000000000000000000000000000000000000000000000000000000000000000000000000000000000000000000000000000000000000000000000000000000000000000000000000000000000000000000000000000000000000000000000000000000000000000000000000000000000000000000000000000000000000000000000000000000000000000000000000000000000000000000000000000000000000000000000000000000000000000000000000000000000000000000000000000000000000000000000000000000000000000000000000000000000000000000000000000000000000000000000000000000000000000000000000000000000000000000000000000000000000000000000000000000000000000000000000000000000000000000000000000000000000000000000000000000000000000000000000000000000000000000000000000000000000000000000000000000000000000000000000000000000000000000000000000000000000000000000000000000000000000000000000000000000000000000000000000000000000000000000000000000000000000000000000000000000000000000000000000000000000000000000000000000000000000000000000000000000000000000000000000000000000000000000000000000000000000000000000000000000000000000000000000000000000000000000000000000000000000000000000000000000000000000000000000000000000000000000000000000000000000000000000000000000000000000000000000000000000000000000000000000000000000000000000000000000000000000000000000000000000000000052000000000000000000000000000000000000000000000000000000000000000000000000000000000000000000000000000000000000000000000000000000000000000000000000000000000000000000000000000000000000000000000000000000000000000000000000000000000000000000000000
#044381:23
#043350:00001353
#043370:0000000000000052
#044350:23
#043322:00000013
#043352:0000000000000052
#044322:23
#046321:13
#047321:23
#0473b0:13
#0483b0:23
#049350:0013
#050350:23
#049321:0013
#050321:23
#0513b1:13
#0523b1:33
#052321:00000000000000000000000000000000000000000000000000000000000000000000000000000000000000000000000000000000000000000000000000000000000000000000000000000000000000000000000000000000000000000000000000000000000000000000000000000000000000000000000000000000000000000000000000000000000000000000000000000000000000000000000000000000000000000000000000000000000000000000000000000000000000000000000000000000000000000000000000000000000000000000000000000000000000000000000000240000000000000000000000000000000000000000000000000000000000000000000000000000000000000000000000000000000000000000000000000000000000000000000000000000000000000000000000000000000000000000000000000000000000000000000000000000000000000000000000000000000000000000000000000000000000000000000000000000000000000000000000000000000000000000000000000000000000000000000000000000000000000000000000000000000000000000000000000000000000000000000000000000000000000000000000000000000000000000000000000000000000000000000000000000000000000000000000000000000000000000000000000000000000000000000000000000000000000000000000000000000000000000000000000000000000000000000000000000000000000000000000000000000000000000000000000000000000000000000000000000000000000000000000000000000000000000000000000000000000000000000000000000000000000000000000000000
#051380:00130000
#052380:33
#052320:00000000000000000000000000000000000000000000002400000000000000000000000000000000000000000000000000000000000000000000000000000000
#051352:0013
#052352:23
#051323:00000013
#052323:23
#052380:0000000000000013
#053380:00230000
#0523b1:0000000000000013
#0533b1:00230000
#053321:0013
#053351:00000023
#053350:0013
#053380:00000023
#053350:0000000000000013
#054350:00230000
#053321:0000000000000013
#054321:00230000
#0543b1:0013
#054381:00000023
#054380:0013
#054350:00000023
#056380:13
#0563b0:00230000
#056321:13000053
#056351:00535300
#057321:33000053
#057351:00535300
#058321:23
#0563b0:0013
#056380:00000023
#057350:13
#057380:00230000
#057383:13000053
#0573b3:00535300
#058383:23
#057380:0013
#057350:00000023
#058321:0000000000000013
#059351:0023000000000000
#0583b3:0000000000000013
#0593b3:0023000000000000
#058350:0000000000000013
#059380:0023000000000000
#059323:0000001300230000
#0593b0:0000001300000000
#059380:0000000000230000
#059381:0000001300000000
#059351:0000000000230000
#0603b0:0013002300000000
#060320:0000000000130023
#061380:0013002300000000
#0613b1:0013002300000000
#061351:0000000000130023
#061320:0000000000130023
#0623b0:0013002300000000
#062381:0013002300000000
#062321:0000000000130023
#062350:0000000000130023
#063360:14
#064370:0000000000000000000000003200005200000000000000000000000000000000
#065320:56
#065360:0022
#063321:00130000
#063371:0052
#064371:00000022000000000000000000000000
#0633b3:0013
#063373:00000052
#064373:00000000000000000000000000000000000000000000000000000000000000000052000000000000000000000000000000000000000000000000000000000000
#064393:000000000000000000000000000000000000000000000000000000000000000000000000000000000000000000000000000000000000000000000000000000000000000000000000000000000000000000000000000000000000000000000000000000000000000000000000000000000000000000000000000000000000000000000000000000000000000000000000000000000000000000000000000000000000000000000000000000000000000000000000000000000000000000000000000000000000000000000000000000000000000000000000000000000000000000000000000000000000000000000000000000000000000000000000000000000000000000000000000000000000000000000000000000000000000000000000000000000000000000000000000000000000000000000000000000000000000000000000000000000000000000000000000000000000000000000000000000000000000000000000000000000000000000000000000000000000000000000054
#065383:000000000000000000000000000000000000000000000000000000000000000000000000000000000000000000000000000000000000000000000000000000000000000000000000000000000000000000000000000000000000000000000000000000000000000000000000000000000000000000000000000000000000000000000000000000000000000000000000000000000000000000000000000000000000000000000000000000000000000000000000000000000000000000000000000000000000000000000000000000000000000000000000000000000000000000000000000000000000000000000000000000000000000000000000000000000000000000000000000000000000000000000000000000000000000000000000000000000000000000000000000000000000000000000000000000000000000000000000000000000000000000000000000000000000000000000000000000000000000000000000000000000000000000000000000000000000000000000000000000000000000000000000000000000000000000000000000000000000000000000000000000000000000000000000000000000000000000000000000000000000000000000000000000000000000000000000000000000000000000000022000000000000000000000000000000000000000000000000000000000000000000000000000000000000000000000000000000000000000000000000000000000000000000000000000000000000000000000000000000000000000000000000000000000000000000000000000000000000000000000000000000000000000000000000000000000000000000000000000000000000000000000000000000000000000000000000000000000000000000000000000000000000000000000000000000000000000000000000000000000000000000000000000000000000000000000000000000000000000000000000000000000000000000000000000000000000000000000000000000000000000000000000000000000000000000000000000000000000000000000000000000000000000000000000000000000000000000000000000000000000000000000000000000000000000000000000000000000000000000000000000000000000000000000000000000000000000000000000000000000000000000000000000000000000000000000000000000000000000000000000000000000000000000000000000000000000000000000000000000000000000000000000000000000000000000000000000000000000000000000000
#063322:00000013
#064372:52000000000000000000000000000000000000000000000000000000000000520000000000000000000000000000000000000000000000000000000000000000
#064332:000000000000000000000000000000000000000000000000000000000000000000000000000000000000000000000000000000000000000000000000000000000000000000000000000000000000000000000000000000000000000000000000000000000000000000000000000000000000000000000000000000000000000000000000000000000000000000000000000000000000000000000000000000000000000000000000000000000000000000000000000000000000000000000000000000000000000000000000000000000000000000000000000000000000000000000000000000000000000000000000000000000000000000000000000000000000000000000000000000000000000000000000000000000000000000000000000000000000000000000000000000000000000000000000000000000000000000000000000000000000000000000000000000000000000000000000000000000000000000000000000000000000000000000000000000000000000000000054
#065362:000000000000000000000000000000000000000000000000000000000000000000000000000000000000000000000000000000000000000000000000000000000000000000000000000000000000000000000000000000000000000000000000000000000000000000000000000000000000000000000000000000000000000000000000000000000000000000000000000000000000000000000000000000000000000000000000000000000000000000000000000000000000000000000000000000000000000000000000000000000000000000000000000000000000000000000000000000000000000000000000000000000000000000000000000000000000000000000000000000000000000000000000000000000000000000000000000000000000000000000000000000000000000000000000000000000000000000000000000000000000000000000000000000000000000000000000000000000000000000000000000000000000000000000000000000000000000000000000000000000000000000000000000000000000000000000000000000000000000000000000000000000000000000000000000000000000000000000000000000000000000000000000000000000000000000000000000000000000000000000022000000000000000000000000000000000000000000000000000000000000000000000000000000000000000000000000000000000000000000000000000000000000000000000000000000000000000000000000000000000000000000000000000000000000000000000000000000000000000000000000000000000000000000000000000000000000000000000000000000000000000000000000000000000000000000000000000000000000000000000000000000000000000000000000000000000000000000000000000000000000000000000000000000000000000000000000000000000000000000000000000000000000000000000000000000000000000000000000000000000000000000000000000000000000000000000000000000000000000000000000000000000000000000000000000000000000000000000000000000000000000000000000000000000000000000000000000000000000000000000000000000000000000000000000000000000000000000000000000000000000000000000000000000000000000000000000000000000000000000000000000000000000000000000000000000000000000000000000000000000000000000000000000000000000000000000000000000000000000000000000
#0643b4:13
#064374:00000000000000000000000000000000005200000000000000000000000000003200000000000000000000000000000000000000000000000000000000000000
#065384:5622
#0673c4:12
#0683c4:22
#067340:0013000000000000230000000000000000000000000000000000000000000000
#067380:0000000000000000001300000000000023000000000000000000000000000000
#067320:0000000000000000000000000000000000140000000000002400000000000000
#067380:0000000000000000000000000000000000000000000000000014000000000000
#068380:24
#068320:00132300
#068374:0013
#0683b4:00000033
#0693b4:23
#069360:13
#069320:00332300
#0693b4:0013
#069374:0000000000230000
#069373:0013
#0693b3:0000000000230000
#069324:00000013
#069364:0000000000000023
#069363:00000013
#069323:0000000000000023
#070323:00130000
#071323:23
#0703b4:00130000
#0713b4:3300002300000000
#071374:00000053000000000000000000000000
#071380:1300002300000000
#071340:00000053000000000000000000000000
#072354:0013
#073354:23
#073320:1323
#074380:0013
#075380:23
#0753b4:1323
#076384:13
#078384:23
#078350:13
#080350:23
#0823b0:13
#082380:0000002300000000
#082384:13
#082354:0000002300000000
#084324:13
#086324:22
#086354:00000000000000000000001200000000
#088354:00220000000000000000000000000000
#086370:000000000000000000000000000000000000000000000000000000000000000000000000000000000000000000000012
#088370:00220000000000000000000000000000
#087393:0000001200000000
#088393:00220000000000000000000000000000
#0009a0:0000000000120000
#000960:00000022
#0029c0:0000000000120000
#002980:00000022
#004970:0000000000120000
#004930:00000022
#006970:0000000000120000
#006930:00000022
#038980:0000000000120000
#038940:00000022
#042960:0000000000120000
#042920:00000022
#0449b0:00000000000000001323000000000000
#045920:00000000000000001323000000000000
#0469b0:00000000000000001323000000000000
#047920:00000000000000001323000000000000
#0849a0:0000000000120000
#084960:00000022
