This file was generated by Ched 2.7.0.0.
#TITLE ""
#ARTIST ""
#DESIGNER ""
#DIFFICULTY 0
#PLAYLEVEL
#SONGID ""
#WAVE ""
#WAVEOFFSET 0
#JACKET ""
#REQUEST "ticks_per_beat 480"
#00002: 4
#BPM01: 120
#BPM02: 96
#00008: 01
#01108: 01
#00908: 02
#TIL00: "10'0:0.1, 10'1230:0.15, 10'1260:0.2, 10'1290:0.25, 10'1320:0.3, 10'1350:0.35, 10'1380:0.4, 10'1410:0.45, 10'1440:0.5, 10'1470:0.55, 10'1500:0.6, 10'1530:0.65, 10'1560:0.7, 10'1590:0.75, 10'1620:0.8, 10'1650:0.85, 10'1680:0.9, 10'1710:0.95, 10'1740:1"
#VOLUME: ""
#HISPEED 00
#MEASUREHS 00
#0111b:13001313
#01112:13121313
#01118:00000012120000001300000000001200
#01115:00000000120013000000001300000000
#01116:54000000000000000000000000000012
#00116:000000000000000000000000000000120012000000000000
#00118:230000000000000000000000230000001200000000130000
#0011b:23002313
#00112:00000000230000000000000000130000
#00115:00000000230000000000000000000013
#0061c:00000000221200000000000022000000
#00612:00000000000012120000000000120000
#00616:00001212000000000000121200000000
#00618:22120000000000002212000000000012
#00615:0000000000000012
#00610:41
#01918:00001200000000120012000000000000
#0191c:00000000121200000000000012001200
#0191b:0000000012120000
#0191a:00000000000000000000000000120000
#01912:22000022000022000000002200002200
#01915:22000022000022000000002200002200
#01910:41
#02012:12120000000000120000000012001200
#02014:00001200001200001200000000120000
#02016:0000120000120000
#0201c:00000022000022000022002200002200
#02019:00000022000022000022002200002200
#02118:12001200000000120012000012120000
#0211a:00120000001200000000000000000000
#0211c:00000000120000000000000000000012
#0211b:0000000012120000
#02112:00000022000022000000002200002200
#02115:00000022000022000000002200002200
#0431c:1212120000000000
#04318:00120012000013001300000013000000
#04315:0000001300000000
#0431b:0000000000005313
#04312:00000023000023000000002300002300
#0441b:1300000000531300
#04419:0013001300000000
#04417:00130000
#04418:1300000000531313
#04416:0013001300000000
#04414:00130000
#04415:0000000000000013
#04412:00000023000023000023002300002300
#05018:13000000130013000013001300120012
#05016:0000000000001212
#05012:0013002313130000
#0501b:00000023000013001300001300000000
#05015:1300000013000000130000000000000000000013000000000000000000000000
#01315:0013000000000000
#01316:0000001300000000
#01312:1313131413151316
#01317:0000000000130000
#01318:0000000000000013
#0131b:13131313
#01310:41
#01815:0000001312121212
#01818:000000120000000000000000000000000000130000000000000000000000120000001200000000000000120000001200
#01816:0012240000000000
#01812:13241212
#0181b:130000000000001200001200
#0181a:00240000
#03518:00000000000000000000130013000013
#0351b:2300000000130000
#03515:0000000000000000000000000000000000000000000000130000000013000000
#03512:23000000160000002600001300130000
#0351c:00001212000000000000000000000000
#03519:00001212001212000000000000000000
#03516:00000000001212000000000000000000
#0351f:21
#03510:0041
#03618:00000000000000000013000013001300
#0361b:23000000000000000000130000000013
#03612:230000001c0000002600001300000000
#03615:0000000000000000000000000000000000000000000000130000130000000000
#0361c:00001212000000000000000000000000
#03619:00001212001212000000000000000000
#03616:00000000001212000000000000000000
#03812:23130000000000000000000023130000
#03815:00001300000000130000001300001300
#03818:0000000000001300000000001300001300000000130000000000000023000000
#0381b:00000000231300002313000000000000
#03715:13000013000013001300130013001300
#0371b:00001300130000000013000000000013
#03712:1300001313130013
#03718:00001300130000130000001300130000
#00218:00130000001313001300130000001300
#00215:00001300000000130000001300130000
#0021b:23000013001313000000130000000000
#00212:00000013000000000000000000130000
#00515:00130000001313001300000000000000
#00519:0000000000130000
#00516:00000000000000000000001300000000
#0051a:00000000000000000000000000130000
#00517:0000000000000013
#00512:23000013001313000013000000000000
#00513:00000013
#00514:00000000000000000000000000000013
#00518:00001300000000130000000000000000
#0051b:00000013000000000000000000000000
#0071b:00000000000013130000000000130000
#00718:00001313000000000000131300001300
#00715:23130000231300002313000023000013
#00712:23130000231300002313000023000000
#00818:23130000231313132313000023001300
#00815:00001313000013130000131300130000
#00812:00001313000000000000131300130000
#0081b:23130000231300002313000023000013
#00912:14140000
#00916:0014000000140000
#0091a:00001414
#01212:1200131313001300
#01216:00120012000012000000000000001414
#01215:00000000000000000000001300000000
#0121b:13131313
#01218:0012131200000000
#00315:00130000001313001300130000001300
#00318:00001300000000130000001300130000
#00312:23000013001313000000130000000000
#0031b:00000013000000000000000000130000
#00418:00130000001313001300130000001300
#00415:00001300000000130000001300130000
#0041b:23000013001313000000130000000000
#00412:00000013000000000000000000130000
#01412:1317131813191300
#01419:0013000000000000
#0141a:0000001300000000
#0141b:1300130013131300
#01415:0000000000000023
#01418:00000000000000000000000000000023
#02216:1212000000000000
#02214:00120000001200000000000000000000
#02212:0000120012002626
#02215:00000000000000120012000000000000
#02218:00000000000000000000120000260000
#0221b:00000000000000000000001200000000
#02219:00000022000022000000000000000000
#0221c:00000022000022000000000000000000
#0231c:12000000120000000012000000000000
#02319:12000000000000121200000000000000
#02318:0012000000001212
#0231a:00000000001200000000120000120000
#02317:0000000000000000000000000000001200000000000000000000000000000000
#02312:00000022000022000000002200002200
#02315:00000022000022000000002200002200
#02615:00120000001200120023002300230000
#02618:0012120023232323
#0261b:00000012000000002300230023002300
#02612:12000000000012000023002300230000
#0271b:1313001300000000
#02719:00000013000000000000000000000000
#02717:00130000
#02718:00000053
#02417:0000000000000000000000000000001200000000000000000000000000000000
#02412:1212000000000052
#02416:00000000001200000000000000000012
#02415:00000000000000121200120000000000
#02414:00120000120000000000000000000000
#0241c:00000022000022000022002200002200
#02419:00000022000022000022002200002200
#02518:12001200000000121200000012000012
#0251a:00120000120000000000120000120000
#0251c:00000000001200000012000000000000
#02516:0000000000000000000000000000001200000000000000000000000000000000
#02512:00000022000022000000002200002200
#02515:00000022000022000000002200002200
#02510:41
#02812:5313000013001300
#02815:5300000053130013
#02918:5312001200000000
#0291b:5312001213000000
#0291c:00120000
#02919:0000120000130013
#02917:00000013
#0291f:11
#03016:00001200000012000000535300000000
#03013:0000000012000000000000001200000000530000000000000053005300000053
#03012:53000000120000005300000000530000
#03015:5300000000000000120000000000000000000053000000530000000000530000
#03014:00000000000000000053000053005353
#03017:0000000000000000000000000000000000000000005300000000000000000000
#03318:00001313000000000000000056000000
#03315:00130000
#03312:1300001300140000
#03316:0000000000140014
#0331a:0000000000000014
#0331b:1300001300000000
#0341b:1300001300005313
#03418:00130000000000000053000000130013
#03415:00001300000000000053000000130013
#03412:5600005300005313
#03915:00001212001212000000130013000013
#03912:23001212000000000000130000000000
#03918:0000000000000000160012001200000026000000000000130000000013000000
#0391b:23000000000000000000001300130000
#04015:00001212001212000013000013001300
#04012:230012121c0000000000130000000013
#0401b:23000000000000000000001300000000
#04018:0000000000000000000012001200000026000000000000130000130000000000
#0421b:23130000000000000000000023130000
#04218:00001300000000130000001300001300
#04215:0000000000001300000000001300001300000000130000000000000023000000
#04212:00000000231300002313000000000000
#04118:13000013000013001300130013001300
#04112:00001300130000000013000000000013
#0411b:1300001313130013
#04115:00001300130000130000001300130000
#04512:1212120000005313
#04516:00120012000000000000000000000000
#04518:0000001300000000
#04515:0000001313001300
#0451b:00000023000023000000002300002300
#04510:41
#04718:1212120013001300
#0471c:00120012000000000000000000000000
#04712:00000023000013000000002300001300
#04715:0000001313000000
#0471b:0000002300005323
#04818:1313130013131313
#0481b:0013002313001323
#04812:00000023000013000023002300000000
#04815:1300131300130013
#0491b:00000023000013000000002300001300
#04918:0000001313000000
#04916:1212120000000000
#04912:00120012000023000000000053002300
#04915:00001313
#03212:001c001c001c0000
#03218:00005226
#0321b:5352
#03213:00520052
#03216:00520052
#04612:1300000000531300
#04614:0013001300000000
#04616:00130000
#04615:1300000000531313
#04617:0013001300000000
#04619:00130000
#04618:0000000000000013
#0461b:00000023000023000023002300002300
#01512:13001313
#0151b:13001313
#01518:00000000000013000000001300000012
#01516:00000012120000000000000000001200
#01515:0013
#0151c:00120000
#01519:00120000
#01718:0013000000000016
#01717:0000001300000000
#0171b:1313130013001300
#01716:0000000000130000
#01719:0000000000150000
#01715:0000000000000013
#0171a:0000001400000000
#01712:13131313
#0161c:12
#01618:00120012000012000000001300000000
#0161b:0000131313001300
#01616:00001200000012000000000000001414
#01612:13131313
#01615:00130000
#03112:5323000000530000
#03115:00230053
#03118:5300002300000053
#0311b:0000005300000000
#00018:23
#0001b:23
#00015:0023
#00012:0023
#01016:000000000000000000000000000000000000000000000000000000000000000000000000000000000000000000000000000000000000000000000000000000000000000000000000000000000000000000000000000000000000000000000000000000000000000000000000000000000000000000000000000000000000000000000000000000000000000000000000000000000000000000000000000000000000000000000000000000000000000000000000000000000000000000000074
#01355:0013000000000000
#01356:0000001300000000
#01357:0000000000130000
#01358:0000000000000013
#0375b:0013000000000000
#03752:0000001300130013
#03552:0016
#03858:0000000000000013
#03652:0016
#04352:00000013000013000000001300001300
#04452:00000013000013000013001300001300
#02252:0000000000000016
#00952:64640000
#00956:0064000000640000
#0095a:00006464
#01459:0013000000000000
#0145a:0000001300000000
#0145b:0000000000130000
#0185a:00140000
#01852:00140000
#03455:0053000000000000
#04152:0013000000000000
#0415b:0000001300130013
#03958:0016
#04255:0000000000000013
#04058:0016
#0455b:00000013000013000000001300001300
#04752:00000013000000000000001300000000
#0475b:0000001300000013
#04852:00000013000000000013001300000000
#0485b:0000001300000013
#04952:0000001300000013
#0495b:00000013000000000000001300000000
#0505b:00000013000000000000000000000000
#05052:0000001300000000
#00258:0000000013000013
#00255:00000000000000000000001300000000
#00355:0000000013000013
#00358:00000000000000000000001300000000
#00458:0000000013000013
#00455:00000000000000000000001300000000
#0115b:0013
#03258:00000016
#0465b:00000013000013000013001300001300
#01758:0013000000000000
#01757:0000001300000000
#01756:0000000000130000
#01755:0000000000000013
#01552:0013
#009320:14340000
#009360:0034000054000000
#010360:000000000000000000000000000000000000000000000000000000000000000000000000000000000000000000000000000000000000000000000000000000000000000000000000000000000000000000000000000000000000000000000000000000000000000000000000000000000000000000000000000000000000000000000000000000000000000000000000000000000000000000000000000000000000000000000000000000000000000000000000000000000000000000000024
#0093a1:00001434
#009361:0000000000340000
#010361:54
#011361:24
#024321:0000000000001222
#027321:1353000053530000
#027331:00000053000000530000005300000053
#027341:000000000000000000000000000000000000000000000000000000000000000000000000000000000000000000000000000000000000000000000000000000000000000000000000000000000000000000000000000000000000000000000000000000000000000000000000000000000000000000000000000000000000000000000000000000000000000000000000000000000000000000000000000000000000000000000000000000000000000000000000000000000000000000000000000000000000000000000000000000000000000000000000000000000000000000000000000000000000000000000053000000000000000000000000000000000000000000000000000000000000000000000000000000000000000000000000000000000000000000000000000000000000000000000000000000000000000000000000000000000000000000000000000000000000000000000000000000000000000000000053000000000000000000000000000000000000000000000000000000000000000000000000000000000000000000000000000000000000000000000000000000000000000000000000000000000000000000000000000000000000000000000000000000000000000000000000000000000000000000000000000000000000000000000000000000000000000000000000000000000000000000000000000000000000000000000000000000000000000000000000000000000000000000000000000000000000000000000000000000000000000000000000000000000000000000000000000000000000000000000000000000000000000000000000000000000000000000000000000000000000000000000000000000000000000000000000000000000000000000000000000000000000000000000000000000000000000000000000000000000000000000000000000000000000000000000000000000000000000000000053000000000000000000000000000000000000000000000000000000000000000000000000000000000000000000000000000000000000000000000000000000000000000000000000000000000000000000000000000000000000000000000000000000000000000000000000000000000000000000000053000000000000000000000000000000000000000000000000000000000000000000000000000000000000000000000000000000000000000000000000000000000000000000000000000000000000000000000000000000000000000000000000000000000000000000000000000000000000000000000000
#028321:23
#027350:1353000053530000
#027340:000000000000000000000000000000000000000000000000000000000000000000000000000000000000000000000000000000000000000000000000000000000000000000000000000000000000000000000000000000000000000000000000000000000000000000000000000000000000000000000000000000000000000000000000000000000000000000000000000000000000000000000000000000000000000000000000000000000000000000000053000000000000000000000000000000000000000000000000000000000000000000000000000000000000000000000000000000000000000000000000000000000000000000000000000000000000000000000000000000000000000000000000000000000000000000000000000000000000000000000000000000000000000000000000000000000000000000000000000000000000000000000000000000000000000000000000000000000000000000000000000000000000000000000000000000000000000000000000000000000000000000000000000000000000000000000000000000000000000000000053000000000000000000000000000000000000000000000000000000000000000000000000000000000000000000000000000000000000000000000000000000000000000000000000000000000000000000000000000000000000000000000000000000000000000000000000000000000000000000000000000000000000000000000000000000000000000000000000000000000000000000000000000000000000000000000000000000000000000000000000000000000000000000000000000000000000000000000000000000000000000000000000000000000000000000000000000000000000000000000053000000000000000000000000000000000000000000000000000000000000000000000000000000000000000000000000000000000000000000000000000000000000000000000000000000000000000000000000000000000000000000000000000000000000000000000000000000000000000000000000000000000000000000000000000000000000000000000000000000000000000000000000000000000000000000000000000000000000000000000000000000000000000000000000000000000000000000000000000000000000000000000000000000000000000000000000000000000000000000000053000000000000000000000000000000000000000000000000000000000000000000000000000000000000000000000000000000000000000000000000
#027330:0000535300005353
#028350:23
#027382:00001323
#0273b3:00000013
#0283b3:3353000053530000
#0283a3:00000053000000530000005300000053
#028393:000000000000000000000000000000000000000000000000000000000000000000000000000000000000000000000000000000000000000000000000000000000000000000000000000000000000000000000000000000000000000000000000000000000000000000000000000000000000000000000000000000000000000000000000000000000000000000000000000000000000000000000000000000000000000000000000000000000000000000000000000000000000000000000000000000000000000000000000000000000000000000000000000000000000000000000000000000000000000000000053000000000000000000000000000000000000000000000000000000000000000000000000000000000000000000000000000000000000000000000000000000000000000000000000000000000000000000000000000000000000000000000000000000000000000000000000000000000000000000000053000000000000000000000000000000000000000000000000000000000000000000000000000000000000000000000000000000000000000000000000000000000000000000000000000000000000000000000000000000000000000000000000000000000000000000000000000000000000000000000000000000000000000000000000000000000000000000000000000000000000000000000000000000000000000000000000000000000000000000000000000000000000000000000000000000000000000000000000000000000000000000000000000000000000000000000000000000000000000000000000000000000000000000000000000000000000000000000000000000000000000000000000000000000000000000000000000000000000000000000000000000000000000000000000000000000000000000000000000000000000000000000000000000000000000000000000000000000000000000000053000000000000000000000000000000000000000000000000000000000000000000000000000000000000000000000000000000000000000000000000000000000000000000000000000000000000000000000000000000000000000000000000000000000000000000000000000000000000000000000053000000000000000000000000000000000000000000000000000000000000000000000000000000000000000000000000000000000000000000000000000000000000000000000000000000000000000000000000000000000000000000000000000000000000000000000000000000000000000000000000
#0293b3:23
#028382:1353000053530000
#028392:000000000000000000000000000000000000000000000000000000000000000000000000000000000000000000000000000000000000000000000000000000000000000000000000000000000000000000000000000000000000000000000000000000000000000000000000000000000000000000000000000000000000000000000000000000000000000000000000000000000000000000000000000000000000000000000000000000000000000000000053000000000000000000000000000000000000000000000000000000000000000000000000000000000000000000000000000000000000000000000000000000000000000000000000000000000000000000000000000000000000000000000000000000000000000000000000000000000000000000000000000000000000000000000000000000000000000000000000000000000000000000000000000000000000000000000000000000000000000000000000000000000000000000000000000000000000000000000000000000000000000000000000000000000000000000000000000000000000000000000053000000000000000000000000000000000000000000000000000000000000000000000000000000000000000000000000000000000000000000000000000000000000000000000000000000000000000000000000000000000000000000000000000000000000000000000000000000000000000000000000000000000000000000000000000000000000000000000000000000000000000000000000000000000000000000000000000000000000000000000000000000000000000000000000000000000000000000000000000000000000000000000000000000000000000000000000000000000000000000000053000000000000000000000000000000000000000000000000000000000000000000000000000000000000000000000000000000000000000000000000000000000000000000000000000000000000000000000000000000000000000000000000000000000000000000000000000000000000000000000000000000000000000000000000000000000000000000000000000000000000000000000000000000000000000000000000000000000000000000000000000000000000000000000000000000000000000000000000000000000000000000000000000000000000000000000000000000000000000000000053000000000000000000000000000000000000000000000000000000000000000000000000000000000000000000000000000000000000000000000000
#0283a2:0000535300005353
#029382:23
#028351:00132300
#029321:1353000053530000
#029331:00000053000000530000005300000053
#029341:000000000000000000000000000000000000000000000000000000000000000000000000000000000000000000000000000000000000000000000000000000000000000000000000000000000000000000000000000000000000000000000000000000000000000000000000000000000000000000000000000000000000000000000000000000000000000000000000000000000000000000000000000000000000000000000000000000000000000000000000000000000000000000000000000000000000000000000000000000000000000000000000000000000000000000000000000000000000000000000053000000000000000000000000000000000000000000000000000000000000000000000000000000000000000000000000000000000000000000000000000000000000000000000000000000000000000000000000000000000000000000000000000000000000000000000000000000000000000000000053000000000000000000000000000000000000000000000000000000000000000000000000000000000000000000000000000000000000000000000000000000000000000000000000000000000000000000000000000000000000000000000000000000000000000000000000000000000000000000000000000000000000000000000000000000000000000000000000000000000000000000000000000000000000000000000000000000000000000000000000000000000000000000000000000000000000000000000000000000000000000000000000000000000000000000000000000000000000000000000000000000000000000000000000000000000000000000000000000000000000000000000000000000000000000000000000000000000000000000000000000000000000000000000000000000000000000000000000000000000000000000000000000000000000000000000000000000000000000000000053000000000000000000000000000000000000000000000000000000000000000000000000000000000000000000000000000000000000000000000000000000000000000000000000000000000000000000000000000000000000000000000000000000000000000000000000000000000000000000000053000000000000000000000000000000000000000000000000000000000000000000000000000000000000000000000000000000000000000000000000000000000000000000000000000000000000000000000000000000000000000000000000000000000000000000000000000000000000000000000000
#030321:23
#029350:1353000053530000
#029340:000000000000000000000000000000000000000000000000000000000000000000000000000000000000000000000000000000000000000000000000000000000000000000000000000000000000000000000000000000000000000000000000000000000000000000000000000000000000000000000000000000000000000000000000000000000000000000000000000000000000000000000000000000000000000000000000000000000000000000000053000000000000000000000000000000000000000000000000000000000000000000000000000000000000000000000000000000000000000000000000000000000000000000000000000000000000000000000000000000000000000000000000000000000000000000000000000000000000000000000000000000000000000000000000000000000000000000000000000000000000000000000000000000000000000000000000000000000000000000000000000000000000000000000000000000000000000000000000000000000000000000000000000000000000000000000000000000000000000000000053000000000000000000000000000000000000000000000000000000000000000000000000000000000000000000000000000000000000000000000000000000000000000000000000000000000000000000000000000000000000000000000000000000000000000000000000000000000000000000000000000000000000000000000000000000000000000000000000000000000000000000000000000000000000000000000000000000000000000000000000000000000000000000000000000000000000000000000000000000000000000000000000000000000000000000000000000000000000000000000053000000000000000000000000000000000000000000000000000000000000000000000000000000000000000000000000000000000000000000000000000000000000000000000000000000000000000000000000000000000000000000000000000000000000000000000000000000000000000000000000000000000000000000000000000000000000000000000000000000000000000000000000000000000000000000000000000000000000000000000000000000000000000000000000000000000000000000000000000000000000000000000000000000000000000000000000000000000000000000000053000000000000000000000000000000000000000000000000000000000000000000000000000000000000000000000000000000000000000000000000
#029330:0000535300005353
#030350:23
#0303b3:1353000053530000
#0303a3:00000053000000530000005300000053
#030393:000000000000000000000000000000000000000000000000000000000000000000000000000000000000000000000000000000000000000000000000000000000000000000000000000000000000000000000000000000000000000000000000000000000000000000000000000000000000000000000000000000000000000000000000000000000000000000000000000000000000000000000000000000000000000000000000000000000000000000000000000000000000000000000000000000000000000000000000000000000000000000000000000000000000000000000000000000000000000000000053000000000000000000000000000000000000000000000000000000000000000000000000000000000000000000000000000000000000000000000000000000000000000000000000000000000000000000000000000000000000000000000000000000000000000000000000000000000000000000000053000000000000000000000000000000000000000000000000000000000000000000000000000000000000000000000000000000000000000000000000000000000000000000000000000000000000000000000000000000000000000000000000000000000000000000000000000000000000000000000000000000000000000000000000000000000000000000000000000000000000000000000000000000000000000000000000000000000000000000000000000000000000000000000000000000000000000000000000000000000000000000000000000000000000000000000000000000000000000000000000000000000000000000000000000000000000000000000000000000000000000000000000000000000000000000000000000000000000000000000000000000000000000000000000000000000000000000000000000000000000000000000000000000000000000000000000000000000000000000000053000000000000000000000000000000000000000000000000000000000000000000000000000000000000000000000000000000000000000000000000000000000000000000000000000000000000000000000000000000000000000000000000000000000000000000000000000000000000000000000053000000000000000000000000000000000000000000000000000000000000000000000000000000000000000000000000000000000000000000000000000000000000000000000000000000000000000000000000000000000000000000000000000000000000000000000000000000000000000000000000
#0313b3:3353535353535353535353532300000000000000000000000000000000000000
#031353:00590000000000000000000000000000000000000000000000000000000000000000000000000000000000000000000000000000000000000000000000000000
#031363:00000058000000000000000000000000000000000000000000000000000000000000000000000000000000000000000000000000000000000000000000000000
#031373:00000000005700000000000000000000000000000000000000000000000000000000000000000000000000000000000000000000000000000000000000000000
#031383:00000000000000560000000000000000000000000000000000000000000000000000000000000000000000000000000000000000000000000000000000000000
#031393:00000000000000000055005500550055005500550055000000000000000000000000000000000000000000000000000000000000000000000000000000000000
#0313a3:00000000000000000000000000000000000000000000005400000000000000000000000000000000000000000000000000000000000000000000000000000000
#030382:1353000053530000
#030392:000000000000000000000000000000000000000000000000000000000000000000000000000000000000000000000000000000000000000000000000000000000000000000000000000000000000000000000000000000000000000000000000000000000000000000000000000000000000000000000000000000000000000000000000000000000000000000000000000000000000000000000000000000000000000000000000000000000000000000000053000000000000000000000000000000000000000000000000000000000000000000000000000000000000000000000000000000000000000000000000000000000000000000000000000000000000000000000000000000000000000000000000000000000000000000000000000000000000000000000000000000000000000000000000000000000000000000000000000000000000000000000000000000000000000000000000000000000000000000000000000000000000000000000000000000000000000000000000000000000000000000000000000000000000000000000000000000000000000000000053000000000000000000000000000000000000000000000000000000000000000000000000000000000000000000000000000000000000000000000000000000000000000000000000000000000000000000000000000000000000000000000000000000000000000000000000000000000000000000000000000000000000000000000000000000000000000000000000000000000000000000000000000000000000000000000000000000000000000000000000000000000000000000000000000000000000000000000000000000000000000000000000000000000000000000000000000000000000000000000053000000000000000000000000000000000000000000000000000000000000000000000000000000000000000000000000000000000000000000000000000000000000000000000000000000000000000000000000000000000000000000000000000000000000000000000000000000000000000000000000000000000000000000000000000000000000000000000000000000000000000000000000000000000000000000000000000000000000000000000000000000000000000000000000000000000000000000000000000000000000000000000000000000000000000000000000000000000000000000000053000000000000000000000000000000000000000000000000000000000000000000000000000000000000000000000000000000000000000000000000
#0303a2:0000535300005353
#031382:23
#031323:0000000013230000
#031352:0000000000132300
#031383:0000000000001323
#0313b2:0000000000000013
#0323b2:23
#032333:12220000
#032360:12220000
#032382:00122200
#0323b1:00122200
#032363:00001222
#032330:00001222
#033380:00001626
#033323:00000016
#034323:26
#034353:0013000000000000
#034323:0000002300000000
#034353:00000000000000130023000000000000
#034380:00000000000000130023000000000000
#0343b0:0000000000132300
#034323:0000000000132300
#0433b3:00001323
#0443b3:0000000013230000
#044380:0000000013230000
#045320:00001323
#046320:0000000013230000
#046353:0000000013230000
#0473b3:00001323
#049323:00001323
