This file was generated by Ched 2.7.0.0.
#TITLE ""
#ARTIST ""
#DESIGNER ""
#DIFFICULTY 0
#PLAYLEVEL
#SONGID ""
#WAVE ""
#WAVEOFFSET 0
#JACKET ""
#REQUEST "ticks_per_beat 480"
#00002: 4
#BPM01: 188
#00008: 01
#TIL00: ""
#VOLUME: ""
#HISPEED 00
#MEASUREHS 00
#0001c:1200000012000012
#00016:1200000012000012
#0001a:0000001200000000
#00018:0000001200000000
#0011a:0012001200000000
#00118:0012001200000000
#0011c:0012
#00116:0012
#00218:12000012
#0021a:00120000
#0021c:00000000000000000000000000000000001200000000000000000000000000001200000000000000000000000000000000000000000000000000000000000000
#00212:14000014
#00214:00140000
#00216:0014
#0031a:12000012
#00318:0012000000120000
#00316:1200001200001200
#00312:0000001200000000
#0041c:1200000012000012
#00416:1200000012000012
#0041a:0000001200000000
#00418:0000001200000000
#00412:24242424
#0051a:0012001200000000
#00518:0012001200000000
#0051c:0012
#00516:0012
#00512:24242424
#0061b:1300131313231313
#00616:13
#00615:0000132313131323
#00618:0000131323132313
#00612:2400231313131313
#01218:13
#01215:00131313
#01219:00121212
#0121b:2300000000130000
#01212:0000000053000013
#01318:0013001300001300
#01315:0000130000130000
#01312:0013
#0131b:0000000000000013
#0131c:0012001200000000
#00716:0000000012121212
#00718:00000000530000000012001200120012
#00712:00530000
#00715:00530000
#0071b:00530000
#00815:13121212
#00818:00131313
#00812:2300000000130013
#0081b:0000000053000013
#0081a:14
#00810:41
#00915:0013001300001300
#00918:0000130000130000
#0091b:0013
#00912:0012001200000013
#01018:13
#01015:00131313
#01019:00121212
#0101b:2300000000130000
#01012:0000000053000013
#01118:00001300000013000000001200000000
#01115:0000130000130000
#01112:0013
#01116:00000000000000000000000000000012
#0111a:00000012
#01114:0000000000000012
#0111c:0012001200000000
#01412:0014001400000000
#01413:0000000000150000
#01414:0000140000000016
#01416:0014
#01418:00000014
#01516:0016000000000000
#0151a:14
#01518:0026
#01515:0000000000260000
#01512:00000026
#0161c:12121212
#0161a:0012001200120012
#01616:1414
#01612:00140014
#01610:41
#0171c:12121212
#01719:0012001200120012
#01713:13000053
#01716:0053
#0181c:12121212
#01818:0012001200120012
#01816:52
#01812:00530000
#01813:00000052
#01815:0052
#01912:13
#0191c:12
#0191a:0012
#01918:0000120000120000
#01916:00000012
#01914:0000120000000012
#01915:53
#02012:12121212
#02014:0012001200120012
#02016:1414
#0201a:00140014
#02112:12121212
#02115:0012001200120012
#0211a:13000053
#02117:0053
#02212:00531300
#02215:0000000052130000
#02218:52
#0221b:00530052
#02219:0052
#02317:0000001200000000
#02315:00000000000000120000000000001300
#02318:00001313
#02312:0013
#0231b:0000000000130000
#02415:0000130000000013
#02418:0000001300001300
#0241b:13
#02410:41
#02412:0053
#02515:0000130000000013
#02518:0000001300001300
#02512:0053
#02816:00130000
#02819:0000001200000000
#02812:13
#02817:00000013
#02815:5200000000000012
#02813:00130000
#0281a:00000013
#0281b:0053
#02916:00130000
#02919:0000001200000000
#02917:00000013
#02915:0000000000000012
#02913:00130000
#0291a:00000013
#0291b:0053
#03115:00132323
#03118:0000130000130013
#0311b:00001313
#03112:0000530000230023
#0311a:52
#0321c:1212
#03218:00000012
#03212:00120012
#03215:00120012
#0321f:11
#0331c:5212
#0331a:00000012
#03312:00120012
#03315:00120012
#03512:12
#03518:52001323
#03515:52000013
#0351b:0023
#0361b:2300130000130000
#03615:23130000
#03612:0000530000130000
#03618:0000000000530000
#03818:1212000000001212
#0381b:1212000000001212
#03815:1212000000001212
#03816:0000001212000000
#03813:0000001212000000
#03819:0000001212000000
#04016:1400001200120012
#0401b:23130013
#04018:00120012
#04014:0012
#04012:23
#0401f:21
#04116:14120012
#04112:23130013
#04118:0000001200120012
#0411a:0012
#0411b:23
#04110:41
#04216:0015000000150000
#04215:0000001500000015
#0421b:0053000000530000
#04212:0000005300000053
#04318:0024000000130013
#04315:00000013
#0431a:24
#04316:00240000
#04314:0000002400000000
#04312:0024
#04416:14120012
#04412:23130013
#04418:0000001200120012
#0441a:0012
#0441b:23
#04516:1400001200120012
#0451b:23130013
#04518:00120012
#04514:0012
#04512:23
#04615:1515
#04616:00150015
#04612:0053000000530000
#0461b:0000005300000053
#04712:1400001400000000
#04714:0014
#04716:0000000000140000
#04718:00000014
#0471a:0000000054000014
#04815:0013000000000000
#0481b:0013000000002300
#04816:0000001300130000
#04812:0000230000130000
#04817:0000000000000013
#04819:0022
#05018:0000120000520000
#0501c:00120000
#05016:0000005212000000
#05012:0012
#0501a:0000005200001313
#05013:0000000000001313
#05015:0013000000000000
#0501b:0013000000000000
#05019:22
#05014:0000000000520000
#05112:0000001300000000
#05118:0000001300001300
#0511b:0000000000130000
#05115:0000000000000013
#05212:2314
#05219:00000014
#0521b:23
#0521a:0024
#05214:00000024
#0531a:1454
#05313:00140000
#05312:5414
#05319:00000014
#05318:00240000
#05314:00000024
#0541a:1400001414000000
#05418:0000000000000013
#05415:0000000000000013
#0541b:0000000000000023
#05412:54
#05518:1300131300130000
#05515:1300131300130000
#0551b:2300000000230000
#05512:0000232300000000
#05612:14
#0561a:0014
#05712:14
#0571a:0014
#05716:000000000000000000000000000000000000000000000000000000000000000000000000000000000000000000000000000000000000000000000000000000000000000000000000000000000000000000000000000000000000000000000000000000000000000000000000000000000000000000000000000000000000000000000000000000000000000000000000000000000000000000000000000000000000000000000000000000000000000000000000000000000000000000000000000000000000000000000000000000000000000000000000000000000000000000000000000000000000000000000000000000000000000000000000000000000000000000000000000000000000000000000000000000000000000000000000000000000000000000000000000000000000000000000000000000000000000000000000000000000000000000000000000000000000000000000000000000000000000000000000000000000000000000000000000000000000000000747474
#05816:5412121212121212
#05818:00000012001200120012001200120012
#06016:14122312
#06012:24130013
#06018:0000001200120012
#0601a:2412
#06019:00130000
#06010:41
#06116:1400001200120012
#0611b:00130013
#06118:00120012
#06114:00131200
#06112:24
#0611a:24
#06117:0023
#06312:2400000000130000
#06318:0000002400001313
#06315:00000000000000000000130000130013
#06314:0024000000000000
#06316:00240000
#0631a:0024
#06418:13260000
#0641b:0013000000130000
#06412:0013001300002600
#06417:0000000000130000
#06416:0000000000000013
#06415:0022
#0671b:0000001300000000
#06715:0000001300001300
#06712:0000000000130000
#06718:0000000000000013
#0681a:0014
#06813:00000014
#0681b:23
#06812:2324
#06818:00000024
#06912:1424
#06919:00140000
#0691a:2414
#06913:00000014
#06914:00240000
#06918:00000024
#07012:1400001414000024
#0701a:24
#07416:00000000001200120012001200120012
#07418:0000221222122212
#07412:13
#0741b:13
#07512:00130000001300000000000000002300
#07518:0013001300230000
#07515:00000013000000130000000023000000
#0751b:23232300
#07612:00000012
#0761c:00000012
#07619:00000012
#07615:00000012
#07812:0012001200120012
#0781b:0013000013001300
#07815:0000001300000013
#07816:0000000000140000
#07818:23232323
#07712:2300000000130013
#07715:13121212
#0771b:0000000053000013
#07718:23232323
#0261b:00120000
#02619:00000012
#0261a:0000000000000012
#02618:0052
#02616:00000052
#02612:00530000
#03013:00120000
#03015:00000012
#03014:0000000000000012
#03016:0052
#03018:00000052
#0301b:00530000
#04918:0013000000000000
#04912:0013000000002300
#04917:0000001300130000
#0491b:0000230000130000
#04916:0000000000000013
#04915:2222
#06516:0013000000130000
#0651b:0013001300000000
#06512:0000260000130013
#06519:2222
#06518:00000026
#06617:0013000000000000
#06612:0013000022000000
#0661a:0000005200002323
#06613:0000000000002323
#06615:22
#0661c:00220000
#06618:0000220000520000
#06616:0000005222000000
#06614:0000000000520000
#0801c:0012001200120012
#08012:0013000013001300
#08018:0000001300000013
#08016:0000000000140000
#08015:23232323
#0791b:2300000000130013
#07919:00121212
#07912:0000000053000013
#07918:13
#07915:23232323
#08212:0012001200120012
#0821b:0013000013001300
#08215:0000001300000013
#08216:0000000000140000
#08218:23232323
#08112:2300000000130013
#08115:13121212
#0811b:0000000053000013
#08118:23232323
#08412:1413
#08415:0000000023130000
#08418:0000000000231300
#08414:0016000000000000
#0841b:00000023
#08512:13
#08515:00131300
#08518:00005313
#08516:24
#08614:13
#08617:0012000000001300
#08619:00130000
#0861c:0000001200000000
#08612:0013
#08615:0000000000120000
#0861a:0000000000000012
#0861b:53
#0871b:13
#08718:00131300
#08715:00005313
#08716:24
#08819:1300000000120000
#08817:00001200000000000000001200001200
#08814:00130013
#08812:5300001200000000
#0881b:0013
#08815:00000000000000000000000000000012
#08912:13
#08915:00131300
#08918:26005313
#09014:13
#09017:0012000000001300
#09019:00130000
#0901c:0000001200000000
#09012:0013
#09015:0000000000120000
#0901a:0000000000000012
#0901b:53
#07212:00121200
#07216:0000001200001200
#07219:0000001200001200
#0721c:00000012
#0721a:24
#07215:24
#07210:41
#07316:12001212
#0731b:00120000
#07318:0000120052120000
#07313:12520012
#07319:52
#0831a:0014001400000000
#08318:0000140000150000
#08316:2400000014000016
#08314:00000014
#0371b:2323
#03712:00230023
#03715:53
#05912:2300002c
#05916:2424
#0591b:23
#05914:00230000
#05919:00230000
#06215:24000000000000000000000000000000005400000000000000000000000000002400000000000000000000000000000000540000000000000000000000000000
#06217:00540000000000000000000000000000240000000000000000000000000000000054000000000000000000000000000024000000000000000000000000000000
#06212:0053000000530000
#06216:0054000000000000000000000000000000000000000000000000000000000000005400000000000000000000000000000000000000000000000000000000000000540000000000000000000000000000000000000000000000000000000000000054000000000000000000000000000000000000000000000000000000000000
#06218:0000005400000000000000000000000000000000000000000000000000000000000000000000000000000000000000000000000000000000000000000000000000000054000000000000000000000000000000000000000000000000000000000000000000000000000000000000000000000000000000000000000000000000
#0621b:0000005300000053
#06214:0000000000000000000000000000000000000000000000000000000000000000000000540000000000000000000000000000000000000000000000000000000000000000000000000000000000000000000000000000000000000000000000000000005400000000000000000000000000000000000000000000000000000000
#07112:2400000000242400
#0711a:0000242400000000
#07118:00000054
#09112:00220000
#09113:0022
#09114:00000022
#09215:22000022
#09216:0000220000220000
#09217:0022
#0921c:00000052
#02714:52
#02717:0000005200000052
#02719:00525200
#0271b:0053000000000000
#02715:00000052
#02712:0000000000530000
#01452:0024002400000000
#01453:0000000000250000
#01454:0000540000000026
#01458:00000054
#01456:0054
#01556:000000000000000000000000000000000000000000000000260000000000000000000000000000000000000000000046000000000000000000000000000000000000000000000000000000000000000000000000000000000000000000000000000000000000000000000000000000000000000000000000000000000000000000000000000000000000000000000000000000000000000000000000000000000000000000000000000000000000000000000000000000000000000000000000
#0155a:54440000
#01558:000000000000000000000000000000000000000000000000000000000000000000000000000000000000000000000000000000000000000000000000000000000000000000000000000000000000000000000000000000000000000000000045000000000000000000000000000000000000000000000000000000000000000000000000000000000000000000000000000000000000000000000000000000000000000000000000000000000000000000000000000000000000000000000000000000000000000000000000000000000000000000000000000000000000000000000000000000000000000000000000000000000000000000000000000000000000000000000000000000000000000000000000000000000000000000000000000000000000000000000000000000000000000000000000000000000000000000000000000000000000000000000000000000000000000000000000000000000000000000000000000000000000000000000000000000000000000000000000
#01554:0000000000000000000000000000000000000000000000000000000000000047000000000000000000000000000000000000000000000000000000000000000000000000000000000000000000000000000000000000000000000000000000000000000000000000000000000000000000000000000000000000000000000000
#01552:000000000000000000000000000000000000000000000048000000000000000000000000000000000000000000000000000000000000000000000000000000000000000000000000000000000000000000000000000000000000000000000000
#02358:13
#02352:13
#0325c:0052
#03258:00000022
#03855:0012000000000012
#03858:0012000000000012
#0385b:0012000000000012
#03853:0012
#03856:0012
#03859:0012
#0405b:43
#04052:33
#0415b:43
#04152:33
#04256:0035000000350000
#04255:0000004500000045
#04352:0014
#04655:4545
#04656:00350035
#0445b:43
#04452:33
#04552:33
#0455b:43
#04752:54
#05058:00620000
#0505c:00620000
#05056:0052
#05052:0052
#05053:0000000000000053
#0505a:0000000000000053
#0515a:0012000000000000
#05154:0012000000000000
#05252:1354
#0525b:13
#05259:00000024
#0535a:64
#05353:00240000
#05352:0054
#05359:00000024
#0545a:5414
#05454:0014
#05552:0000001300000000
#0555b:0000000000130000
#05652:54
#0565a:0054
#05752:54
#0575a:0054
#05952:0000001c
#0605a:44
#06052:34
#06152:34
#0615a:44
#0635a:0014
#06754:0012000000000000
#0675a:0012000000000000
#06653:0000000000000053
#0665a:0000000000000053
#0665c:00620000
#06658:00620000
#06656:0062
#06652:0062
#0685a:0064
#06853:00000024
#0685b:13
#06852:1314
#06952:5414
#06959:00240000
#0695a:1464
#06953:00000024
#07052:6414
#07058:0014
#0705a:14
#0725a:14
#07252:0012
#0725c:00000052
#07152:14000014
#0715a:0000001400000000
#04852:00130000
#0485b:00000013
#0495b:00130000
#04952:00000013
#06458:00160000
#06452:00000016
#06552:00160000
#06558:00000016
#08552:53
#08555:0053
#08556:14
#0875b:63
#08758:0063
#08756:14
#08952:53
#08955:0053
#08958:16
#00852:13
#0125b:13
#0245b:13
#0255b:13
#02852:13
#02952:13
#0365b:13
#07552:0000000000000033
#07752:13
#0795b:13
#08152:13
#07356:52
#0735b:00520000
#0835a:0024002400000000
#08358:0000640000250000
#08356:0000000064000026
#08354:00000064
#08454:000000000000000000000000000000000000000000000000260000000000000000000000000000000000000000000036000000000000000000000000000000000000000000000000000000000000000000000000000000000000000000000000000000000000000000000000000000000000000000000000000000000000000000000000000000000000000000000000000000000000000000000000000000000000000000000000000000000000000000000000000000000000000000000000
#08452:64340000
#08456:000000000000000000000000000000000000000000000038000000000000000000000000000000000000000000000000000000000000000000000000000000000000000000000000000000000000000000000000000000000000000000000000
#08455:0000000000000000000000000000000000000000000000000000000000000037000000000000000000000000000000000000000000000000000000000000000000000000000000000000000000000000000000000000000000000000000000000000000000000000000000000000000000000000000000000000000000000000
#08453:000000000000000000000000000000000000000000000000000000000000000000000000000000000000000000000000000000000000000000000000000000000000000000000000000000000000000000000000000000000000000000000035000000000000000000000000000000000000000000000000000000000000000000000000000000000000000000000000000000000000000000000000000000000000000000000000000000000000000000000000000000000000000000000000000000000000000000000000000000000000000000000000000000000000000000000000000000000000000000000000000000000000000000000000000000000000000000000000000000000000000000000000000000000000000000000000000000000000000000000000000000000000000000000000000000000000000000000000000000000000000000000000000000000000000000000000000000000000000000000000000000000000000000000000000000000000000000000000
#0265b:13
#03052:13
#03755:00000013
#007320:13230000
#007351:13230000
#0073b2:13230000
#007383:13230000
#0083b1:00132300
#010321:00132300
#012321:00132300
#014321:1454000000000000
#015321:000000000000000000000000000000000000000000000028000000000000000000000000000000000000000000000000000000000000000000000000000000000000000000000000000000000000000000000000000000000000000000000000
#014342:00140000
#014322:0000005400000000
#015342:0000000000000000000000000000000000000000000000000000000000000027000000000000000000000000000000000000000000000000000000000000000000000000000000000000000000000000000000000000000000000000000000000000000000000000000000000000000000000000000000000000000000000000
#014363:0014
#014333:0000000000550000
#015363:000000000000000000000000000000000000000000000000000000000000000000000000000000000000000000000026000000000000000000000000000000000000000000000000000000000000000000000000000000000000000000000000000000000000000000000000000000000000000000000000000000000000000000000000000000000000000000000000000000000000000000000000000000000000000000000000000000000000000000000000000000000000000000000000
#014380:00000014
#014340:0000000000000056
#015380:000000000000000000000000000000000000000000000000000000000000000000000000000000000000000000000000000000000000000000000000000000000000000000000000000000000000000000000000000000000000000000000025000000000000000000000000000000000000000000000000000000000000000000000000000000000000000000000000000000000000000000000000000000000000000000000000000000000000000000000000000000000000000000000000000000000000000000000000000000000000000000000000000000000000000000000000000000000000000000000000000000000000000000000000000000000000000000000000000000000000000000000000000000000000000000000000000000000000000000000000000000000000000000000000000000000000000000000000000000000000000000000000000000000000000000000000000000000000000000000000000000000000000000000000000000000000000000000000
#0153a4:14240000
#015364:0056000000000000
#017364:1323
#017330:00001323
#017364:00000012
#018364:22
#018320:13230000
#018354:00122200
#018330:00001222
#018354:00000013
#019354:23
#021374:1323
#0213a0:00001323
#021384:00000012
#022384:22
#0223b0:13230000
#022323:13230000
#022394:00122200
#022352:00122200
#0223b0:00001222
#022382:00000013
#023382:23
#022324:00000013
#023324:23
#024322:1323
#0243b4:0013
#0253b4:23
#025322:1323
#0253b4:0013
#0263b4:23
#026322:13230000
#026384:00122200
#026362:00001222
#026344:00000012
#027344:22
#0273b2:1323000000000000
#027394:0012220000000000
#027372:0000122200000000
#027394:0000001222000000
#027322:0000000013230000
#027354:0000000000122200
#027372:0000000000001222
#027354:0000000000000012
#028354:22
#0283b2:1323
#028324:0013
#029324:23
#0293b2:1323
#029324:0013
#030324:23
#0303b2:13230000
#030364:00122200
#030382:00001222
#0303a4:00000012
#0313a4:22
#031322:13230000
#0323c2:0012
#032382:00000052
#0333c2:22
#034382:12
#035382:22
#034354:0012
#035354:22
#036324:13230000
#036384:0000001300230000
#036354:00000013
#037354:23
#037382:1333
#037352:00330023
#0423b2:1323000000000000
#042322:0000132300000000
#0423b2:0000000013230000
#042322:0000000000001323
#046322:1323000000000000
#0463b2:0000132300000000
#046322:0000000013230000
#0463b2:0000000000001323
#047322:14
#0473a2:0024
#050382:00120000
#050362:000000000000000000000000000000000000000000000000000000000000000000000000000000000000000000000000000000000000000000000000000000000000000000000000000000000000000000000000000000000000000000000000000000000000000000000000000000000000000000000000000000000000000000000000000000000000000000000000000000000000000000000000000000000000000000000000000000000000000000000000000000000000000000000000000000000000000000000000000000000000000000000000000000000000000000000000000000000000000000000000000000000000000000000000000000000000000000000000000000000000000000000000000000000000000000000000000000000000000000000000000000000000000000000000000000000000000000000000000000000000000000000000000000000000000000000000000000000000000000000000000000000000000000000000000000000000000000000000000000000000000000000000000000000000000000000000000000000000000000000000000000000000000000000000000000000000000000000000000000000000000000000000000000000000000000000000000000000000000000000000000000000000000000000000000000000000000000000000000000000000000000000000000000000000000000000000000000000000000000000000000000000000000000000000000000000000000000000000000000000000000000000000000000000000000000000000000000000000000000000000000000000000000000000000000000000000000000000000000000000052000000000000000000000000000000000000000000000000000000000000000000000000000000000000000000000000000000000000000000000000000000000000000000000000000000000000000000000000000000000000220000000000000000000000000000000000000000000000000000000000000000000000000000000000000000000000000000000000000000000000000000000000000000000000000000000000000000000000000000000000000000000000000000000000000000000000000000000000000000000000000000000000000000000000000000000000000000000000000000000000000000000000000000000000000000000000000000000000000000000000000000000000000000000000000000000000000000000000000000000000000000000000000000000000000000000000000000000000000000000000000000000000000000000000000000000000000000000000000000000000000000000000000000000000000000000000000000000000000000000000000000000000000000000000000000000000000000000000000000000000000000000000000000000000000000000000000000000000000000000000000000000000000000000000000000000000000000000000000000000000000000000000000000000000000000000000000000000000000000000000000000000000000000000000000000000000000000000000000000000000000000000000000000000000000000000000000000000000000000000000000000000000000000000000000000000000000000000000000000000000000000000000000000000000000000000000000000000000000000000000000000000000000000000000000000000000000000000000000000000000000000000000000000000000000000000000000000000000000000000000000000000000000000000000000000000000000000000000000000000000000000000000000000000000000000000000000000000000000000000000000000000000000000000000000000000000000000000000000000000000000000000000000000000000000000000000000000000000000000000000000000000000000000000000000000000000000000000000000000000000000000000000000000000000000000000000000000000000000000000000000000000000000000000000000000000000000000000000000000000000000000000000000000000000000000000000000000000000000000000000000000000000000000000000000000000000000000000000000000000000000000000000000000000000000000000000000000000000000000000000000000000000000000000000000000000000000000000000000000000000000000000000000000000000000000000000000000000000000000000000000000000000000000000000000000000000000000000000000000000000000000000000000000000000000000000000000000000000000000000000000000000000000000000000000000000000000000000000000000000000000000000000000000000000000000000000000000000000000000000000000000000000000000000000000000000000000000000000000000000000000000000000000000000000000000000000000000000000000000000000000000000000000000000000000000000000000000000000000000000000000000000000000000000000000000000000000000000000000000000000
#050352:00000000000000000000000000000000000000000054000000000000000000000000000000000000000000000000000000000000000000000000000000000000
#0503c4:00120000
#0503a4:000000000000000000000000000000000000000000000000000000000000000000000000000000000000000000000000000000000000000000000000000000000000000000000000000000000000000000000000000000000000000000000000000000000000000000000000000000000000000000000000000000000000000000000000000000000000000000000000000000000000000000000000000000000000000000000000000000000000000000000000000000000000000000000000000000000000000000000000000000000000000000000000000000000000000000000000000000000000000000000000000000000000000000000000000000000000000000000000000000000000000000000000000000000000000000000000000000000000000000000000000000000000000000000000000000000000000000000000000000000000000000000000000000000000000000000000000000000000000000000000000000000000000000000000000000000000000000000000000000000000000000000000000000000000000000000000000000000000000000000000000000000000000000000000000000000000000000000000000000000000000000000000000000000000000000000000000000000000000000000000000000000000000000000000000000000000000000000000000000000000000000000000000000000000000000000000000000000000000000000000000000000000000000000000000000000000000000000000000000000000000000000000000000000000000000000000000000000000000000000000000000000000000000000000000000000000000000000000000000000052000000000000000000000000000000000000000000000000000000000000000000000000000000000000000000000000000000000000000000000000000000000000000000000000000000000000000000000000000000000000220000000000000000000000000000000000000000000000000000000000000000000000000000000000000000000000000000000000000000000000000000000000000000000000000000000000000000000000000000000000000000000000000000000000000000000000000000000000000000000000000000000000000000000000000000000000000000000000000000000000000000000000000000000000000000000000000000000000000000000000000000000000000000000000000000000000000000000000000000000000000000000000000000000000000000000000000000000000000000000000000000000000000000000000000000000000000000000000000000000000000000000000000000000000000000000000000000000000000000000000000000000000000000000000000000000000000000000000000000000000000000000000000000000000000000000000000000000000000000000000000000000000000000000000000000000000000000000000000000000000000000000000000000000000000000000000000000000000000000000000000000000000000000000000000000000000000000000000000000000000000000000000000000000000000000000000000000000000000000000000000000000000000000000000000000000000000000000000000000000000000000000000000000000000000000000000000000000000000000000000000000000000000000000000000000000000000000000000000000000000000000000000000000000000000000000000000000000000000000000000000000000000000000000000000000000000000000000000000000000000000000000000000000000000000000000000000000000000000000000000000000000000000000000000000000000000000000000000000000000000000000000000000000000000000000000000000000000000000000000000000000000000000000000000000000000000000000000000000000000000000000000000000000000000000000000000000000000000000000000000000000000000000000000000000000000000000000000000000000000000000000000000000000000000000000000000000000000000000000000000000000000000000000000000000000000000000000000000000000000000000000000000000000000000000000000000000000000000000000000000000000000000000000000000000000000000000000000000000000000000000000000000000000000000000000000000000000000000000000000000000000000000000000000000000000000000000000000000000000000000000000000000000000000000000000000000000000000000000000000000000000000000000000000000000000000000000000000000000000000000000000000000000000000000000000000000000000000000000000000000000000000000000000000000000000000000000000000000000000000000000000000000000000000000000000000000000000000000000000000000000000000000000000000000000000000000000000000000000000000000000000000000000000000000000000000000000000000000000000000000
#050394:00000000000000000000000000000000000000000054000000000000000000000000000000000000000000000000000000000000000000000000000000000000
#050364:0012
#050384:000000000000000000000000000000000000000000000000000000000000000000000000000000000000000000000000000000000000000000000000000000000000000000000000000000000000000000000000000000000000000000000000000000000000000000000000000000000000000000000000000000000000000000000000000000000000000000000000000000000000000000000000000000000000000000000000000000000000000000000000000000000000000000000000000000000000000000000000000000000000000000000000000000000000000000000000000000000000000000000000000000000000000000000000000000000000000000000000000000000000000000000000000000000000000000000000000000000000000000000000000000000000000000000000000000000000000000000000000000000000000000000000000000000000000000000000000000000000000000000000000000000000000000000000000000000000000000000000000000000000000000000000000000000000000000000000000000000000000000000000000000000000000000000000000000000000000000000000000000000000000000000000000000000000000000000000000000000000000000000000000000000000000000000000000000000000000000000000000000000000000000000000000000000000000000000000000000000000000000000000000000000000000000000000000000000000000000000000000000000000000000000000000000000000000000000000000000000000000000000000000000000000000000000000000000000000000000000000000000000000000000000000000000000000000000000000000000000000000000000000000000000000000000000000000000000000000000000000000000000000000000000000000000000000000000000000000000000000000000000000000000000000000000000000000000000000000000000000000000000000000000000000000000000000000000000000000000000000000000000000000000000000000000000000000000000000000000000000000000000000000000000000000000000000000000000000000000000000000000000000000000000000000000000000000000000000000000000000000000000000000000000000000000000000000000000000000000000000000000000000000000000000000000000000000000000000000000000000000000000000000000000000000000000000000000000000000000000000000000000000000000000000000000000000000000000000000000000000000000000000000000000000000000000000000000000000000000000000000000000000000000000000000000000000000000000000000000000000000000000000000000000000000000000000000000000000000000000000000000000000000000000000000000000000000000000000000000000000000000000052000000000000000000000000000000000000000000000000000000000000000000000000000000000000000000000000000000000000000000000000000000000000000000000000000000000000000000000000000000000000220000000000000000000000000000000000000000000000000000000000000000000000000000000000000000000000000000000000000000000000000000000000000000000000000000000000000000000000000000000000000000000000000000000000000000000000000000000000000000000000000000000000000000000000000000000000000000000000000000000000000000000000000000000000000000000000000000000000000000000000000000000000000000000000000000000000000000000000000000000000000000000000000000000000000000000000000000000000000000000000000000000000000000000000000000000000000000000000000000000000000000000000000000000000000000000000000000000000000000000000000000000000000000000000000000000000000000000000000000000000000000000000000000000000000000000000000000000000000000000000000000000000000000000000000000000000000000000000000000000000000000000000000000000000000000000000000000000000000000000000000000000000000000000000000000000000000000000000000000000000000000000000000000000000000000000000000000000000000000000000000000000000000000000000000000000000000000000000000000000000000000000000000000000000000000000000000000000000000000000000000000000000000000000000000000000000000000000000000000000000000000000000000000000000000000000000000000000000000000000000000000000000000000000000000000000000000000000000000000000000000000000000000000000000000000000000000000000000000000000000000000000000000000000000000000000000000000000000000000000000000000000000000000000000000000000000000000000000000000000000
#050374:00000000000000000000000000000000000000000000000000000000000000000000000000540000000000000000000000000000000000000000000000000000
#050322:0012
#050342:000000000000000000000000000000000000000000000000000000000000000000000000000000000000000000000000000000000000000000000000000000000000000000000000000000000000000000000000000000000000000000000000000000000000000000000000000000000000000000000000000000000000000000000000000000000000000000000000000000000000000000000000000000000000000000000000000000000000000000000000000000000000000000000000000000000000000000000000000000000000000000000000000000000000000000000000000000000000000000000000000000000000000000000000000000000000000000000000000000000000000000000000000000000000000000000000000000000000000000000000000000000000000000000000000000000000000000000000000000000000000000000000000000000000000000000000000000000000000000000000000000000000000000000000000000000000000000000000000000000000000000000000000000000000000000000000000000000000000000000000000000000000000000000000000000000000000000000000000000000000000000000000000000000000000000000000000000000000000000000000000000000000000000000000000000000000000000000000000000000000000000000000000000000000000000000000000000000000000000000000000000000000000000000000000000000000000000000000000000000000000000000000000000000000000000000000000000000000000000000000000000000000000000000000000000000000000000000000000000000000000000000000000000000000000000000000000000000000000000000000000000000000000000000000000000000000000000000000000000000000000000000000000000000000000000000000000000000000000000000000000000000000000000000000000000000000000000000000000000000000000000000000000000000000000000000000000000000000000000000000000000000000000000000000000000000000000000000000000000000000000000000000000000000000000000000000000000000000000000000000000000000000000000000000000000000000000000000000000000000000000000000000000000000000000000000000000000000000000000000000000000000000000000000000000000000000000000000000000000000000000000000000000000000000000000000000000000000000000000000000000000000000000000000000000000000000000000000000000000000000000000000000000000000000000000000000000000000000000000000000000000000000000000000000000000000000000000000000000000000000000000000000000000000000000000000000000000000000000000000000000000000000000000000000000000000000000000000000000000000052000000000000000000000000000000000000000000000000000000000000000000000000000000000000000000000000000000000000000000000000000000000000000000000000000000000000000000000000000000000000220000000000000000000000000000000000000000000000000000000000000000000000000000000000000000000000000000000000000000000000000000000000000000000000000000000000000000000000000000000000000000000000000000000000000000000000000000000000000000000000000000000000000000000000000000000000000000000000000000000000000000000000000000000000000000000000000000000000000000000000000000000000000000000000000000000000000000000000000000000000000000000000000000000000000000000000000000000000000000000000000000000000000000000000000000000000000000000000000000000000000000000000000000000000000000000000000000000000000000000000000000000000000000000000000000000000000000000000000000000000000000000000000000000000000000000000000000000000000000000000000000000000000000000000000000000000000000000000000000000000000000000000000000000000000000000000000000000000000000000000000000000000000000000000000000000000000000000000000000000000000000000000000000000000000000000000000000000000000000000000000000000000000000000000000000000000000000000000000000000000000000000000000000000000000000000000000000000000000000000000000000000000000000000000000000000000000000000000000000000000000000000000000000000000000000000000000000000000000000000000000000000000000000000000000000000000000000000000000000000000000000000000000000000000000000000000000000000000000000000000000000000000000000000000000000000000000000000000000000000000000000000000000000000000000000000000000000000000000000000000
#050332:00000000000000000000000000000000000000000000000000000000000000000000000000540000000000000000000000000000000000000000000000000000
#050332:0000000000000013
#0513a2:00000052000000002200000000000000000000000000000000000000000000000000000000000000000000000000000000000000000000000000000000000000
#051382:000000000000000000000000000000000000000000000056000000000000000000000000000000000000000000000000000000000000000000000000000000000000000000000000000000000000000000000000000000000000000000000000000000000000000000000000000000000000000000000000000000000000000000000000000000000000000000000000000000000000000000000000000000000000000000000000000000000000000000000000000000000000000000000000000000000000000000000000000000000000000000000000000000000000000000000000000000000000000000000000000000000000000000000000000000000000000000000000000000000000000000000000000000000000000000000000000000000000000000000000000000000000000000000000000000000000000000000000000000000000000000000000000000000000000000000000000000000000000000000000000000000000000000000000000000000000000000000000000000000000000000000000000000000000000000000000000000000000000000000000000000000000000000000000000000000000000000000000000000000000000000000000000000000000000000000000000000000000000000000000
#0503a4:0000000000000013
#051344:00000052000000002200000000000000000000000000000000000000000000000000000000000000000000000000000000000000000000000000000000000000
#051324:000000000000000000000000000000000000000000000056000000000000000000000000000000000000000000000000000000000000000000000000000000000000000000000000000000000000000000000000000000000000000000000000000000000000000000000000000000000000000000000000000000000000000000000000000000000000000000000000000000000000000000000000000000000000000000000000000000000000000000000000000000000000000000000000000000000000000000000000000000000000000000000000000000000000000000000000000000000000000000000000000000000000000000000000000000000000000000000000000000000000000000000000000000000000000000000000000000000000000000000000000000000000000000000000000000000000000000000000000000000000000000000000000000000000000000000000000000000000000000000000000000000000000000000000000000000000000000000000000000000000000000000000000000000000000000000000000000000000000000000000000000000000000000000000000000000000000000000000000000000000000000000000000000000000000000000000000000000000000000000000
#052324:0014
#052394:00000054
#053324:24
#0533a2:1424
#053332:00540000
#053324:0014
#053394:00000054
#054324:24
#0543a2:14
#054342:0000003424000000
#056322:14
#057362:0000000000000000000000000000000000000000000000000000000000000000000000000000000000000000000000000000000000000000000000000000000000000000000000000000000000000000000000000000000000000000000000000000000000000000000000000000000000000000000000000000000000000024
#0563a4:0014
#057364:000000000000000000000000000000000000000000000000000000000000000000000000000000000000000000000000000000000000000000000000000000000000000000000000000000000000000000000000000000000000000000000000000000000000000000000000000000000000000000000000000000000000000000000000000000000000000000000000000000000000000000000000000000000000000000000000000000000000000000000000000000000000000000000024
#057320:14
#057360:000000000000000000000000000000000000000000000000000000000000000000000000000000000000000000000000000000000000000000000000000000000000000000000000000000000000000000000000000000000000000000000000000000000000000000000000000000000000000000000000000000000000000000000000000000000000000000000000000000000000000000000000000000000000000000000000000000000000000000000000000000000000000000000000000000000000000000000000000000000000000000000000000000000000000000000000000000000000000000000000000000000000000000000000000000000000000000000000000000000000000000000000000000000000000000000000000000000000000000000000000000000000000000000000000000000000000000000000000000000000000000000000000000000000000000000000000000000000000000000000000000000000000000000000000000000000000000000024
#0573a3:0014
#058363:24
#062323:1323000000000000
#0623b3:0000132300000000
#062323:0000000013230000
#0623b3:0000000000001323
#066383:00120000
#066363:000000000000000000000000000000000000000000000000000000000000000000000000000000000000000000000000000000000000000000000000000000000000000000000000000000000000000000000000000000000000000000000000000000000000000000000000000000000000000000000000000000000000000000000000000000000000000000000000000000000000000000000000000000000000000000000000000000000000000000000000000000000000000000000000000000000000000000000000000000000000000000000000000000000000000000000000000000000000000000000000000000000000000000000000000000000000000000000000000000000000000000000000000000000000000000000000000000000000000000000000000000000000000000000000000000000000000000000000000000000000000000000000000000000000000000000000000000000000000000000000000000000000000000000000000000000000000000000000000000000000000000000000000000000000000000000000000000000000000000000000000000000000000000000000000000000000000000000000000000000000000000000000000000000000000000000000000000000000000000000000000000000000000000000000000000000000000000000000000000000000000000000000000000000000000000000000000000000000000000000000000000000000000000000000000000000000000000000000000000000000000000000000000000000000000000000000000000000000000000000000000000000000000000000000000000000000000000000000000000000052000000000000000000000000000000000000000000000000000000000000000000000000000000000000000000000000000000000000000000000000000000000000000000000000000000000000000000000000000000000000220000000000000000000000000000000000000000000000000000000000000000000000000000000000000000000000000000000000000000000000000000000000000000000000000000000000000000000000000000000000000000000000000000000000000000000000000000000000000000000000000000000000000000000000000000000000000000000000000000000000000000000000000000000000000000000000000000000000000000000000000000000000000000000000000000000000000000000000000000000000000000000000000000000000000000000000000000000000000000000000000000000000000000000000000000000000000000000000000000000000000000000000000000000000000000000000000000000000000000000000000000000000000000000000000000000000000000000000000000000000000000000000000000000000000000000000000000000000000000000000000000000000000000000000000000000000000000000000000000000000000000000000000000000000000000000000000000000000000000000000000000000000000000000000000000000000000000000000000000000000000000000000000000000000000000000000000000000000000000000000000000000000000000000000000000000000000000000000000000000000000000000000000000000000000000000000000000000000000000000000000000000000000000000000000000000000000000000000000000000000000000000000000000000000000000000000000000000000000000000000000000000000000000000000000000000000000000000000000000000000000000000000000000000000000000000000000000000000000000000000000000000000000000000000000000000000000000000000000000000000000000000000000000000000000000000000000000000000000000000000000000000000000000000000000000000000000000000000000000000000000000000000000000000000000000000000000000000000000000000000000000000000000000000000000000000000000000000000000000000000000000000000000000000000000000000000000000000000000000000000000000000000000000000000000000000000000000000000000000000000000000000000000000000000000000000000000000000000000000000000000000000000000000000000000000000000000000000000000000000000000000000000000000000000000000000000000000000000000000000000000000000000000000000000000000000000000000000000000000000000000000000000000000000000000000000000000000000000000000000000000000000000000000000000000000000000000000000000000000000000000000000000000000000000000000000000000000000000000000000000000000000000000000000000000000000000000000000000000000000000000000000000000000000000000000000000000000000000000000000000000000000000000000000000000000000000000000000000000000000000000000000000000000000000000000000000000000000000000000000000
#066353:00000000000000000000000000000000000000000054000000000000000000000000000000000000000000000000000000000000000000000000000000000000
#0663c0:00120000
#0663a0:000000000000000000000000000000000000000000000000000000000000000000000000000000000000000000000000000000000000000000000000000000000000000000000000000000000000000000000000000000000000000000000000000000000000000000000000000000000000000000000000000000000000000000000000000000000000000000000000000000000000000000000000000000000000000000000000000000000000000000000000000000000000000000000000000000000000000000000000000000000000000000000000000000000000000000000000000000000000000000000000000000000000000000000000000000000000000000000000000000000000000000000000000000000000000000000000000000000000000000000000000000000000000000000000000000000000000000000000000000000000000000000000000000000000000000000000000000000000000000000000000000000000000000000000000000000000000000000000000000000000000000000000000000000000000000000000000000000000000000000000000000000000000000000000000000000000000000000000000000000000000000000000000000000000000000000000000000000000000000000000000000000000000000000000000000000000000000000000000000000000000000000000000000000000000000000000000000000000000000000000000000000000000000000000000000000000000000000000000000000000000000000000000000000000000000000000000000000000000000000000000000000000000000000000000000000000000000000000000000000052000000000000000000000000000000000000000000000000000000000000000000000000000000000000000000000000000000000000000000000000000000000000000000000000000000000000000000000000000000000000220000000000000000000000000000000000000000000000000000000000000000000000000000000000000000000000000000000000000000000000000000000000000000000000000000000000000000000000000000000000000000000000000000000000000000000000000000000000000000000000000000000000000000000000000000000000000000000000000000000000000000000000000000000000000000000000000000000000000000000000000000000000000000000000000000000000000000000000000000000000000000000000000000000000000000000000000000000000000000000000000000000000000000000000000000000000000000000000000000000000000000000000000000000000000000000000000000000000000000000000000000000000000000000000000000000000000000000000000000000000000000000000000000000000000000000000000000000000000000000000000000000000000000000000000000000000000000000000000000000000000000000000000000000000000000000000000000000000000000000000000000000000000000000000000000000000000000000000000000000000000000000000000000000000000000000000000000000000000000000000000000000000000000000000000000000000000000000000000000000000000000000000000000000000000000000000000000000000000000000000000000000000000000000000000000000000000000000000000000000000000000000000000000000000000000000000000000000000000000000000000000000000000000000000000000000000000000000000000000000000000000000000000000000000000000000000000000000000000000000000000000000000000000000000000000000000000000000000000000000000000000000000000000000000000000000000000000000000000000000000000000000000000000000000000000000000000000000000000000000000000000000000000000000000000000000000000000000000000000000000000000000000000000000000000000000000000000000000000000000000000000000000000000000000000000000000000000000000000000000000000000000000000000000000000000000000000000000000000000000000000000000000000000000000000000000000000000000000000000000000000000000000000000000000000000000000000000000000000000000000000000000000000000000000000000000000000000000000000000000000000000000000000000000000000000000000000000000000000000000000000000000000000000000000000000000000000000000000000000000000000000000000000000000000000000000000000000000000000000000000000000000000000000000000000000000000000000000000000000000000000000000000000000000000000000000000000000000000000000000000000000000000000000000000000000000000000000000000000000000000000000000000000000000000000000000000000000000000000000000000000000000000000000000000000000000000000000000000000000000000
#066390:00000000000000000000000000000000000000000054000000000000000000000000000000000000000000000000000000000000000000000000000000000000
#066360:0012
#066380:000000000000000000000000000000000000000000000000000000000000000000000000000000000000000000000000000000000000000000000000000000000000000000000000000000000000000000000000000000000000000000000000000000000000000000000000000000000000000000000000000000000000000000000000000000000000000000000000000000000000000000000000000000000000000000000000000000000000000000000000000000000000000000000000000000000000000000000000000000000000000000000000000000000000000000000000000000000000000000000000000000000000000000000000000000000000000000000000000000000000000000000000000000000000000000000000000000000000000000000000000000000000000000000000000000000000000000000000000000000000000000000000000000000000000000000000000000000000000000000000000000000000000000000000000000000000000000000000000000000000000000000000000000000000000000000000000000000000000000000000000000000000000000000000000000000000000000000000000000000000000000000000000000000000000000000000000000000000000000000000000000000000000000000000000000000000000000000000000000000000000000000000000000000000000000000000000000000000000000000000000000000000000000000000000000000000000000000000000000000000000000000000000000000000000000000000000000000000000000000000000000000000000000000000000000000000000000000000000000000000000000000000000000000000000000000000000000000000000000000000000000000000000000000000000000000000000000000000000000000000000000000000000000000000000000000000000000000000000000000000000000000000000000000000000000000000000000000000000000000000000000000000000000000000000000000000000000000000000000000000000000000000000000000000000000000000000000000000000000000000000000000000000000000000000000000000000000000000000000000000000000000000000000000000000000000000000000000000000000000000000000000000000000000000000000000000000000000000000000000000000000000000000000000000000000000000000000000000000000000000000000000000000000000000000000000000000000000000000000000000000000000000000000000000000000000000000000000000000000000000000000000000000000000000000000000000000000000000000000000000000000000000000000000000000000000000000000000000000000000000000000000000000000000000000000000000000000000000000000000000000000000000000000000000000000000000000000000000000000000052000000000000000000000000000000000000000000000000000000000000000000000000000000000000000000000000000000000000000000000000000000000000000000000000000000000000000000000000000000000000220000000000000000000000000000000000000000000000000000000000000000000000000000000000000000000000000000000000000000000000000000000000000000000000000000000000000000000000000000000000000000000000000000000000000000000000000000000000000000000000000000000000000000000000000000000000000000000000000000000000000000000000000000000000000000000000000000000000000000000000000000000000000000000000000000000000000000000000000000000000000000000000000000000000000000000000000000000000000000000000000000000000000000000000000000000000000000000000000000000000000000000000000000000000000000000000000000000000000000000000000000000000000000000000000000000000000000000000000000000000000000000000000000000000000000000000000000000000000000000000000000000000000000000000000000000000000000000000000000000000000000000000000000000000000000000000000000000000000000000000000000000000000000000000000000000000000000000000000000000000000000000000000000000000000000000000000000000000000000000000000000000000000000000000000000000000000000000000000000000000000000000000000000000000000000000000000000000000000000000000000000000000000000000000000000000000000000000000000000000000000000000000000000000000000000000000000000000000000000000000000000000000000000000000000000000000000000000000000000000000000000000000000000000000000000000000000000000000000000000000000000000000000000000000000000000000000000000000000000000000000000000000000000000000000000000000000000000000000000000000
#066370:00000000000000000000000000000000000000000000000000000000000000000000000000540000000000000000000000000000000000000000000000000000
#066323:0012
#066343:000000000000000000000000000000000000000000000000000000000000000000000000000000000000000000000000000000000000000000000000000000000000000000000000000000000000000000000000000000000000000000000000000000000000000000000000000000000000000000000000000000000000000000000000000000000000000000000000000000000000000000000000000000000000000000000000000000000000000000000000000000000000000000000000000000000000000000000000000000000000000000000000000000000000000000000000000000000000000000000000000000000000000000000000000000000000000000000000000000000000000000000000000000000000000000000000000000000000000000000000000000000000000000000000000000000000000000000000000000000000000000000000000000000000000000000000000000000000000000000000000000000000000000000000000000000000000000000000000000000000000000000000000000000000000000000000000000000000000000000000000000000000000000000000000000000000000000000000000000000000000000000000000000000000000000000000000000000000000000000000000000000000000000000000000000000000000000000000000000000000000000000000000000000000000000000000000000000000000000000000000000000000000000000000000000000000000000000000000000000000000000000000000000000000000000000000000000000000000000000000000000000000000000000000000000000000000000000000000000000000000000000000000000000000000000000000000000000000000000000000000000000000000000000000000000000000000000000000000000000000000000000000000000000000000000000000000000000000000000000000000000000000000000000000000000000000000000000000000000000000000000000000000000000000000000000000000000000000000000000000000000000000000000000000000000000000000000000000000000000000000000000000000000000000000000000000000000000000000000000000000000000000000000000000000000000000000000000000000000000000000000000000000000000000000000000000000000000000000000000000000000000000000000000000000000000000000000000000000000000000000000000000000000000000000000000000000000000000000000000000000000000000000000000000000000000000000000000000000000000000000000000000000000000000000000000000000000000000000000000000000000000000000000000000000000000000000000000000000000000000000000000000000000000000000000000000000000000000000000000000000000000000000000000000000000000000000000000000000000000052000000000000000000000000000000000000000000000000000000000000000000000000000000000000000000000000000000000000000000000000000000000000000000000000000000000000000000000000000000000000220000000000000000000000000000000000000000000000000000000000000000000000000000000000000000000000000000000000000000000000000000000000000000000000000000000000000000000000000000000000000000000000000000000000000000000000000000000000000000000000000000000000000000000000000000000000000000000000000000000000000000000000000000000000000000000000000000000000000000000000000000000000000000000000000000000000000000000000000000000000000000000000000000000000000000000000000000000000000000000000000000000000000000000000000000000000000000000000000000000000000000000000000000000000000000000000000000000000000000000000000000000000000000000000000000000000000000000000000000000000000000000000000000000000000000000000000000000000000000000000000000000000000000000000000000000000000000000000000000000000000000000000000000000000000000000000000000000000000000000000000000000000000000000000000000000000000000000000000000000000000000000000000000000000000000000000000000000000000000000000000000000000000000000000000000000000000000000000000000000000000000000000000000000000000000000000000000000000000000000000000000000000000000000000000000000000000000000000000000000000000000000000000000000000000000000000000000000000000000000000000000000000000000000000000000000000000000000000000000000000000000000000000000000000000000000000000000000000000000000000000000000000000000000000000000000000000000000000000000000000000000000000000000000000000000000000000000000000000000000000
#066333:00000000000000000000000000000000000000000000000000000000000000000000000000540000000000000000000000000000000000000000000000000000
#0663a3:0000000000000013
#067343:00000052000000002200000000000000000000000000000000000000000000000000000000000000000000000000000000000000000000000000000000000000
#067323:000000000000000000000000000000000000000000000056000000000000000000000000000000000000000000000000000000000000000000000000000000000000000000000000000000000000000000000000000000000000000000000000000000000000000000000000000000000000000000000000000000000000000000000000000000000000000000000000000000000000000000000000000000000000000000000000000000000000000000000000000000000000000000000000000000000000000000000000000000000000000000000000000000000000000000000000000000000000000000000000000000000000000000000000000000000000000000000000000000000000000000000000000000000000000000000000000000000000000000000000000000000000000000000000000000000000000000000000000000000000000000000000000000000000000000000000000000000000000000000000000000000000000000000000000000000000000000000000000000000000000000000000000000000000000000000000000000000000000000000000000000000000000000000000000000000000000000000000000000000000000000000000000000000000000000000000000000000000000000000000
#066330:0000000000000013
#0673a0:00000052000000002200000000000000000000000000000000000000000000000000000000000000000000000000000000000000000000000000000000000000
#067380:000000000000000000000000000000000000000000000056000000000000000000000000000000000000000000000000000000000000000000000000000000000000000000000000000000000000000000000000000000000000000000000000000000000000000000000000000000000000000000000000000000000000000000000000000000000000000000000000000000000000000000000000000000000000000000000000000000000000000000000000000000000000000000000000000000000000000000000000000000000000000000000000000000000000000000000000000000000000000000000000000000000000000000000000000000000000000000000000000000000000000000000000000000000000000000000000000000000000000000000000000000000000000000000000000000000000000000000000000000000000000000000000000000000000000000000000000000000000000000000000000000000000000000000000000000000000000000000000000000000000000000000000000000000000000000000000000000000000000000000000000000000000000000000000000000000000000000000000000000000000000000000000000000000000000000000000000000000000000000000000
#0683a0:0014
#068330:00000054
#0693a0:24
#069323:1424
#069393:00540000
#0693a0:0014
#069330:00000054
#0703a0:24
#070323:14
#070383:0000003424000000
#070383:0000000000000014
#071383:3400000054342400
#071343:0054343400000000
#0723c3:00000012
#073393:22
#073360:12
#073330:00220000
#0733b3:00120000
#073383:0022
#0773b3:00132300
#079323:00132300
#0813b3:00132300
#0833a3:1454000000000000
#084363:000000000000000000000000000000000000000000000028000000000000000000000000000000000000000000000000000000000000000000000000000000000000000000000000000000000000000000000000000000000000000000000000
#083380:00140000
#0833a0:0000005400000000
#084350:0000000000000000000000000000000000000000000000000000000000000027000000000000000000000000000000000000000000000000000000000000000000000000000000000000000000000000000000000000000000000000000000000000000000000000000000000000000000000000000000000000000000000000
#083364:0014
#083384:0000000000550000
#084344:000000000000000000000000000000000000000000000000000000000000000000000000000000000000000000000026000000000000000000000000000000000000000000000000000000000000000000000000000000000000000000000000000000000000000000000000000000000000000000000000000000000000000000000000000000000000000000000000000000000000000000000000000000000000000000000000000000000000000000000000000000000000000000000000
#083342:00000014
#083362:0000000000000056
#084332:000000000000000000000000000000000000000000000000000000000000000000000000000000000000000000000000000000000000000000000000000000000000000000000000000000000000000000000000000000000000000000000025000000000000000000000000000000000000000000000000000000000000000000000000000000000000000000000000000000000000000000000000000000000000000000000000000000000000000000000000000000000000000000000000000000000000000000000000000000000000000000000000000000000000000000000000000000000000000000000000000000000000000000000000000000000000000000000000000000000000000000000000000000000000000000000000000000000000000000000000000000000000000000000000000000000000000000000000000000000000000000000000000000000000000000000000000000000000000000000000000000000000000000000000000000000000000000000000
#084321:14240000
#084341:0056000000000000
#085321:13
#085381:00532300
#085352:0013
#0853b2:00000053
#0863b2:23
#0873b2:13
#087352:00532300
#087381:0013
#087321:00000053
#088321:23
#089321:13
#089381:00532300
#089352:0013
#0893b2:00000053
#0903b2:23
#0913c2:12
#0923c2:00000022
