This file was generated by Ched 2.7.0.0.
#TITLE ""
#ARTIST ""
#DESIGNER ""
#DIFFICULTY 0
#PLAYLEVEL
#SONGID ""
#WAVE ""
#WAVEOFFSET 0
#JACKET ""
#REQUEST "ticks_per_beat 480"
#00002: 4
#BPM01: 143
#00008: 01
#TIL00: ""
#VOLUME: ""
#HISPEED 00
#MEASUREHS 00
#0241f:00110000
#02412:0013000000000000
#02415:0013000000000000
#0241a:000000000000000000000000000000000000000000000000000000000000000000000000000000000000000000000000000000000000000000000000000000000000000000000000000000000000000000000000000000000000000000000000000000000000001400000000000000000000000000000000000000000000000000000000000000000000000000000000000000000000000000000000000000000000000000000000000000000000000000000000000000000000000000000000000000000000000000000000000000000000000000000000000000000000000000000000000000000000000000000000000000000000000000000000000000000000000000000000000000000000000000000000000000000000000000000000000000000000000000000000000000000000000000000000000000000000000000000000000000000000000000000000000000000000000000000000000000000000000000000000000000000000000000000000000000000000000000000000
#02418:00000000000000000000000000000000001400000000000000000000000000000000000000000000000000000000000000000000000000000000000000000000
#00316:00000012
#00318:13000000000000000000000000120000
#00313:00000012
#0031b:0023000000000000
#00416:12
#00418:00120000000013000000130000000000
#00415:00131313
#0041b:00120000230000002300000023000000
#00412:00232323
#00015:00131313
#00012:00232323
#0001b:00232323
#00115:0013001313001300
#00112:0023000000002300
#00118:0053002323000000
#0011b:00000023
#00218:00131313
#0021b:00232323
#00212:00232323
#00515:1313000013000000
#00512:2323001300001300
#00518:0000000000130000
#0051b:2300000023000000000000000000000000000000000000001353535353535353
#00615:1353535353535353530000001300000000000000130000000000000000000000
#00618:00131313
#00612:00232323
#0061b:53232323
#00718:1313000013000000
#00715:00130013
#0071b:2323002300230023
#00712:2323002300230023
#0081b:00130000
#00818:23130000
#00815:00130000
#00812:00130000
#00810:41
#01012:00130000
#01015:0013130000000000
#01018:13130000
#0101b:00130000
#01215:00130000
#01212:00130000
#01218:13130000
#0121b:00130000
#0141b:00130000
#01418:0013130000000000
#01412:00130000
#01415:13130000
#0091b:0023002300000013
#00918:0023002300000000
#00912:000000000000000000000000000000000000000000000000000000000000000000000000000000000000000000000000000000000000000000000000000000000000000000737373530000000000000000000000000000000000000000000000000000000000000000000000000000000000000000000000000000000000000000000000000000000000000000000000000000000000000000000000000000000000000000000000000000000000000000000000000000000000000000000000
#01115:0023002300000013
#01112:0023002300000000
#0111b:000000000000000000000000000000000000000000000000000000000000000000000000000000000000000000000000000000000000000000000000000000000000000000737373530000000000000000000000000000000000000000000000000000000000000000000000000000000000000000000000000000000000000000000000000000000000000000000000000000000000000000000000000000000000000000000000000000000000000000000000000000000000000000000000
#0131b:000000000000000000000000000000000000000000000000000000000000000000000000000000000000000000000000000000000000000000000000000000000000000000000073530000000000000000000000000000000000000000000000000000000000000000000000000000000000000000000000000000000000000000000000000000000000000000000000000000000000000000000000000000000000000000000000130000000000000000000000000000000000000000000000
#01312:000000000000000000000000000000000000000000000000000000000000000000000000000000000000000000000000000000000000000000000000000000000000000000000073530000000000000000000000000000000000000000000000000000000000000000000000000000000000000000000000000000000000000000000000000000000000000000000000000000000000000000000000000000000000000000000000130000000000000000000000000000000000000000000000
#01315:0023002300000000
#01318:0023002300000000
#01618:00120012000013001300001300130016
#01616:0012000000000000
#01615:0000000013130013
#01612:0000005300130000
#0161b:0000001300001300
#01712:0012120000000000
#01716:00000012000012000000000000120000
#0171a:00000000001200120000000000000000
#01714:0000000012120000
#01718:00000000000000000012000000000000
#0171c:00000000000000000000001200000000
#01719:00000012
#01713:0000000000000012
#0181c:1200001200001200
#01817:12120000
#01812:00120000
#01819:00000000000000120012000000120000
#01816:0000000012120012
#01813:00000000000000000000001200000012
#01810:41
#01916:12
#01919:00120000000000000000000000000000
#01917:000000000000000000000000000000000000000000000000000000000000000000000000000000000000000000000000001200000000000000000000000000000000000000000000120000000000000000000000000000000000000000000000000000000000000000000000000000000000000000000000000000000000000000000000000000000000000000000000000000000000000000000000000000000000000000000000000000000000000000000000000000000000000000000000
#01912:0000001212000012
#01915:00000000000000000012001200000012
#01918:0000000000121200
#0191b:00000000000000000000000000120000
#0191c:00520000
#02018:1212000000000000
#0201b:00120000000000000000000000000000
#02015:00000012000000000000000000000000
#02012:00125200
#02019:0000000012120000
#02016:00000000000052000000001200000000
#0201c:0000000012120000
#02014:00000000005200520000000000000000
#02116:00120000120012000000000000000000
#02118:00005200000000120000000000000000
#02115:0012
#02119:0000000000120000
#02112:00520000000000001200001200000000
#0211c:0000520000120000
#0211a:00000052000000000000000000000000
#02219:12
#0221c:12
#02212:0013130000131300
#0221b:0013001313000013
#02218:0000005300000053
#02215:0000000000530000
#02216:52
#02312:0013130000001300
#0231b:13130013
#02318:00000000000000130000130013000013
#02315:00005300000000001300000000000013
#02812:0000231300000000
#02815:0000130023130000
#02818:5300130013002313
#0281b:53131313
#0291b:2313130000000000
#02912:00130000
#02915:00130000
#02918:00130000
#02917:000000000000000000000000000000000000000000000000000000000000000000000000000000000000000000000000000000000000000000000000000000000000000000000000000000000000000000000000000000000000000000000000000000000000000000000000000000000000000000000000000000000000000000000000000000000000000000000000000000000000000000000000000000000000000000000000000000000000000000000000000000000000000000000000000000000000000000000000000000000000000000000000000000000000000000000000000000000000000000000000000000000000000000000000000000000000000000000000000000000000000000000000000000000000000000000000000000000000000000000000000000000000000000000000000000000000000000000000000000000000000000000000000000000000000000000000000000000000000000000000000000000000000000000000000000000000000000727272
#03016:0000001400140000
#0301a:00000014
#0301f:00210000
#0301b:00230000
#03018:00230000
#03012:0023
#03015:0023
#03017:52
#0311b:00001313
#03118:0000000013131300
#0311a:0014000000000000
#03115:0000000000130023
#03112:0000000000005423
#03110:41
#0321b:23130013
#03216:00130013
#03214:0000001300130000
#03212:0013000013000000
#03217:0013000013000000
#03218:23
#03312:00130013
#03317:00130013
#03319:0000001300130000
#0331b:0013000013000000
#03316:0013000013000000
#03416:0000001400140000
#03412:00230014
#03415:00230000
#0341b:0023
#03418:0023
#0361b:0013001300131300
#03616:0014140000001400
#03612:23130013
#03618:0000001300130013
#03615:23000000000000130013000000000000
#03715:13001300130000000000000000130000
#03712:000000000000000000000000000000000000000000000000000000000000000000000000000000000000000000000000130000000000000000000000000000000000000000000000000000000000000000000000000000000000000000000000000000000000000000000000000000000000000000000000000000000000000000000000000000000000000000000000000000000000000000000000000000000000000000000000000000000000000000000000000000000000000000000000000000000000000000000000000000000000000000000000001400000000000000000000000000000000000000000000000000000000000000000000000000000000000000000000000000000000000000000000000000000000000000000000130000000000000000000000000000000000000000000000000000000000000000000000000000000000000000000000130000000000000000000000000000000000000000000000000000000000000000000000000000000000000000000000
#03718:000000000000000000000000000000000000000000000000000000000000000000000000000000000000000000000000000000000000000000000000000000000000000000000000000000000000000000000000000000000000000000000000130000000000000000000000000000000000000000000000000000000000000000000000000000000000000000000000001400000000000000000000000000000000000000000000000000000000000000000000000000000000000000000000000000000000000000000000000000000000000000000000000000000000000000000000000000000000000000000000000000000000000000000000000000000000000000000000000000000000000000000000000000000000000000000000530000000000000000000000000000000000000000000000000000000000000000000000000000000000000000000000000000000000000000000000000000000000000000000000130000000000000000000000000000000000000000000000
#0371a:000000000000000000000000000000000000000000000000000000000000000000000000000000000000000000000000000000000000000000000000000000000000000000000000001400000000000000000000000000000000000000000000000000000000000000000000000000000000000000000000000000000000000000000000000000000000000000000000000000000000000000000000000000000000000000000000000000000000000000000000000000000000000000000000
#03714:00000000000000000014000000000000
#0371b:00000053
#03815:13230000
#0381b:00130013000000002300000000000000
#03818:0013000023000000
#03816:0000001400140000
#03812:00230014
#04012:23130013
#04017:00130013
#04019:0000001300130000
#0401b:0013000013000000
#04016:0013000013000000
#04015:23
#0411b:00130013
#04116:00130013
#04114:0000001300130000
#04112:0013000013000000
#04117:0013000013000000
#0421a:0000140000140000
#04216:0000140000540014
#04218:00000014
#04212:0000000000540000
#02612:00160000
#0261a:000000000000000000000000000000000000000000000000000000000000000000000000000000000000000000000000000000000000000000000000000000000000000000000000000000000000000000000000000000000000000000000000000000000000001400000000000000000000000000000000000000000000000000000000000000000000000000000000000000000000000000000000000000000000000000000000000000000000000000000000000000000000000000000000000000000000000000000000000000000000000000000000000000000000000000000000000000000000000000000000000000000000000000000000000000000000000000000000000000000000000000000000000000000000000000000000000000000000000000000000000000000000000000000000000000000000000000000000000000000000000000000000000000000000000000000000000000000000000000000000000000000000000000000000000000000000000000000000
#02618:53000000000000000000000000000000001400000000000000000000000000000000000000000000000000000000000000000000000000000000000000000000
#0261b:53
#04314:14
#04312:0014140000230024
#04315:0000001300000000
#04318:0013
#0431a:0000000000140000
#0431b:00230000
#04317:00230000
#04316:0000000000230024
#04412:00131313
#04418:0000130013001313
#04415:0000001300130013
#04416:24
#0441a:24
#0441b:00232323
#04410:41
#04512:13132300
#04515:23001300000000001300000000130000
#04518:0013130000001300
#0451b:00231313
#0451a:0000000000000013
#04514:00000000000000000000000000000013
#04517:0000000000000013
#04619:13
#04613:00130000000000000000000000000000
#04618:0013000000000000
#04612:00000013000000000000000013000000
#04616:13
#04615:0013000000000000
#0461b:00130000
#0501b:00000013
#05018:0000000000000013
#05016:54540000
#05115:1323
#05112:0013130023001400
#0511b:00132300
#05114:0000001300000000
#05119:0000001300000000
#05116:00000000000000000000000014000014
#05118:0023
#05110:0041
#0471b:00130000
#04712:00000013
#05217:0013
#05219:0000000000130000
#0521b:00000013
#05214:0013
#05216:0000000000130024
#05218:0016000000001300
#05212:000000000000000000000000000000000000000000000000000000000000000000000000000000000000000000000000000000000000000000000000000000000000000000000000000000000000000000000000000000000000000000000000160000000000000000000000000000000000000000000000000000000000000000000000000000000000000000000000000000000000000000000000000000000000000000000000000000000000000000000000000000000000000000000000000000000000000000000000000000000000000000000000000000000000000000000000000000000000000000000000000000000000000000000000000000000000000000000000000000000000000000000000000000000000000000000074540000000000000000000000000000000000000000000000000000000000000000000000000000000000000000000000240000000000000000000000000000000000000000000000000000000000000000000000000000000000000000000000
#05315:0013130013131300
#05318:0000131313000000
#05312:0013000000001300
#0531b:00000000000013000000000000000013
#05316:24
#0531a:24
#05418:0013130013131300
#05415:0000131313000000
#0541b:0013000000001300
#05412:00000000000013000000000000000013
#05516:00001400240014002400140014000014
#0551a:0014000024001400
#05512:00240000
#05916:0000241424141400
#05912:00130013000000002400000014000000
#0591a:0000240000000014
#05918:13
#05915:0013000000000000
#0601a:14
#06016:1400001300130024
#0601b:00130013
#06019:0000001300130000
#06017:0013
#06018:00130013
#06014:0013
#06012:000000000000000000000000000000000000000000000000000000000000000000000000000000000000000000000000000000000000000000000000000000000000000000000000000000000000000000000000000000000000000000000000000000000000000000000000000000000000000000000000000000000000000000000000000000000000000000000000000000000000000000000000000000000000000000000000000000000000000000000000000000000000000000000000000000000000000000000000000000000000000000000000000000000000000000000000000000000000000000000000000000000000000000000000000000000000000000000000000000000000000000000000000000000000000000000074540000000000000000000000000000000000000000000000000000000000000000000000000000000000000000000000240000000000000000000000000000000000000000000000000000000000000000000000000000000000000000000000
#06010:41
#06118:0013130013131300
#06115:0000131313000000
#0611b:0013000000001300
#06112:00000000000013000000000000000013
#06116:24
#0611a:24
#06215:0013130013131300
#06218:0000131313000000
#06212:0013000000001300
#0621b:00000000000013000000000000000013
#06312:0000001313000000
#0631b:0013000000001300
#06318:0013000000005300
#06315:0053
#06412:1313000000000023
#0641b:0000001313000000
#06415:1313000000000000
#06418:0053
#0661b:00001313
#06618:16000000130000000000000053130000
#06615:000000000000000000000000000000000000000000000000000000000000000000000000000000000000000000000000130000000000000000000000000000000000000000000000001300000000000000000000000000000000000000000000000000000000000000000000000000000000000000000000000000000000000000000000000000000000000000000000530000000000000000000000000000000000000000000000130000000000000000000000000000000000000000000000
#06612:00000000130000000000000053000013
#06619:0000001300000000
#06617:000000000000000000000000000000000000000000000000000000000000000000000000000000000000000000000000000000000000000000000000000000000000000000000000000000000000000000000000000000000000000000000000000000000000000000000000000000000000000000000000000000000000000000000000000000000000000000000000001300000000000000000000000000000000000000000000000000000000000000000000000000000000000000000000000000000000000000000000000000000000000000000000000000000000000000000000000000000000000000000000000000000000000000000000000000000000000000000000000000000000000000000000000000000000000000000000000000000000000000000000000000000000000000000000000000000000000000000000000000000000000000000000000000000000000000000000000000000000000000000000000000000000000000000000000000000000000000000000
#0671b:13
#06718:00130000000000000000000000000000
#06715:0013000000000000
#06712:00000013000000000000000000000000
#06716:00140000
#06915:0000001300130000
#06918:00131313
#06912:00232323
#0691b:00232323
#07018:1313000023000000
#0701a:0000000000000000000000000000000000000000000000001454545454545454
#0701b:2323002300000000
#07012:2323000000002300
#07015:0000000000230000
#07118:0000001300130000
#07115:00001313
#07116:1454545454545454540000000000000000000000000000000000000000000000
#0711b:00232323
#0711b:00230000
#07112:00232323
#0711a:54
#07215:1313000000000000
#07218:00000012
#07216:00000000000024002400000000120000
#0721b:2323000000001200
#07212:2323000024000000
#0721a:0000002400000000
#07318:1200001300130000
#07316:00120000000000000000000000000000
#07313:00120000000000000000000000000000
#07315:00131313
#0731b:00232323
#07312:00232323
#06515:530000000000000000000000000000000000000000000000000000000000000000000000000000000000000000000000000000000000000000000000000000000000000000000000000000000000000000000000000000000000000000000000000000000000000000000000000000000000000000000000000000000000000000000000000000000000000000000000130000000000000000000000000000000000000000000000000000000000000000000000000000000000000000000000190000000000000000000000000000000000000000000000000000000000000000000000000000000000000000000000000000000000000000000000000000000000000000000000000000000000000000000000000000000000000000000000130000000000000000000000000000000000000000000000000000000000000000000000000000000000000000000000001300000000000000000000000000000000000000000000000000000000000000000000000000000000000000000000
#06512:23130013
#06517:0000000000000013
#06516:00140000
#0681a:00140000
#06812:00140000
#06816:000000000000000000000000000000000000000000000000000000000000000000000000000000000000000000000000000000000000000000000000000000000000000000000000000000000000000000000000000000000000000000000000000000000000000000000000000000000000000000000000000000000000000000000000000000000000000000000000000000000000000000000000000000000000000000000000000000000000000000000000000000000000000000000000000000000000000000000000000000000000000000000000000000000000000000000000000000000000000000000000000000000000000000000000000000000000000000000000000000000000000000000000000000000000000000007474540000000000000000000000000000000000000000000000000000000000000000000000000000000000000000000000000000000000000000000000000000000000000000000000000000000000000000000000000000000000000000000000
#07415:1313000023000000
#07412:2300000023000000000000002300000000000000000000001454545454545454
#0741b:2323000000002300
#07418:0000000000230000
#07515:0000001300130000
#07518:00001313
#07516:1454545454545454540000000000000000000000000000000000000000000000
#07512:54232323
#07512:00230000
#0751b:00232323
#07618:1313000023000000
#07616:00000012
#0761c:00000000000000000000000000120000
#07619:00000000000000000000000000120000
#0761b:2323000000000000
#07612:2323000000000000
#07615:0000002300000000
#07712:00120000000000000000000000000000
#07718:12
#07715:00120000000000000000000000000000
#03512:0014000013001300
#03515:0000000013131300
#03518:0000000000130023
#0351b:0000000000000023
#0351a:00000054
#03912:0014000013001300
#03915:0000000013131300
#03918:0000000000130023
#0391b:0000000000000023
#0391a:00000054
#05818:13001300130000000014000000130000
#0581b:0013000000001313
#05815:00000000130000000000000053000013
#05812:000000000000000000000000000000000000000000000000000000000000000000000000000000000000000000000000000000000000000000000000000000000000000000000000001400000000000000000000000000000000000000000000000000000000000000000000000000000000000000000000000000000000000000000000000000000000000000000000530000000000000000000000000000000000000000000000000000000000000000000000000000000000000000000000
#05814:000000000000000000000000000000000000000000000000000000000000000000000000000000000000000000000000000000000000000000000000000000000000000000000000000000000000000000000000000000000000000000000000000000000000000000000000000000000000000000000000000000000000000000000000000000000000000000000000001400000000000000000000000000000000000000000000000000000000000000000000000000000000000000000000000000000000000000000000000000000000000000000000000000000000000000000000000000000000000000000000000000000000000000000000000000000000000000000000000000000000000000000000000000000000000000000000000000000000000000000000000000000000000000000000000000000000000000000000000000000000000000000000000000000000000000000000000000000000000000000000000000000000000000000000000000000000000000000000
#0581a:000000000000000000000000000000000000000000000000000000000000000000000000000000000000000000000000000000000000000000000000000000000000000000000000000000000000000000000000000000000000000000000000000000000000000000000000000000000000000000000000000000000000000000000000000000000000000000000000000000000000000000000000000000000000000000000000000000000000000000000000000000000000000000000000000000000000000000000000000000000000000000000000001400000000000000000000000000000000000000000000000000000000000000000000000000000000000000000000000000000000000000000000000000000000000000000000000000000000000000000000000000000000000000000000000000000000000000000000000000000000000000000000000000000000000000000000000000000000000000000000000000000000000000000000000000000000000000000000
#05712:2413001300131300
#05716:2414140000001400
#0571b:00130013
#05715:0000001300130013
#05718:00000000000000130013000000000000
#02512:530000000000000000000000000000000000000000000000000000000000000000000000000000000000000000000000000000000000000000000000000000000000000000000000000000000000000000000000000000000000000000000000000000000000001400000000000000000000000000000000000000000000000000000000000000000000000000000000000000000000000000000000000000000000000000000000000000000000000000000000000000000000000000000000000000000000000000000000000000000000000000000000000000000000000000000000000000000000000000000000000000000000000000000000000000000000000000000000000000000000000000000000000000000000000000000000000000000000000000000000000000000000000000000000000000000000000000000000000000000000000000000000000000000000000000000000000000000000000000000000000000000000000000000000000000000000000000000000
#02514:00000000000000000000000000000000001400000000000000000000000000000000000000000000000000000000000000000000000000000000000000000000
#02515:53
#02718:00160000
#02712:530000000000000000000000000000000000000000000000000000000000000000000000000000000000000000000000000000000000000000000000000000000000000000000000000000000000000000000000000000000000000000000000000000000000001400000000000000000000000000000000000000000000000000000000000000000000000000000000000000000000000000000000000000000000000000000000000000000000000000000000000000000000000000000000000000000000000000000000000000000000000000000000000000000000000000000000000000000000000000000000000000000000000000000000000000000000000000000000000000000000000000000000000000000000000000000000000000000000000000000000000000000000000000000000000000000000000000000000000000000000000000000000000000000000000000000000000000000000000000000000000000000000000000000000000000000000000000000000
#02714:00000000000000000000000000000000001400000000000000000000000000000000000000000000000000000000000000000000000000000000000000000000
#02715:53
#05616:0000000013000024
#05614:0000000000130000
#05612:0016000000001300
#05619:0013
#05617:0000000000130000
#05615:00000013
#05618:00160000
#0561a:000000000000000000000000000000000000000000000000000000000000000000000000000000000000000000000000000000000000000000000000000000000000000000000000000000000000000000000000000000000000000000000000000000000000000000000000000000000000000000000000000000000000000000000000000000000000000000000000000000000000000000000000000000000000000000000000000000000000000000000000000000000000000000000000000000000000000000000000000000000000000000000000000000000000000000000000000000000000000000000000000000000000000000000000000000000000000000000000000000000000000000000000000000000000000000000074540000000000000000000000000000000000000000000000000000000000000000000000000000000000000000000000240000000000000000000000000000000000000000000000000000000000000000000000000000000000000000000000
#0151b:0023002300000000
#01512:0023002300000000
#01518:000000000000000000000000000000000000000000000000000000000000000000000000000000000000000000000000000000000000000000000000000000000000000000000073530000000000000000000000000000000000000000000000000000000000000000000000000000000000000000000000000000000000000000000000000000000000000000000000000000000000000000000000000000000000000000000000000000000000000000000000000000000000000000000000
#01515:000000000000000000000000000000000000000000000000000000000000000000000000000000000000000000000000000000000000000000000000000000000000000000000073530000000000000000000000000000000000000000000000000000000000000000000000000000000000000000000000000000000000000000000000000000000000000000000000000000000000000000000000000000000000000000000000000000000000000000000000000000000000000000000000
#04812:5c
#04813:005a0000
#04814:0058
#04815:00000056
#04916:54545454
#0035b:0013000000000000
#00355:0013000000000000
#0005b:00000063
#00252:00000053
#00552:0013000000000000
#0075b:0013000000130000
#00752:0000001300000013
#00858:13530000
#0085b:00530000
#00855:00530000
#00852:00530000
#01052:00630000
#01055:00630000
#01058:00630000
#0105b:00630000
#01255:00530000
#01252:00530000
#01258:00630000
#0125b:00630000
#0145b:00530000
#01458:00530000
#01452:00630000
#01455:00630000
#01658:00000000000000000000000000000016
#02056:00000000000000000000005200000000
#02152:00000000000000000000005200000000
#0295b:00530000
#02958:00530000
#02955:00530000
#02952:00530000
#0305b:00430000
#03058:00430000
#03052:00000000000000003300000000000014
#03055:0033
#0305a:00000064
#03056:00000000000000000000000000000014
#03255:00000000000000000000000000000013
#03252:00000000000000000000000000000013
#0325b:43000063
#03256:00000063
#03258:43
#03357:00000053
#03352:00000053
#03358:00000000000000000000000000000013
#0335b:00000000000000000000000000000013
#03452:00330054
#03455:00330000
#0345b:0043
#03458:0043
#0345a:00000000000000000000000000000014
#03456:00000000000000000000000000000014
#04057:00000053
#04052:33000053
#04058:00000000000000000000000000000013
#0405b:00000000000000000000000000000013
#04055:33
#04156:00000063
#0415b:00000063
#04155:00000000000000000000000000000013
#04152:00000000000000000000000000000013
#03852:00330054
#03855:00330000
#0385b:0043
#03858:0043
#0385a:00000000000000000000000000000014
#03856:00000000000000000000000000000014
#02252:00230023
#0225b:0023
#0235b:23
#0425a:00540000
#04256:00540000
#0435a:0000000000140000
#04356:0000000000000034
#04352:0000000000000034
#04456:44
#0445a:44
#0455b:00130000
#04552:0013
#0465b:00530000
#04652:00000053
#0475b:00530000
#04752:00000053
#0515b:00531300
#05158:0013
#05155:0013
#05152:00531354
#05159:0000002300000000
#05154:0000002300000000
#05156:00000000000000000000000054000054
#0515a:00000000000000000000000000000014
#05355:00000000000000000000000053000013
#05352:00000053
#05356:44
#0535a:44
#05358:00000000000000000000000000000013
#0535b:00000000000000000000000000000013
#05256:0000000000000034
#05252:0000260000000034
#05258:0056001600000000
#05458:00000000000000000000000063000013
#0545b:00000063
#05452:00000000000000000000000000000013
#05455:00000000000000000000000000000013
#05552:00000000340000000000000000000014
#05556:00000000340000004400000064000064
#0555a:00004464
#05952:00003454
#0595a:00440000
#05956:00443400
#0605a:54
#06056:5400000000000034
#06052:0000000000000034
#06156:44
#0615a:44
#06158:00000000000000000000000063000013
#0615b:00000063
#06152:00000000000000000000000000000013
#06155:00000000000000000000000000000013
#06255:00000000000000000000000053000013
#06252:00000053
#0625b:00000000000000000000000000000013
#06258:00000000000000000000000000000013
#0705b:0013000000000000
#07252:0013000034000000
#07256:0000004434000000
#0725a:0000004400000000
#0635b:0053000000000000
#06352:0053
#0645b:0053
#06452:0053000000000033
#06552:33530053
#06555:000000000000000000000000000000000000000000000000000000000000000000000000000000000000000000000000000000000000000000000000000000000000000000000000000000000000000000000000000000000000000000000000000000000000000000000000000000000000000000000000000000000000000000000000000000000000000000000000230000000000000000000000000000000000000000000000000000000000000000000000000000000000000000000000000000000000000000000000000000000000000000000000000000000000000000000000000000000000000000000000000000000000000000000000000000000000000000000000000000000000000000000000000000000000000000000000530000000000000000000000000000000000000000000000000000000000000000000000000000000000000000000000002300000000000000000000000000000000000000000000000000000000000000000000000000000000000000000000
#06557:0000000000000023
#06652:00530000
#06655:000000000000000000000000000000000000000000000000000000000000000000000000000000000000000000000000530000000000000000000000000000000000000000000000002300000000000000000000000000000000000000000000000000000000000000000000000000000000000000000000000000000000000000000000000000000000000000000000000000000000000000000000000000000000000000000000000000000000000000000000000000000000000000000000
#06658:00530000
#06657:000000000000000000000000000000000000000000000000000000000000000000000000000000000000000000000000000000000000000000000000000000000000000000000000000000000000000000000000000000000000000000000000000000000000000000000000000000000000000000000000000000000000000000000000000000000000000000000000002300000000000000000000000000000000000000000000000000000000000000000000000000000000000000000000000000000000000000000000000000000000000000000000000000000000000000000000000000000000000000000000000000000000000000000000000000000000000000000000000000000000000000000000000000000000000000000000000000000000000000000000000000000000000000000000000000000000000000000000000000000000000000000000000000000000000000000000000000000000000000000000000000000000000000000000000000000000000000000000
#06659:0000002300000000
#0685a:00640000
#06852:00640000
#07452:0013000000000000
#0765b:0013000000000000
#07655:0000003300000000
#07658:0043
#0315a:0064000000000000
#03156:0000001400000000
#03155:0000000000000033
#03152:0000000000000033
#03552:0054000000000000
#03556:0000001400000000
#03558:0000000000000043
#0355b:0000000000000043
#03655:33
#03652:33
#03952:0054000000000000
#03956:0000001400000000
#0395b:0000000000000043
#03958:0000000000000043
#05656:0000000000000044
#0565a:0000000000000044
#05652:0066001600000000
#05658:00260000
#05756:34
#05752:34
#05052:0013
#05055:0013
#05058:0013
#0505b:0013
#02652:00360000
#0265a:000000000000000000000000000000000000000000000000000000000000000000000000000000000000000000000000000000000000000000000000000000000000000000000000000000000000000000000000000000000000000000000000000000000000005400000000000000000000000000000000000000000000000000000000000000000000000000000000000000000000000000000000000000000000000000000000000000000000000000000000000000000000000000000000000000000000000000000000000000000000000000000000000000000000000000000000000000000000000000000000000000000000000000000000000000000000000000000000000000000000000000000000000000000000000000000000000000000000000000000000000000000000000000000000000000000000000000000000000000000000000000000000000000000000000000000000000000000000000000000000000000000000000000000000000000000000000000000000
#02658:00000000000000000000000000000000005400000000000000000000000000000000000000000000000000000000000000000000000000000000000000000000
#0375a:000000000000000000000000000000000000000000000000000000000000000000000000000000000000000000000000000000000000000000000000000000000000000000000000006400000000000000000000000000000000000000000000000000000000000000000000000000000000000000000000000000000000000000000000000000000000000000000000000000000000000000000000000000000000000000000000000000000000000000000000000000000000000000000000
#03758:000000000000000000000000000000000000000000000000000000000000000000000000000000000000000000000000000000000000000000000000000000000000000000000000000000000000000000000000000000000000000000000000000000000000000000000000000000000000000000000000000000000000000000000000000000000000000000000000006400000000000000000000000000000000000000000000000000000000000000000000000000000000000000000000000000000000000000000000000000000000000000000000000000000000000000000000000000000000000000000000000000000000000000000000000000000000000000000000000000000000000000000000000000000000000000000000000000000000000000000000000000000000000000000000000000000000000000000000000000000000000000000000000000000000000000000000000000000000000000000000000000000000000000000000000000000000000000000000
#03754:00000000000000000024000000000000
#03752:000000000000000000000000000000000000000000000000000000000000000000000000000000000000000000000000000000000000000000000000000000000000000000000000000000000000000000000000000000000000000000000000000000000000000000000000000000000000000000000000000000000000000000000000000000000000000000000000000000000000000000000000000000000000000000000000000000000000000000000000000000000000000000000000000000000000000000000000000000000000000000000000002400000000000000000000000000000000000000000000000000000000000000000000000000000000000000000000000000000000000000000000000000000000000000000000000000000000000000000000000000000000000000000000000000000000000000000000000000000000000000000000000000000000000000000000000000000000000000000000000000000000000000000000000000000000000000000000
#02552:000000000000000000000000000000000000000000000000000000000000000000000000000000000000000000000000000000000000000000000000000000000000000000000000000000000000000000000000000000000000000000000000000000000000006400000000000000000000000000000000000000000000000000000000000000000000000000000000000000000000000000000000000000000000000000000000000000000000000000000000000000000000000000000000000000000000000000000000000000000000000000000000000000000000000000000000000000000000000000000000000000000000000000000000000000000000000000000000000000000000000000000000000000000000000000000000000000000000000000000000000000000000000000000000000000000000000000000000000000000000000000000000000000000000000000000000000000000000000000000000000000000000000000000000000000000000000000000000
#02554:00000000000000000000000000000000006400000000000000000000000000000000000000000000000000000000000000000000000000000000000000000000
#02758:00460000
#02752:000000000000000000000000000000000000000000000000000000000000000000000000000000000000000000000000000000000000000000000000000000000000000000000000000000000000000000000000000000000000000000000000000000000000006400000000000000000000000000000000000000000000000000000000000000000000000000000000000000000000000000000000000000000000000000000000000000000000000000000000000000000000000000000000000000000000000000000000000000000000000000000000000000000000000000000000000000000000000000000000000000000000000000000000000000000000000000000000000000000000000000000000000000000000000000000000000000000000000000000000000000000000000000000000000000000000000000000000000000000000000000000000000000000000000000000000000000000000000000000000000000000000000000000000000000000000000000000000
#02754:00000000000000000000000000000000006400000000000000000000000000000000000000000000000000000000000000000000000000000000000000000000
#05852:000000000000000000000000000000000000000000000000000000000000000000000000000000000000000000000000000000000000000000000000000000000000000000000000005400000000000000000000000000000000000000000000000000000000000000000000000000000000000000000000000000000000000000000000000000000000000000000000000000000000000000000000000000000000000000000000000000000000000000000000000000000000000000000000
#05854:000000000000000000000000000000000000000000000000000000000000000000000000000000000000000000000000000000000000000000000000000000000000000000000000000000000000000000000000000000000000000000000000000000000000000000000000000000000000000000000000000000000000000000000000000000000000000000000000005400000000000000000000000000000000000000000000000000000000000000000000000000000000000000000000000000000000000000000000000000000000000000000000000000000000000000000000000000000000000000000000000000000000000000000000000000000000000000000000000000000000000000000000000000000000000000000000000000000000000000000000000000000000000000000000000000000000000000000000000000000000000000000000000000000000000000000000000000000000000000000000000000000000000000000000000000000000000000000000
#05858:00000000000000000024000000000000
#0585a:000000000000000000000000000000000000000000000000000000000000000000000000000000000000000000000000000000000000000000000000000000000000000000000000000000000000000000000000000000000000000000000000000000000000000000000000000000000000000000000000000000000000000000000000000000000000000000000000000000000000000000000000000000000000000000000000000000000000000000000000000000000000000000000000000000000000000000000000000000000000000000000000002400000000000000000000000000000000000000000000000000000000000000000000000000000000000000000000000000000000000000000000000000000000000000000000000000000000000000000000000000000000000000000000000000000000000000000000000000000000000000000000000000000000000000000000000000000000000000000000000000000000000000000000000000000000000000000000
#0245a:000000000000000000000000000000000000000000000000000000000000000000000000000000000000000000000000000000000000000000000000000000000000000000000000000000000000000000000000000000000000000000000000000000000000005400000000000000000000000000000000000000000000000000000000000000000000000000000000000000000000000000000000000000000000000000000000000000000000000000000000000000000000000000000000000000000000000000000000000000000000000000000000000000000000000000000000000000000000000000000000000000000000000000000000000000000000000000000000000000000000000000000000000000000000000000000000000000000000000000000000000000000000000000000000000000000000000000000000000000000000000000000000000000000000000000000000000000000000000000000000000000000000000000000000000000000000000000000000
#02458:00000000000000000000000000000000005400000000000000000000000000000000000000000000000000000000000000000000000000000000000000000000
#0003b0:00000013
#001380:5323000000000000
#002320:00000013
#003350:3323000000000000
#008320:00130000
#009320:0000002300000000
#008351:00130000
#008321:00000053
#009321:000000000000000000000000000000000000000000000000000000000000000000000000000000000000000000000000000000000000000000000000000000000000000000000023000000000000000000000000000000000000000000000000000000000000000000000000000000000000000000000000000000000000000000000000000000000000000000000000000000000000000000000000000000000000000000000000000000000000000000000000000000000000000000000000
#008382:00130000
#008322:00000000000000000000000000530000
#009322:000000000000000000000000000000000000000000000000000000000000000000000023000000000000000000000000000000000000000000000000000000000000000000000000000000000000000000000000000000000000000000000000
#0083b3:00130000
#008323:0000000000000053
#009323:00000000000000000000000000000000000000000000002300000000000000000000000000000000000000000000000000000000000000000000000000000000
#0103b0:00130000
#0113b0:0000002300000000
#010381:00130000
#0103b1:00000053
#0113b1:000000000000000000000000000000000000000000000000000000000000000000000000000000000000000000000000000000000000000000000000000000000000000000000023000000000000000000000000000000000000000000000000000000000000000000000000000000000000000000000000000000000000000000000000000000000000000000000000000000000000000000000000000000000000000000000000000000000000000000000000000000000000000000000000
#010352:00130000
#0103b2:00000000000000000000000000530000
#0113b2:000000000000000000000000000000000000000000000000000000000000000000000023000000000000000000000000000000000000000000000000000000000000000000000000000000000000000000000000000000000000000000000000
#010323:00130000
#0103b3:0000000000000053
#0113b3:00000000000000000000000000000000000000000000002300000000000000000000000000000000000000000000000000000000000000000000000000000000
#012320:00130000
#013320:0000002300000000
#012351:00130000
#012321:00000053
#013321:000000000000000000000000000000000000000000000000000000000000000000000000000000000000000000000000000000000000000000000000000000000000000000000023000000000000000000000000000000000000000000000000000000000000000000000000000000000000000000000000000000000000000000000000000000000000000000000000000000000000000000000000000000000000000000000000000000000000000000000000000000000000000000000000
#0123b2:00130000
#0133b2:0000002300000000
#012383:00130000
#0123b3:00000053
#0133b3:000000000000000000000000000000000000000000000000000000000000000000000000000000000000000000000000000000000000000000000000000000000000000000000023000000000000000000000000000000000000000000000000000000000000000000000000000000000000000000000000000000000000000000000000000000000000000000000000000000000000000000000000000000000000000000000000000000000000000000000000000000000000000000000000
#014380:00130000
#015380:0000002300000000
#0143b2:00130000
#014382:00000053
#015382:000000000000000000000000000000000000000000000000000000000000000000000000000000000000000000000000000000000000000000000000000000000000000000000023000000000000000000000000000000000000000000000000000000000000000000000000000000000000000000000000000000000000000000000000000000000000000000000000000000000000000000000000000000000000000000000000000000000000000000000000000000000000000000000000
#014353:00130000
#015353:0000002300000000
#014321:00130000
#014351:00000053
#015351:000000000000000000000000000000000000000000000000000000000000000000000000000000000000000000000000000000000000000000000000000000000000000000000023000000000000000000000000000000000000000000000000000000000000000000000000000000000000000000000000000000000000000000000000000000000000000000000000000000000000000000000000000000000000000000000000000000000000000000000000000000000000000000000000
#016320:0000132300000000
#0193c0:0012220000000000
#020360:00000000000000000000001200000000
#021320:00220000000000000000000000000000
#021320:00000000000000000000001200000000
#022360:22
#022320:00130000
#022380:0000002300000000
#0223b0:0013
#022350:0000000000230000
#022320:00000013
#022380:0000000000000023
#0233b0:13
#023350:0023000000000000
#0243b0:00130000
#0243a0:000000000000000000000000000000000000000000000000000000000000000000000000000000000000000000000000000000000000000000000000000000000000000000000000000000000000000000000000000000000000000000000000000000000000005400000000000000000000000000000000000000000000000000000000000000000000000000000000000000000000000000000000000000000000000000000000000000000000000000000000000000000000000000000000000000000000000000000000000000000000000000000000000000000000000000000000000000000000000000000000000000000000000000000000000000000000000000000000000000000000000000000000000000000000000000000000000000000000000000000000000000000000000000000000000000000000000000000000000000000000000000000000000000000000000000000000000000000000000000000000000000000000000000000000000000000000000000000000
#024340:00000000000000000000000000000000000000000000000000000000000000000000000000000000000000000000000000000000000000000000000000000054
#025350:23
#024383:00000000000000000000000000000000135400000000000000000000000000000000000000000000000000000000000000000000000000000000000000000000
#024323:000000000000000000000000000000000000000000000000000000000000000000000000000000000000000000000000000000000000000000000000000000000000000000000000000000000000000000000000000000000000000000000000000000000000000000000000000000000000000000000000000000000000000000000000000000000000000000000000000000000000000000000000000000000000000000000000000000000000000000000000000000000000000000000000000000000000000000000000000000000000000000000000000000000000000000000000000000000000000000000000000000000000000000000000000000000000000000000000000000000000000000000000000000000000000000000000000000000000000000000000000000000000000000000000000000000000000000000000000000000000000000000000000000000000000000000000000000000000000000000000000000000000000000000000000000000054000000000000
#025323:23
#025323:000000000000000000000000000000000000000000000000000000000000000000000000000000000000000000000000000000000000000000000000000000000000000000000000000000000000000000000000000000000000000000000000130000000000005400000000000000000000000000000000000000000000000000000000000000000000000000000000000000000000000000000000000000000000000000000000000000000000000000000000000000000000000000000000000000000000000000000000000000000000000000000000000000000000000000000000000000000000000000000000000000000000000000000000000000000000000000000000000000000000000000000000000000000000000000000000000000000000000000000000000000000000000000000000000000000000000000000000000000000000000000000000000000000000000000000000000000000000000000000000000000000000000000000000000000000000000000000000
#025383:00000000000000000000000000000000000000000000000000000000000000000000000000000000000000000000000000000000000000000000000000000054
#026383:23
#025350:00130000
#025340:00000000000000000000000000000000005400000000000000000000000000000000000000000000000000000000000000000000000000000000000000000000
#0253a0:000000000000000000000000000000000000000000000000000000000000000000000000000000000000000000000000000000000000000000000000000000000000000000000000000000000000000000000000000000000000000000000000000000000000000000000000000000000000000000000000000000000000000000000000000000000000000000000000000000000000000000000000000000000000000000000000000000000000000000000000000000000000000000000000000000000000000000000000000000000000000000000000000000000000000000000000000000000000000000000000000000000000000000000000000000000000000000000000000000000000000000000000000000000000000000000000000000000000000000000000000000000000000000000000000000000000000000000000000000000000000000000000000000000000000000000000000000000000000000000000000000000000000000000000000000000054000000000000
#0263b0:23
#0263b0:00130000
#0263a0:000000000000000000000000000000000000000000000000000000000000000000000000000000000000000000000000000000000000000000000000000000000000000000000000000000000000000000000000000000000000000000000000000000000000005400000000000000000000000000000000000000000000000000000000000000000000000000000000000000000000000000000000000000000000000000000000000000000000000000000000000000000000000000000000000000000000000000000000000000000000000000000000000000000000000000000000000000000000000000000000000000000000000000000000000000000000000000000000000000000000000000000000000000000000000000000000000000000000000000000000000000000000000000000000000000000000000000000000000000000000000000000000000000000000000000000000000000000000000000000000000000000000000000000000000000000000000000000000
#026340:00000000000000000000000000000000000000000000000000000000000000000000000000000000000000000000000000000000000000000000000000000054
#027350:23
#026383:00000000000000000000000000000000135400000000000000000000000000000000000000000000000000000000000000000000000000000000000000000000
#026323:000000000000000000000000000000000000000000000000000000000000000000000000000000000000000000000000000000000000000000000000000000000000000000000000000000000000000000000000000000000000000000000000000000000000000000000000000000000000000000000000000000000000000000000000000000000000000000000000000000000000000000000000000000000000000000000000000000000000000000000000000000000000000000000000000000000000000000000000000000000000000000000000000000000000000000000000000000000000000000000000000000000000000000000000000000000000000000000000000000000000000000000000000000000000000000000000000000000000000000000000000000000000000000000000000000000000000000000000000000000000000000000000000000000000000000000000000000000000000000000000000000000000000000000000000000000054000000000000
#027323:23
#027323:000000000000000000000000000000000000000000000000000000000000000000000000000000000000000000000000000000000000000000000000000000000000000000000000000000000000000000000000000000000000000000000000130000000000005400000000000000000000000000000000000000000000000000000000000000000000000000000000000000000000000000000000000000000000000000000000000000000000000000000000000000000000000000000000000000000000000000000000000000000000000000000000000000000000000000000000000000000000000000000000000000000000000000000000000000000000000000000000000000000000000000000000000000000000000000000000000000000000000000000000000000000000000000000000000000000000000000000000000000000000000000000000000000000000000000000000000000000000000000000000000000000000000000000000000000000000000000000000
#027383:00000000000000000000000000000000000000000000000000000000000000000000000000000000000000000000000000000000000000000000000000000054
#028383:23
#027350:00130000
#027340:00000000000000000000000000000000005400000000000000000000000000000000000000000000000000000000000000000000000000000000000000000000
#0273a0:000000000000000000000000000000000000000000000000000000000000000000000000000000000000000000000000000000000000000000000000000000000000000000000000000000000000000000000000000000000000000000000000000000000000000000000000000000000000000000000000000000000000000000000000000000000000000000000000000000000000000000000000000000000000000000000000000000000000000000000000000000000000000000000000000000000000000000000000000000000000000000000000000000000000000000000000000000000000000000000000000000000000000000000000000000000000000000000000000000000000000000000000000000000000000000000000000000000000000000000000000000000000000000000000000000000000000000000000000000000000000000000000000000000000000000000000000000000000000000000000000000000000000000000000000000000054000000000000
#0283b0:23
#029320:00130000
#030370:22
#029353:00130000
#029373:000000000000000000000000000000000000000000000000000000000000000000000000000000000000000000000000000000000000000000000000000000000000000000000000000000000000000000000000000000000000000000000000000000000000000000000000000000000000000000000000000000000000000000000000000000000000000000000000000000000000000000000000000000000000000000000000000000000000000000000000000000000000000000000000000000000000000000000000000000000000000000000000000000000000000000000000000000000000000000000000000000000000000000000000000000000000000000000000000000000000000000000000000000000000000000000000000000000000000000000000000000000000000000000000000000000000000000000000000000000000000000000000000000000000000000000000000000000000000000000000000000000000000000000000000000000000000000000022
#029381:00130000
#029371:000000000000000000000000000000000000000000000000000000000000000000000000000000000000000000000000000000000000000000000000000000000000000000000000000000000000000000000000000000000000000000000000000000000000000000000000000000000000000000000000000000000000000000000000000000000000000000000000000000000000000000000000000000000000000000000000000000000000000000000000000000000000000000000022
#0293b2:00130000
#029372:0000000000000000000000000000000000000000000000000000000000000000000000000000000000000000000000000000000000000000000000000000000000000000000000000000000000000000000000000000000000000000000000000000000000000000000000000000000000000000000000000000000000000022
#0303a0:00000014
#030320:00000000000000000000000000000024
#030363:00000000000000000000000014000024
#0313a3:0014000000000000
#031323:0000003400002400
#031360:0014002400000000
#0323b3:00000013
#032353:00000000000000000000000000000023
#032360:00000013
#032320:00000000000000000000000000000023
#033320:00000013
#033380:00000000000000000000000000000023
#033373:00000013
#0333b3:00000000000000000000000000000023
#034323:00000014
#0343a3:00000000000000000000000000000024
#034360:00000000000000000000000014000024
#035320:0014000000000000
#0353a0:0000003400002400
#035363:0014002400000000
#037380:000000000000000000000000000000000000000000000000000000000000000000000000000000000000000000000000000000000000000000000000000000000000000000000000000000000000000000000000000000000000000000000000000000000000000000000000000000000000000000000000000000000000000000000000000000000000000000000000135400000000000000000000000000000000000000000000000000000000000000000000000000000000000000000000000000000000000000000000000000000000000000000000000000000000000000000000000000000000000000000000000000000000000000000000000000000000000000000000000000000000000000000000000000000000000000000054230000000000000000000000000000000000000000000000000000000000000000000000000000000000000000000000000000000000000000000000000000000000000000000000000000000000000000000000000000000000000000000000
#037320:000000000000000000000000000000000000000000000000000000000000000000000000000000000000000000000000000000000000000000000000000000000000000000000000000000000000000000000000000000000000000000000000000000000000000000000000000000000000000000000000000000000000000000000000000000000000000000000000000000000000000000000000000000000000000000000000000000000000000000000000000000000000000000000000000000000000000000000000000000000000000000000000005400000000000000000000000000000000000000000000000000000000000000000000000000000000000000000000000000000000000000000000000000000000000000000000000000000000000000000000000000000000000000000000000000000000000000000000000000000000000000000000000000000000000000000000000000000000000000000000000000000000000000000000000000000000000000000000
#0373b3:0000001300002300
#0373a3:000000000000000000000000000000000000000000000000000000000000000000000000000000000000000000000000000000000000000000000000000000000000000000000000005400000000000000000000000000000000000000000000000000000000000000000000000000000000000000000000000000000000000000000000000000000000000000000054000000000000000000000000000000000000000000000000000000000000000000000000000000000000000000000000
#037343:00000000000000000054000000000000
#038323:00000014
#0383a3:00000000000000000000000000000024
#038360:00000000000000000000000014000024
#039320:0014000000000000
#0393a0:0000003400002400
#039363:0014002400000000
#040320:00000013
#040380:00000000000000000000000000000023
#040373:00000013
#0403b3:00000000000000000000000000000023
#0413b3:00000013
#041353:00000000000000000000000000000023
#041360:00000013
#041320:00000000000000000000000000000023
#0423a0:0014340000000000
#042360:0000005400240000
#042363:00140000
#042323:0000005400240000
#0463b3:00130000
#047363:000000000000000000000000000000000000000000000000000000000000000000000000000000000000000000000000000000000000000000000000000000000000000000000000000000000000000000000000000000000000000000000000000000000000000000000000000000000000000000000000000000000000000000000000000000000000000000000000000000000000000000000000000000000000000000000000000000000000000000000000000000000000000000000054
#050363:000000000000000000000000000000000000000000000000000000000000000000000000000000000000000000000000000000000000000000000000000000000000000000000000000000000000000000000000000000000000000000000000005400000000000000000000000000000000000000000000000000000000000000000000000000000000000000000000000000000000000000000000000000000000000000000000000000000000000000000000000000000000000000000000000000000000000000000000000000000000000000000000000000000000000000000000000000000000000000000000000000000000000000000000000000000000000000000000000000000000000000000000000000000000000000000000000000000000000000000000000000000000000000000000000000000000000000000000000000000000000000000000000000000000000000000000000000000000000000000000000000000000000000000000000000000000000000000000
#050383:0023
#046320:00000013
#048360:000000000000000000000000000000000000000000000000000000000000000000000000000000000000000000000000000000000000000000000000000000000000000000000000000000000000000000000000000000000000000000000054000000000000000000000000000000000000000000000000000000000000000000000000000000000000000000000000000000000000000000000000000000000000000000000000000000000000000000000000000000000000000000000000
#050360:000000000000000000000000000000000000000000000000000000000000000000000000000000000000000000000000000000000000000000000000000000000000000000000000000000000000000000000000000000000000000000000054000000000000000000000000000000000000000000000000000000000000000000000000000000000000000000000000000000000000000000000000000000000000000000000000000000000000000000000000000000000000000000000000000000000000000000000000000000000000000000000000000000000000000000000000000000000000000000000000000000000000000000000000000000000000000000000000000000000000000000000000000000000000000000000000000000000000000000000000000000000000000000000000000000000000000000000000000000000000000000000000000000000000000000000000000000000000000000000000000000000000000000000000000000000000000000000000
#050350:0023
#0473b1:00130000
#048361:000000000000000000000000000000000000000000000000000000000000000000000000000000000000000000000000000000000000000000000000000000000000000000000000000000000000000000000000000000000000000000000000000000000000000000000000000000000000000000000000000000000000000000000000000000000000000000000000000000000000000000000000000000000000000000000000000000000000000000000000000000000000000000000054
#050361:0000000000000000000000000000000000000000000000000000000000000000005400000000000000000000000000000000000000000000000000000000000000000000000000000000000000000000000000000000000000000000000000000000000000000000000000000000000000000000000000000000000000000000
#0503b1:0023
#047322:00000013
#049362:000000000000000000000000000000000000000000000000000000000000000000000000000000000000000000000000000000000000000000000000000000000000000000000000000000000000000000000000000000000000000000000054000000000000000000000000000000000000000000000000000000000000000000000000000000000000000000000000000000000000000000000000000000000000000000000000000000000000000000000000000000000000000000000000
#050362:0000000000000000000000000000000000000000000000000000000000000054000000000000000000000000000000000000000000000000000000000000000000000000000000000000000000000000000000000000000000000000000000000000000000000000000000000000000000000000000000000000000000000000
#050322:0023
#051380:00132300
#0513b1:00132300
#051391:0000005300000000
#051352:00132300
#051323:00132300
#051343:0000005300000000
#051321:00000014
#051361:00000000000000000000000000000034
#052321:0054000000002400
#051362:00000014
#0513a2:00000000000000000000000000000024
#052382:0016002600000000
#052322:00560000
#053321:00000013
#053351:00000000000000000000000000000023
#053352:00000013
#053382:00000000000000000000000000000023
#0543b2:00000013
#054382:00000000000000000000000000000023
#054381:00000013
#054351:00000000000000000000000000000023
#0553a1:00000014
#055361:00000000000000000000000000000034
#0563a1:0054000000002400
#055362:00000014
#055322:00000000000000000000000000000024
#056322:0016002600000000
#056382:00560000
#058351:0000001300002300
#058341:000000000000000000000000000000000000000000000000000000000000000000000000000000000000000000000000000000000000000000000000000000000000000000000000000000000000000000000000000000000000000000000000000000000000000000000000000000000000000000000000000000000000000000000000000000000000000000000000005400000000000000000000000000000000000000000000000000000000000000000000000000000000000000000000000000000000000000000000000000000000000000000000000000000000000000000000000000000000000000000000000000000000000000000000000000000000000000000000000000000000000000000000000000000000000000000054000000000000000000000000000000000000000000000000000000000000000000000000000000000000000000000000000000000000000000000000000000000000000000000000000000000000000000000000000000000000000000000000
#0583a1:000000000000000000000000000000000000000000000000000000000000000000000000000000000000000000000000000000000000000000000000000000000000000000000000000000000000000000000000000000000000000000000000000000000000000000000000000000000000000000000000000000000000000000000000000000000000000000000000000000000000000000000000000000000000000000000000000000000000000000000000000000000000000000000000000000000000000000000000000000000000000000000000005400000000000000000000000000000000000000000000000000000000000000000000000000000000000000000000000000000000000000000000000000000000000000000000000000000000000000000000000000000000000000000000000000000000000000000000000000000000000000000000000000000000000000000000000000000000000000000000000000000000000000000000000000000000000000000000
#058322:000000000000000000000000000000000000000000000000000000000000000000000000000000000000000000000000000000000000000000000000000000000000000000000000135400000000000000000000000000000000000000000000000000000000000000000000000000000000000000000000000000000000000000000000000000000000000000000054230000000000000000000000000000000000000000000000000000000000000000000000000000000000000000000000
#058382:00000000000000000054000000000000
#059322:00000014
#059362:0000000000000054
#060362:34
#060322:0054000000002400
#0603a1:14
#060321:000000000000000000000000000000000000000000000000000000000000000000000000000000000000000000000000005400000000000000000000000000000000000000000000000000000000000000000000000000000000000000000000000000000000000000000000000000000000000000000000000000000000000000000000000000000000000000000000000000000000000000000000000000000000000000000000000000000000000000000000000000000000000000000000000000000000000000000000000000000000000000000000000000000000000000000000000000000000000000000000000000000000000000000000000000000000000000000000000000000000000000000000000000000000000000000024000000000000000000000000000000000000000000000000000000000000000000000000000000000000000000000000000000000000000000000000000000000000000000000000000000000000000000000000000000000000000000000000
#0613b2:00000013
#061382:00000000000000000000000000000023
#061381:00000013
#061351:00000000000000000000000000000023
#062321:00000013
#062351:00000000000000000000000000000023
#062352:00000013
#062382:00000000000000000000000000000023
#0633b2:0013000000000000
#063352:0000003323000000
#063321:0013
#063381:00000023
#064321:0013000000000000
#064381:0000003323000000
#0643b2:0013
#064352:0000000000000053
#065352:23
#065322:00133333
#065352:000000000000000000000000000000000000000000000000000000000000000000000000000000000000000000000000000000000000000000000000000000000000000000000000000000000000000000000000000000000000000000000000000000000000000000000000000000000000000000000000000000000000000000000000000000000000000000000000530000000000000000000000000000000000000000000000000000000000000000000000000000000000000000000000000000000000000000000000000000000000000000000000000000000000000000000000000000000000000000000000000000000000000000000000000000000000000000000000000000000000000000000000000000000000000000000000000000000000000000000000000000000000000000000000000000000000000000000000000000000000000000000000005300000000000000000000000000000000000000000000000000000000000000000000000000000000000000000000
#066322:33333323
#066352:000000000000000000000000000000000000000000000000000000000000000000000000000000000000000000000000000000000000000000000000000000000000000000000000005300000000000000000000000000000000000000000000000000000000000000000000000000000000000000000000000000000000000000000000000000000000000000000000000000000000000000000000000000000000000000000000000000000000000000000000000000000000000000000000
#065351:00000013
#065371:0000000000000053
#066351:33333323
#066371:000000000000000000000000000000000000000000000000000000000000000000000000000000000000000000000000000000000000000000000000000000000000000000000000000000000000000000000000000000000000000000000000000000000000000000000000000000000000000000000000000000000000000000000000000000000000000000000000005300000000000000000000000000000000000000000000000000000000000000000000000000000000000000000000000000000000000000000000000000000000000000000000000000000000000000000000000000000000000000000000000000000000000000000000000000000000000000000000000000000000000000000000000000000000000000000000000000000000000000000000000000000000000000000000000000000000000000000000000000000000000000000000000000000000000000000000000000000000000000000000000000000000000000000000000000000000000000000000
#066383:00133323
#066393:0000005300000000
#0673a1:00140000
#0683a1:00340000
#068361:000000000000000000000000000000000000000000000000000000000000000000000000000000000000000000000000000000000000000000000000000000000000000000000000000000000000000000000000000000000000000000000000000000000000000000000000000000000000000000000000000000000000000000000000000000000000000000000000000000000000000000000000000000000000000000000000000000000000000000000000000000000000000000000000000000000000000000000000000000000000000000000000000000000000000000000000000000000000000000000000000000000000000000000000000000000000000000000000000000000000000000000000000000000000000000000024000000000000000000000000000000000000000000000000000000000000000000000000000000000000000000000000000000000000000000000000000000000000000000000000000000000000000000000000000000000000000000000000
#067323:00000014
#068323:00340000
#068363:000000000000000000000000000000000000000000000000000000000000000000000000000000000000000000000000000000000000000000000000000000000000000000000000000000000000000000000000000000000000000000000000000000000000000000000000000000000000000000000000000000000000000000000000000000000000000000000024000000000000000000000000000000000000000000000000000000000000000000000000000000000000000000000000
#068362:00140024
#0059b0:00000013
#0069b0:23
#006951:13230000
#020921:00122200
#020961:0000005200000000
#021961:00120000000000000000000000000000
#0219c1:00220000
#0709a1:00000014
#0719a1:24
#071960:14240000
#074920:00000014
#075920:24
#075961:14240000
