This file was generated by Ched 2.7.0.0.
#TITLE ""
#ARTIST ""
#DESIGNER ""
#DIFFICULTY 0
#PLAYLEVEL
#SONGID ""
#WAVE ""
#WAVEOFFSET 0
#JACKET ""
#REQUEST "ticks_per_beat 480"
#00002: 4
#BPM01: 184
#00008: 01
#TIL00: ""
#VOLUME: ""
#HISPEED 00
#MEASUREHS 00
#00118:0012001200120012
#0011a:00120012
#0011c:1212
#00115:12
#00218:0012001200120012
#0021a:00120012
#0021c:1212
#00212:72
#00318:0012001200120012
#0031a:00120012
#0031c:1212
#00315:72
#00418:0012001200120012
#0041a:00120012
#0041c:1212
#00413:72
#00814:00120012
#00816:0012001200120012
#00812:1212
#0081a:00000000000000000000000000120000
#00818:00000000000000000000000072000012
#0081b:72
#01016:00140000
#01012:0026
#01018:0026
#01112:1426
#01118:0026
#01216:00142400
#01212:0024
#0121c:0000525252525252
#0121a:00000000005200520052005200520052
#0131b:0000130000130013
#01318:0000001300001300
#01312:2424
#01316:2424
#0131a:0024
#0141b:0000130000130000
#01418:0000001300001300
#01412:2424
#01416:2424
#0141a:2424
#01715:0000000000000016
#01712:24002616
#01718:26
#0171a:00000054
#01818:16
#01816:00000014
#01815:00160000
#0181a:0014
#01812:0026
#02016:00000014
#02012:1614
#02015:00160000
#02018:0026
#02119:00000015
#02112:1400000026001414
#02118:16
#02212:1454
#02216:00000014
#02218:00162600
#02312:16000015
#0231a:1400000000001414
#02318:0026
#0241a:1454
#02415:00001353
#02412:00161353
#02417:0000000000530053
#02414:0000000000530053
#02615:00000016
#02612:00141600
#0261a:14
#02616:0014000000000000
#02618:0026
#02818:0016
#02815:00000016
#02812:1426
#02816:0014000000000000
#0281a:00140000
#03012:00141600
#03015:00000016
#0301a:14
#03016:0014000000000000
#03018:0026
#03112:1626
#03118:1616
#0321a:1414
#03218:0014000000140000
#03216:00140014
#03214:0000001400000014
#03212:56
#0331b:00130000
#03318:26000000000000130000000000000000
#03312:54131300
#03313:0000000000130000
#03314:00000013
#03315:0013
#03316:0000000000130000
#03317:00000013
#03418:1300000000000013
#03412:0000001c
#03416:00130000
#03414:0013
#0341b:000000000000000000000000000000000000000000000000000000000000000000000000000000000000000000000000000000000000000000000000000000000000000000000000000000000000000000000000000000000000000000000000000000000000000000000000000000000000000000000000000000000000000000000000000000000000000000000000000000000000000000000000000000000000000000000000000000000000000000000000000000000000000000000000000000000000000000000000000000000000000000000000000000000000000000000000000000000000000000000000000000000000000000000000000000000000000000000000000000000000000000000000000000000000000000000073000000000000000000000000000000000000000000000000000000000000000000000000000000000000000000000000000000000000000000000000000000000000000000000000000000000000000000000000000000000000000000000000
#03419:000000000000000000000000000000000000000000000000000000000000000000000000000000000000000000000000000000000000000000000000000000000000000000000000000000000000000000000000000000000000000000000000000000000000000000000000000000000000000000000000000000000000000000000000000000000000000000000073000000000000000000000000000000000000000000000000000000000000000000000000000000000000000000000000
#03417:000000000000000000000000000000000000000000000000000000000000000000000000000000000000000000000000000000000000000000000000000000000000000000000000000000000000000000000000000000000000000000000000000000000000000000000000000000000000000000000000000000000000000000000000000000000000000000000000000000000000000000000000000000000000000000000000000000000000000000000000000000000000000000000000000000000000000000000000000000000000000000000000000000000000000000000000000000000000000000000000000000000000000000000000000000000000000000000000000000000000000000000000000000000000000000000073000000000000000000000000000000000000000000000000000000000000000000000000000000000000000000000000000000000000000000000000000000000000000000000000000000000000000000000000000000000000000000000000
#03515:1300001600000000
#03512:1300000000000016
#0351b:00005313
#03518:0013
#03612:0013
#03615:13005313
#03618:53000000130000000000001300000000
#0371a:1400141414000000
#03713:0000000000000014
#03714:00000014
#03712:5314
#03710:41
#0391a:14
#03912:54131313
#03916:0000541400000014
#0391b:0000000000130000
#03918:0000000000130000
#04016:140000000000000000000000000000000000000000000000000000000000000000000000000000000000000000000000000000000000000000000000000000000000000000000000000000000000000000000000000000000000000000000000000000000000000000000000000000000000000000000000000000000000000000000000000000000000000000000000000000000000000000000000000000000000000000000000000000000000000000000000000000000000000000000074007400000000000000000000000000000000000000000000000000000000000000000000000000000000000000000000000000000000000000000000000000000000000000000000000000000000000000000000000000000000000000000000000000000000000000000000000000000000000000000000000000000000000000000000000000000000000000000000000000000000000000000000000000000000000000000000000000000000000000000000000000000000000000000000
#0401a:1400001400001400
#04012:0000140000000014
#04018:00130000
#04015:00002613
#04112:14131313
#0411b:00131300
#04116:0000001400000000
#04118:00000000000000000000001300000000
#04115:00000013
#03812:1400141414000000
#0381a:5414
#03818:00000014
#03819:0000000000000014
#0451b:0013
#04518:0000130000130000
#04515:00530053
#04512:0053
#0451a:54
#04612:1313
#04615:13130000
#0461b:5300000053131300
#04610:41
#04618:00530000
#04616:00000054
#04818:0000530013131313
#04815:00000000000053000013001300130013
#0481b:0053000013131313
#04812:53000000000000005313001300130013
#04912:0012001200120012
#04915:0012001200120012
#04918:0022
#0491a:00220022
#0491c:22
#05015:0000000000000013
#05012:0000000000000013
#0501c:2222
#0501a:0022002200000000
#05018:00220000
#05412:5300001414000000
#05418:0000000000000013
#0541b:0000000000000013
#0541a:14
#05812:14000013
#05815:00000000000000000000000000130000
#05818:0000000000000013
#0581b:53000000000000000000000000000013
#0581a:0000001414000000
#05918:00132313
#05915:2300531300001300
#0591f:11
#05912:23532300
#0591b:0023
#0611a:00142400
#06116:2400541424001400
#06112:24542414
#0621a:00142400
#06216:2400541424001400
#06212:24542414
#06018:00132313
#06015:2300531300001300
#0601b:0023
#06012:23532300
#06318:0014000000000014
#06315:00140014
#06312:2400001424140000
#06316:2424
#0631a:2424
#0641a:2414000024000014
#06417:00140014
#06414:0000001400140000
#06412:2424
#06416:2424
#06512:2414240024002400
#06516:2400241424002414
#0651a:2400240024142400
#07612:00005614
#0761a:00000014
#07616:00000014
#07618:00262600
#06812:00162613
#06815:00000013
#06818:0000000056000013
#0681b:0000000000000013
#08316:00000014
#08312:0000000027000014
#08319:0000001500000000
#08318:66
#08416:14142400
#08412:0014000024000000
#0841a:000000000000000000000000000000000000000000000000000000000000000000000000000000000000000000000000000000000000000000000000000000000000000000000000141400000000000000000000000000000000000000000000000000000000000000000000000000000000000000000000000000000000000000000000000000000000000000000000000000000000000000000000000000000000000000000000000000000000000000000000000000000000000000000000
#08512:14142400
#08518:00140000
#08519:0014
#0851a:00000014
#08510:41
#08513:00000054
#0861a:00140014
#08614:0014
#08612:00540014
#08618:0024
#0871a:14142400
#08714:00140000
#08713:0014
#08712:14000014
#08716:14
#08719:00000054
#08812:00140014
#0881a:00540014
#08818:0014
#08814:0024
#08912:14142400
#08918:00140000
#08919:0014
#0891a:14000014
#08916:14
#08913:00000054
#0901a:00140000
#09018:00001353
#0901b:00001353
#09012:00542400
#09016:0000000000530053
#09019:0000000000530053
#09118:66140000
#09112:24240000
#0911a:00002424
#09212:1424
#09216:14
#09214:00000014
#09218:00000014
#0921a:00545400
#09314:00140000
#0931a:24240000
#09312:24002424
#09316:24
#0941a:1424
#09416:14
#09418:00000014
#09414:00000014
#09412:00545400
#09518:00140000
#09512:24240000
#0951a:24002424
#09516:24
#09612:1424
#09616:14
#09614:00000014
#09618:00000014
#0961a:00545400
#04312:1400141414000000
#04319:0000000000000014
#04318:53000014
#0431a:0014
#0441a:1400141414000000
#04412:54001414
#04413:0000000000000014
#04718:1300005313000053
#04712:5313000053130000
#0471b:00530053
#04715:0000005300000053
#04212:13531353
#04218:00135313
#0421b:13
#0271a:00141414
#02712:1424
#02716:0000140000000014
#02718:16
#02714:00000054
#02912:16141414
#0291a:1424
#02916:0000140000000014
#02918:00000054
#07012:0000000056000013
#07015:0000000000000013
#07018:00162613
#0701b:00000013
#07215:00000013
#07218:00005613
#07212:00162600
#07812:00262614
#0781a:00000014
#07816:00000014
#07818:0056
#0801a:00000014
#08016:0000000000140000
#08012:00005614
#08018:00262600
#00516:7212001200120012
#00514:00120012
#00512:1212
#00616:0012001200120012
#00614:00120012
#00612:1212
#0061c:72
#00716:0012001200120012
#00714:00120012
#00712:1212
#00719:72
#00912:1426
#00918:0026
#01918:00002616
#01915:0000000000000016
#01912:16000054
#0191a:24
#02512:66141414
#0251a:1424
#02516:0000140000000014
#02510:41
#02518:00000054
#0511a:14145400
#05116:00140014
#05112:00001414
#05212:5414
#05218:14145414
#05214:00140014
#05318:1353
#05315:00130053
#05312:5413
#0531b:00530000
#05718:00130053
#0571b:0013
#05715:1353
#05710:41
#05712:00530000
#0571a:54
#05512:14145400
#05516:00140014
#0551a:00001414
#0561a:5414
#05614:14145414
#05618:00140014
#01512:24242424
#01516:24242424
#0151a:24242424
#01612:2424242424000000
#01616:2424242424680000
#0161a:2424242424006400
#01613:00000000000000000000000000000000006b0000000000000000000000000000
#01614:0000000000000000006a000000000000
#01615:0000000000000000000000000000000000000069000000000000000000000000
#01617:0000000000000000000000000000000000000000006700000000000000000000
#01618:00000000000000000000006600000000
#01619:0000000000000000000000000000000000000000000000650000000000000000
#06612:2424240024002600
#06616:2424006400640000
#0661a:2424000064006400
#06618:00000000260000640000006400000000
#06613:0000000000000000006400000000000000640000000000000000000000000000
#06614:00000000006400000064000000000000
#06615:0000000000000000000000640000000000000064000000000000000000000000
#06617:0000000000000000000000000064000000000000006400000000000000000000
#06619:0000000000000000000000000000006400000000000000640000000000000000
#07312:23
#07315:23
#07314:00230000
#07317:00230000
#07316:0023
#07319:0023
#07318:00000023
#0731b:00000023
#07412:23
#07415:23000023
#07414:00230000
#07417:00230000
#07416:0023
#07419:0023
#07418:23000023
#0741b:00000023
#0741a:00230000
#07413:0023
#09812:0000000023232323
#0981b:0000000023232323
#09816:000000000000000000000000000000000000000000000000000000000000000000000000000000000000000000000000000000000000000000000000000000000000000000000000000000000000000000000000000000000000000000000000000000000000000000000000000000000000000000000000000000000000000000000000000000000000000000000000000000000000000000000000000000000000000000007474540000000000000000000000000000000000000000000000
#09712:24
#09716:24
#0971a:24
#06718:2600000026002626
#06712:260000000000000000000000000000000000000000000000000000000000000000000000000000000000000000000000000000000000000000000000000000000000000000000000000000000000000000000000000000000000000000000000000000000000000000000000000000000000000000000000000000000000000000000000000000000000000000000000000000000000000000000000000000000000000000000000000000000000000000000000000000000000000000000000000000000000000000000000000000000000000000000000000000000000000000000000000000000000000000000000000000000000000000000000000000000000000000000000000000000000000000000000000000000000000000000000000000000000000000000000000000000000000000000000000000000000000000000000000000000000000000000000668600000000000000000000000000000000000000000000000000000000000000000000000000000000000000000000
#0671f:21
#06715:008900000000000000000000000000000000000000000000000000000000000000000000000000000000000000000000000000000000000000000000000000000000000000000000000000000000000000000000000000000000000000000000000000000000000000000000000000000000000000000000000000000000000000000000000000000000000000000000000000000000000000000000000000000000000000000000000000000000000000000000000000000000000000000000000000000000000000000000000000000000000000000000000000000000000000000000000000000000000000000000000000000000000000000000000000000000000000000000000000000000000000000000000000000000000000000000000000000000000000000000000000000000000000000000000000000000000000000000000000000000000000000000000000000000000000000000000000000000000000000000000000000000000000000000000000000000000000000000
#07518:26002626
#07512:2600000000000000000000000000000000000000000000000000000000000000000000000000000000000000000000000000000000000000000000000000000000000000000000000000000000000000000000000000000000000000000000000000000000000000000000000000000000000000000000000000000000000000000000000000000000000000000000000000000000000000000000000000000000000000000000000000000000000000000000000000000000000000000000000000000000000000000000000000000000000000000000000000000000000000000000000000000000000000000000000000000000000000000000000000000000000000000000000000000000000000000000000000000000000000000000000000000000000000000000000000000000000000000000000000000000000000000000000000000000000000000000762c8c00000000000000000000000000000000000000000000000000000000000000000000000000000000000000000000
#07515:008900000000000000000000000000000000000000000000000000000000000000000000000000000000000000000000000000000000000000000000000000000000000000000000000000000000000000000000000000000000000000000000000000000000000000000000000000000000000000000000000000000000000000000000000000000000000000000000000000000000000000000000000000000000000000000000000000000000000000000000000000000000000000000000000000000000000000000000000000000000000000000000000000000000000000000000000000000000000000000000000000000000000000000000000000000000000000000000000000000000000000000000000000000000000000000000000000000000000000000000000000000000000000000000000000000000000000000000000000000000000000000000000000000000000000000000000000000000000000000000000000000000000000000000000000000000000000000000
#06912:268900000000000000000000000000000000000000000000000000000000000000000000000000000000000000000000000000000000000000000000000000000000000000000000000000000000000000000000000000000000000000000000000000000000000000000000000000000000000000000000000000000000000000000000000000000000000000000000000000000000000000000000000000000000000000000000000000000000000000000000000000000000000000000000260000000000000000000000000000000000000000000000000000000000000000000000000000000000000000000000000000000000000000000000000000000000000000000000000000000000000000000000000000000000000000000000260000000000000000000000000000000000000000000000000000000000000000000000000000000000000000000000260000000000000000000000000000000000000000000000000000000000000000000000000000000000000000000000
#06918:260000000000000000000000000000000000000000000000000000000000000000000000000000000000000000000000000000000000000000000000000000000000000000000000000000000000000000000000000000000000000000000000000000000000000000000000000000000000000000000000000000000000000000000000000000000000000000000000000000000000000000000000000000000000000000000000000000000000000000000000000000000000000000000000000000000000000000000000000000000000000000000000000000000000000000000000000000000000000000000000000000000000000000000000000000000000000000000000000000000000000000000000000000000000000000000000000000000000000000000000000000000000000000000000000000000000000000000000000000000000000000000000668600000000000000000000000000000000000000000000000000000000000000000000000000000000000000000000
#06910:41
#07118:2600000026002626
#07112:260000000000000000000000000000000000000000000000000000000000000000000000000000000000000000000000000000000000000000000000000000000000000000000000000000000000000000000000000000000000000000000000000000000000000000000000000000000000000000000000000000000000000000000000000000000000000000000000000000000000000000000000000000000000000000000000000000000000000000000000000000000000000000000000000000000000000000000000000000000000000000000000000000000000000000000000000000000000000000000000000000000000000000000000000000000000000000000000000000000000000000000000000000000000000000000000000000000000000000000000000000000000000000000000000000000000000000000000000000000000000000000000668600000000000000000000000000000000000000000000000000000000000000000000000000000000000000000000
#07115:008900000000000000000000000000000000000000000000000000000000000000000000000000000000000000000000000000000000000000000000000000000000000000000000000000000000000000000000000000000000000000000000000000000000000000000000000000000000000000000000000000000000000000000000000000000000000000000000000000000000000000000000000000000000000000000000000000000000000000000000000000000000000000000000000000000000000000000000000000000000000000000000000000000000000000000000000000000000000000000000000000000000000000000000000000000000000000000000000000000000000000000000000000000000000000000000000000000000000000000000000000000000000000000000000000000000000000000000000000000000000000000000000000000000000000000000000000000000000000000000000000000000000000000000000000000000000000000000
#07712:2689000000000000000000000000000000000000000000000000000000000000000000000000000000000000000000000000000000000000000000000000000000000000000000000000000000000000000000000000000000000000000000000000000000000000000000000000000000000000000000000000000000000000000000000000000000000000000000000000000000000000000000000000000000000000000000000000000000000000000000000000000000000000000000002600000000000000000000000000000000000000000000000000000000000000000000000000000000000000000000000000000000000000000000000000000000000000000000000000000000000000000000000000000000000000000000002600000000000000000000000000000000000000000000000000000000000000000000000000000000000000000000002c8c00000000000000000000000000000000000000000000000000000000000000000000000000000000000000000000
#07718:260000000000000000000000000000000000000000000000000000000000000000000000000000000000000000000000000000000000000000000000000000000000000000000000000000000000000000000000000000000000000000000000000000000000000000000000000000000000000000000000000000000000000000000000000000000000000000000000000000000000000000000000000000000000000000000000000000000000000000000000000000000000000000000000000000000000000000000000000000000000000000000000000000000000000000000000000000000000000000000000000000000000000000000000000000000000000000000000000000000000000000000000000000000000000000000000000000000000000000000000000000000000000000000000000000000000000000000000000000000000000000000076000000000000000000000000000000000000000000000000000000000000000000000000000000000000000000000000
#07918:26002626
#07912:2600000000000000000000000000000000000000000000000000000000000000000000000000000000000000000000000000000000000000000000000000000000000000000000000000000000000000000000000000000000000000000000000000000000000000000000000000000000000000000000000000000000000000000000000000000000000000000000000000000000000000000000000000000000000000000000000000000000000000000000000000000000000000000000000000000000000000000000000000000000000000000000000000000000000000000000000000000000000000000000000000000000000000000000000000000000000000000000000000000000000000000000000000000000000000000000000000000000000000000000000000000000000000000000000000000000000000000000000000000000000000000000762c8c00000000000000000000000000000000000000000000000000000000000000000000000000000000000000000000
#07915:008900000000000000000000000000000000000000000000000000000000000000000000000000000000000000000000000000000000000000000000000000000000000000000000000000000000000000000000000000000000000000000000000000000000000000000000000000000000000000000000000000000000000000000000000000000000000000000000000000000000000000000000000000000000000000000000000000000000000000000000000000000000000000000000000000000000000000000000000000000000000000000000000000000000000000000000000000000000000000000000000000000000000000000000000000000000000000000000000000000000000000000000000000000000000000000000000000000000000000000000000000000000000000000000000000000000000000000000000000000000000000000000000000000000000000000000000000000000000000000000000000000000000000000000000000000000000000000000
#08112:2c2c
#08212:2c000000000000000000000000000000000000000000000000000000000000002c00000000000000000000000000000000000000000000000000000000660000
#08216:00000000000000000000000000000000000000000000000000000000000000000000000000000000000000000000000000000000000000000000000000000066
#08214:0000000000000000000000000000000000000000000000000000000000000066
#00952:0036
#00958:0036
#01252:0034
#01256:0034
#01352:3434
#01356:3434
#0135a:14
#01452:3434
#01456:3434
#01752:54
#01758:16
#02159:00000025
#02158:16
#02152:64
#02352:16000025
#0235a:54
#01852:0016
#02258:0016
#02852:0016
#03058:0016
#03158:1626
#03152:56
#01052:0036
#01058:0036
#01152:0036
#01158:0036
#03558:0053
#0355b:00000023
#03655:53000053
#03658:00230000
#0395a:54
#04056:540000000000000000000000000000000000000000000000000000000000000000000000000000000000000000000000000000000000000000000000000000000000000000000000000000000000000000000000000000000000000000000000000000000000000000000000000000000000000000000000000000000000000000000000000000000000000000000000000000000000000000000000000000000000000000000000000000000000000000000000000000000000000000000000005400000000000000000000000000000000000000000000000000000000000000000000000000000000000000000000000000000000000000000000000000000000000000000000000000000000000000000000000000000000000000000000000000000000000000000000000000000000000000000000000000000000000000000000000000000000000000000000000000000000000000000000000000000000000000000000000000000000000000000000000000000000000000000000
#04052:00240000
#0405a:00000024
#04156:001400000000000000000000000000000000000000000000000000000000000000000000000000000000000000000000000000000000000000000000000000000000000000000000000000000000000000000000000000000000000000000000000000000000000000000000000000000000000000000000000000000000000000000000000000000000000000000000000000000000000000000000000000000000000000000000000000000000000000000000000000000000000000000000000000000000000000000000000000000000000000000000000000000000000000000000000000000000000000000000000000000000000000000000000000000000000000000000000000000000000000000000000000000000000000000000000000000000000000000000000000000000000000000000000000000000000000000000000000000000000000000000000000000000000000000000000000000000000000000000000000000000000000000000000000000000000000000000
#04152:14000013
#03358:16
#03752:0054
#0375a:54
#03852:64
#0385a:0064
#0505c:0012
#05456:0014
#05452:0014
#0545a:54
#0605b:0013
#0615a:0014
#0625a:0014
#0595b:0013
#0635a:0014
#06352:14
#06452:14
#0645a:0014
#08552:5414
#08559:0054
#0855a:00000054
#08558:00540000
#0855b:13
#0875a:6414
#08754:00640000
#08753:0064
#08752:00000064
#08952:5414
#08958:00540000
#08959:0054
#0895a:00000054
#09158:16540000
#09152:5414
#0915a:00005454
#09052:0034
#09256:24
#09252:2414
#09354:00640000
#0935a:6414
#09352:00006464
#0945a:2414
#09456:24
#09558:00540000
#09552:5414
#0955a:00005454
#09652:2414
#09656:24
#04352:64
#0435a:0064
#0445a:54
#04452:0054
#07352:13
#07354:00130000
#07356:0013
#07358:00000013
#07452:13
#07454:00130000
#07456:0013
#07458:00000013
#02752:6434
#02756:00240000
#02758:16
#0275a:0054
#0295a:5444
#02956:00240000
#02952:1664
#06758:3600000000000036
#06752:360000000000000000000000000000000000000000000000000000000000000000000000000000000000000000000000000000000000000000000000000000000000000000000000000000000000000000000000000000000000000000000000000000000000000000000000000000000000000000000000000000000000000000000000000000000000000000000000000000000000000000000000000000000000000000000000000000000000000000000000000000000000000000000000000000000000000000000000000000000000000000000000000000000000000000000000000000000000000000000000000000000000000000000000000000000000000000000000000000000000000000000000000000000000000000000000000000000000000000000000000000000000000000000000000000000000000000000000000000000000000000000000465600000000000000000000000000000000000000000000000000000000000000000000000000000000000000000000
#06755:005900000000000000000000000000000000000000000000000000000000000000000000000000000000000000000000000000000000000000000000000000000000000000000000000000000000000000000000000000000000000000000000000000000000000000000000000000000000000000000000000000000000000000000000000000000000000000000000000000000000000000000000000000000000000000000000000000000000000000000000000000000000000000000000000000000000000000000000000000000000000000000000000000000000000000000000000000000000000000000000000000000000000000000000000000000000000000000000000000000000000000000000000000000000000000000000000000000000000000000000000000000000000000000000000000000000000000000000000000000000000000000000000000000000000000000000000000000000000000000000000000000000000000000000000000000000000000000000
#07558:36
#07552:3600000000000000000000000000000000000000000000000000000000000000000000000000000000000000000000000000000000000000000000000000000000000000000000000000000000000000000000000000000000000000000000000000000000000000000000000000000000000000000000000000000000000000000000000000000000000000000000000000000000000000000000000000000000000000000000000000000000000000000000000000000000000000000000000000000000000000000000000000000000000000000000000000000000000000000000000000000000000000000000000000000000000000000000000000000000000000000000000000000000000000000000000000000000000000000000000000000000000000000000000000000000000000000000000000000000000000000000000000000000000000000000003c5c00000000000000000000000000000000000000000000000000000000000000000000000000000000000000000000
#07555:005900000000000000000000000000000000000000000000000000000000000000000000000000000000000000000000000000000000000000000000000000000000000000000000000000000000000000000000000000000000000000000000000000000000000000000000000000000000000000000000000000000000000000000000000000000000000000000000000000000000000000000000000000000000000000000000000000000000000000000000000000000000000000000000000000000000000000000000000000000000000000000000000000000000000000000000000000000000000000000000000000000000000000000000000000000000000000000000000000000000000000000000000000000000000000000000000000000000000000000000000000000000000000000000000000000000000000000000000000000000000000000000000000000000000000000000000000000000000000000000000000000000000000000000000000000000000000000000
#08658:0014
#08854:0014
#06952:466900000000000000000000000000000000000000000000000000000000000000000000000000000000000000000000000000000000000000000000000000000000000000000000000000000000000000000000000000000000000000000000000000000000000000000000000000000000000000000000000000000000000000000000000000000000000000000000000000000000000000000000000000000000000000000000000000000000000000000000000000000000000000000000000000000000000000000000000000000000000000000000000000000000000000000000000000000000000000000000000000000000000000000000000000000000000000000000000000000000000000000000000000000000000000000000000000000000000000000000000000000000000000000000000000000000000000000000000000000000000000000000460000000000000000000000000000000000000000000000000000000000000000000000000000000000000000000000
#06958:460000000000000000000000000000000000000000000000000000000000000000000000000000000000000000000000000000000000000000000000000000000000000000000000000000000000000000000000000000000000000000000000000000000000000000000000000000000000000000000000000000000000000000000000000000000000000000000000000000000000000000000000000000000000000000000000000000000000000000000000000000000000000000000000000000000000000000000000000000000000000000000000000000000000000000000000000000000000000000000000000000000000000000000000000000000000000000000000000000000000000000000000000000000000000000000000000000000000000000000000000000000000000000000000000000000000000000000000000000000000000000000000366600000000000000000000000000000000000000000000000000000000000000000000000000000000000000000000
#07158:3600000000000036
#07152:360000000000000000000000000000000000000000000000000000000000000000000000000000000000000000000000000000000000000000000000000000000000000000000000000000000000000000000000000000000000000000000000000000000000000000000000000000000000000000000000000000000000000000000000000000000000000000000000000000000000000000000000000000000000000000000000000000000000000000000000000000000000000000000000000000000000000000000000000000000000000000000000000000000000000000000000000000000000000000000000000000000000000000000000000000000000000000000000000000000000000000000000000000000000000000000000000000000000000000000000000000000000000000000000000000000000000000000000000000000000000000000000465600000000000000000000000000000000000000000000000000000000000000000000000000000000000000000000
#07155:005900000000000000000000000000000000000000000000000000000000000000000000000000000000000000000000000000000000000000000000000000000000000000000000000000000000000000000000000000000000000000000000000000000000000000000000000000000000000000000000000000000000000000000000000000000000000000000000000000000000000000000000000000000000000000000000000000000000000000000000000000000000000000000000000000000000000000000000000000000000000000000000000000000000000000000000000000000000000000000000000000000000000000000000000000000000000000000000000000000000000000000000000000000000000000000000000000000000000000000000000000000000000000000000000000000000000000000000000000000000000000000000000000000000000000000000000000000000000000000000000000000000000000000000000000000000000000000000
#07752:4669000000000000000000000000000000000000000000000000000000000000000000000000000000000000000000000000000000000000000000000000000000000000000000000000000000000000000000000000000000000000000000000000000000000000000000000000000000000000000000000000000000000000000000000000000000000000000000000000000000000000000000000000000000000000000000000000000000000000000000000000000000000000000000000000000000000000000000000000000000000000000000000000000000000000000000000000000000000000000000000000000000000000000000000000000000000000000000000000000000000000000000000000000000000000000000000000000000000000000000000000000000000000000000000000000000000000000000000000000000000000000000004c6c00000000000000000000000000000000000000000000000000000000000000000000000000000000000000000000
#07758:46
#07958:36
#07952:3600000000000000000000000000000000000000000000000000000000000000000000000000000000000000000000000000000000000000000000000000000000000000000000000000000000000000000000000000000000000000000000000000000000000000000000000000000000000000000000000000000000000000000000000000000000000000000000000000000000000000000000000000000000000000000000000000000000000000000000000000000000000000000000000000000000000000000000000000000000000000000000000000000000000000000000000000000000000000000000000000000000000000000000000000000000000000000000000000000000000000000000000000000000000000000000000000000000000000000000000000000000000000000000000000000000000000000000000000000000000000000000003c5c00000000000000000000000000000000000000000000000000000000000000000000000000000000000000000000
#07955:005900000000000000000000000000000000000000000000000000000000000000000000000000000000000000000000000000000000000000000000000000000000000000000000000000000000000000000000000000000000000000000000000000000000000000000000000000000000000000000000000000000000000000000000000000000000000000000000000000000000000000000000000000000000000000000000000000000000000000000000000000000000000000000000000000000000000000000000000000000000000000000000000000000000000000000000000000000000000000000000000000000000000000000000000000000000000000000000000000000000000000000000000000000000000000000000000000000000000000000000000000000000000000000000000000000000000000000000000000000000000000000000000000000000000000000000000000000000000000000000000000000000000000000000000000000000000000000000
#0195a:64
#01952:16
#02058:0016
#02658:0016
#0255a:5444
#02556:00240000
#02552:1664
#0515a:54
#05152:0054
#05156:00240024
#05252:0054
#05258:54000024
#05254:00240000
#0585a:0014
#05852:64
#05856:0014
#08152:5c5c
#08252:5c000000000000000000000000000000000000000000000000000000000000005c00000000000000000000000000000000000000000000000000000000160000
#08254:0000000000000000000000000000000000000000000000000000000000000016
#08256:00000000000000000000000000000000000000000000000000000000000000000000000000000000000000000000000000000000000000000000000000000016
#08358:16
#08359:0000002500000000
#08352:0037
#0845a:000000000000000000000000000000000000000000000000000000000000000000000000000000000000000000000000000000000000000000000000000000000000000000000000242400000000000000000000000000000000000000000000000000000000000000000000000000000000000000000000000000000000000000000000000000000000000000000000000000000000000000000000000000000000000000000000000000000000000000000000000000000000000000000000
#08452:0034
#08456:0034
#05552:64
#05556:00240024
#0555a:0064
#0565a:0064
#05654:64000024
#05658:00240000
#001320:12
#002320:22
#002351:12
#003351:22
#003330:12
#004330:22
#004361:12
#005361:22
#0053c0:12
#0063c0:22
#006391:12
#007391:22
#0073b0:12
#0083b0:22
#008381:12000022
#0093b1:1200000000000000000000000000000000000000000000000000000000000052
#0103a1:32
#0103b1:0052000000000000000000000000000000000000000000000000000000000052
#0113a1:32
#0113b1:0052000000000000000000000000000000000000000000000000000000000000
#0123b1:000000000000000000000000000000000000000000000000000000000000000000000000000000000000000000000000000000000000000000000000000000000000000000000000000000000000000000000000000000000000000000000000000000000000000000000000000000000000000000000000000000000000000000000000000000000000000000000000000000000000000000000000000000000000000000000000000000000000000000000000000000000000000000000000000000000000000000000000000000000000000000000000000000000000000000000000000000000000000000000000000000000000000000000000000000000000000000000000000000000000000000000000000000000000000000000000000000000000000000000000000000000000000000000000000000000000000000000000000000000000000000000000000000000000000000000000000000000000000000000000000000000000000000000000000000000000000000000000000000000000000000000000000000000000000000000000000000000000000000000000000000000000000000000000000000000000000000000000000000000000000000000000000000000000000000000000000000000000000000000000000000000000000000000000000000000000000000000000000000000000000000000000000000000000000000000000000000000000000000000000000000000000000000000000000000000000000000000000000000000000000000000000000000000000000000000000000000000000000000000000000000000000000000000000000000000000000000000000000000000000000000000000000000000000000000000000000000000000000000000000000000000000000000000000000000000000000000000000000000000000000000000000000000000000000000000000000000000000000000000000000000000000000000000000000000000000000000000000000000000000000000000000000000000000000000000000000000000000000000000000000000000000000000000000000000000000000000000000000000000000000000000000000000000000000000000000000000000000000000000000000000000000000000000000000000000000000000000000000000000000000000000000000000000000000000000000000000000000000000000000000000000000000000000000000000000000000000000000000000000000000000000000000000000000000000000000000000000000000000000052
#0133a1:24
#017321:14
#0173a1:00000024
#0193a1:14
#019321:00000024
#021321:14
#021391:00000055
#022321:0024
#0233a1:14
#023321:00000055
#0243a1:0024
#0253a1:1424
#025361:00540000
#025320:0014
#025380:00000024
#027320:1424
#027360:00540000
#0273a1:0014
#027341:00000024
#0293a1:1424
#029361:00540000
#029320:0014
#029380:00000024
#031320:16
#031380:0056
#032320:26
#032320:0014
#033320:24
#0343b0:130000000000000000000000000000000000000000000000000000000000000000000000000000000000000000000000000000000000000000000000000000000000000000000000000000000000000000000000000000000000000000000000000000000000000000000000000000000000000000000000000000000000000000000000000000000000000000000000000000000000000000000000000000000000000000000000000000000000000000000000000000000000000000000000000000000000000000000000000000000000000000000000000000000000000000000000000000000000000000000000000000000000000000000000000000000000000000000000000000000000000000000000000000000000000000000023000000000000000000000000000000000000000000000000000000000000000000000000000000000000000000000000000000000000000000000000000000000000000000000000000000000000000000000000000000000000000000000000
#034391:000000000000000000000000000000000000000000000000000000000000000000000000000000000000000000000000130000000000000000000000000000000000000000000000000000000000000000000000000000000000000000000000000000000000000000000000000000000000000000000000000000000000000000000000000000000000000000000023000000000000000000000000000000000000000000000000000000000000000000000000000000000000000000000000
#034372:000000000000000000000000000000000000000000000000000000000000000000000000000000000000000000000000000000000000000000000000000000000000000000000000000000000000000000000000000000000000000000000000000000000000000000000000000000000000000000000000000000000000000000000000000000000000000000000000000000000000000000000000000000000000000000000000000000000000000000000000000000000000000000000000130000000000000000000000000000000000000000000000000000000000000000000000000000000000000000000000000000000000000000000000000000000000000000000000000000000000000000000000000000000000000000000023000000000000000000000000000000000000000000000000000000000000000000000000000000000000000000000000000000000000000000000000000000000000000000000000000000000000000000000000000000000000000000000000
#0353b0:1323
#035382:0013
#0353b2:00000053
#036382:23
#036350:1323
#036380:00530000
#036350:00000013
#037320:23
#0373a2:14
#037322:0034
#0383a2:24
#038320:14
#0383a0:0034
#039320:24
#0393a2:14
#039362:00240000
#040362:140000000000000000000000000000000000000000000000000000000000000000000000000000000000000000000000000000000000000000000000000000000000000000000000000000000000000000000000000000000000000000000000000000000000000000000000000000000000000000000000000000000000000000000000000000000000000000000000000000000000000000000000000000000000000000000000000000000000000000000000000000000000000000000024000000000000000000000000000000000000000000000000000000000000000000000000000000000000000000000000000000000000000000000000000000000000000000000000000000000000000000000000000000000000000000000000000000000000000000000000000000000000000000000000000000000000000000000000000000000000000000000000000000000000000000000000000000000000000000000000000000000000000000000000000000000000000000000000
#040322:00540000
#040362:000000000000000000000000000000000000000000000000000000000000000000000000000000000000000000000000000000000000000000000000000000000000000000000000000000000000000000000000000000000000000000000000000000000000000000000000000000000000000000000000000000000000000000000000000000000000000000000000000000000000000000000000000000000000000000000000000000000000000000000000000000000000000000000000001400000000000000000000000000000000000000000000000000000000000000000000000000000000000000000000000000000000000000000000000000000000000000000000000000000000000000000000000000000000000000000000000000000000000000000000000000000000000000000000000000000000000000000000000000000000000000000000000000000000000000000000000000000000000000000000000000000000000000000000000000000000000000000000
#0403a2:00000054
#041362:002400000000000000000000000000000000000000000000000000000000000000000000000000000000000000000000000000000000000000000000000000000000000000000000000000000000000000000000000000000000000000000000000000000000000000000000000000000000000000000000000000000000000000000000000000000000000000000000000000000000000000000000000000000000000000000000000000000000000000000000000000000000000000000000000000000000000000000000000000000000000000000000000000000000000000000000000000000000000000000000000000000000000000000000000000000000000000000000000000000000000000000000000000000000000000000000000000000000000000000000000000000000000000000000000000000000000000000000000000000000000000000000000000000000000000000000000000000000000000000000000000000000000000000000000000000000000000000000
#042352:13
#042322:00230000
#0423b0:00130000
#042380:0023
#042352:0013
#042322:00000023
#0423b0:00000013
#043380:23
#043322:14
#0433a2:0034
#044322:24
#0443a0:14
#044320:0034
#0453a0:24
#045352:13230000
#045320:00132300
#045352:00001323
#0453b0:00000013
#0463b0:23
#046382:13230000
#0463b0:00132300
#046362:00001424
#046320:00000013
#047320:23
#0473b2:13230000
#047350:0013002300000000
#047381:0000132300000000
#047322:0000001323000000
#0473b0:00001323
#047352:0000000000130023
#047381:0000000000001323
#047320:0000000000000013
#048320:23
#0483b2:1323000000000000
#048380:0013230000000000
#048352:0000132300000000
#048320:0000001323000000
#0513a0:1424
#051360:00540000
#051322:0014
#051362:00000054
#052322:24
#052380:1424
#052340:00540000
#052322:0014
#052382:00000054
#053322:24
#0533b0:13230000
#053382:00132300
#053350:00001323
#053322:00000013
#054322:23
#0543a0:14
#054360:0000003424000000
#055320:1424
#055360:00540000
#0553a2:0014
#055362:00000054
#0563a2:24
#056340:1424
#056380:00540000
#0563a2:0014
#056342:00000054
#0573a2:24
#057320:13230000
#057352:00132300
#057380:00001323
#0573b2:00000013
#0583b2:23
#058320:14
#058360:0000003424000000
#059320:13230000
#059352:13230000
#060322:13230000
#060350:13230000
#061320:14240000
#061362:14240000
#062322:14240000
#062360:14240000
#067350:001900000000000000000000000000000000000000000000000000000000000000000000000000000000000000000000000000000000000000000000000000000000000000000000000000000000000000000000000000000000000000000000000000000000000000000000000000000000000000000000000000000000000000000000000000000000000000000000000000000000000000000000000000000000000000000000000000000000000000000000000000000000000000000000000000000000000000000000000000000000000000000000000000000000000000000000000000000000000000000000000000000000000000000000000000000000000000000000000000000000000000000000000000000000000000000000000000000000000000000000000000000000000000000000000000000000000000000000000000000000000000000000000000000000000000000000000000000000000000000000000000000000000000000000000000000000000000000000
#067320:0000000056000026
#067320:000000000000000000000000000000000000000000000000000000000000000000000000000000000000000000000000000000000000000000000000000000000000000000000000000000000000000000000000000000000000000000000000000000000000000000000000000000000000000000000000000000000000000000000000000000000000000000000000000000000000000000000000000000000000000000000000000000000000000000000000000000000000000000000000000000000000000000000000000000000000000000000000000000000000000000000000000000000000000000000000000000000000000000000000000000000000000000000000000000000000000000000000000000000000000000000000000000000000000000000000000000000000000000000000000000000000000000000000000000000000000000000000001600000000000000000000000000000000000000000000000000000000000000000000000000000000000000000000
#068380:0056000026000000
#069320:001900000000000000000000000000000000000000000000000000000000000000000000000000000000000000000000000000000000000000000000000000000000000000000000000000000000000000000000000000000000000000000000000000000000000000000000000000000000000000000000000000000000000000000000000000000000000000000000000000000000000000000000000000000000000000000000000000000000000000000000000000000000000000000000000000000000000000000000000000000000000000000000000000000000000000000000000000000000000000000000000000000000000000000000000000000000000000000000000000000000000000000000000000000000000000000000000000000000000000000000000000000000000000000000000000000000000000000000000000000000000000000000000000000000000000000000000000000000000000000000000000000000000000000000000000000000000000000000
#069380:0000000056000026
#069380:000000000000000000000000000000000000000000000000000000000000000000000000000000000000000000000000000000000000000000000000000000000000000000000000000000000000000000000000000000000000000000000000000000000000000000000000000000000000000000000000000000000000000000000000000000000000000000000000000000000000000000000000000000000000000000000000000000000000000000000000000000000000000000000000000000000000000000000000000000000000000000000000000000000000000000000000000000000000000000000000000000000000000000000000000000000000000000000000000000000000000000000000000000000000000000000000000000000000000000000000000000000000000000000000000000000000000000000000000000000000000000000000001600000000000000000000000000000000000000000000000000000000000000000000000000000000000000000000
#070320:0056000026000000
#071350:001900000000000000000000000000000000000000000000000000000000000000000000000000000000000000000000000000000000000000000000000000000000000000000000000000000000000000000000000000000000000000000000000000000000000000000000000000000000000000000000000000000000000000000000000000000000000000000000000000000000000000000000000000000000000000000000000000000000000000000000000000000000000000000000000000000000000000000000000000000000000000000000000000000000000000000000000000000000000000000000000000000000000000000000000000000000000000000000000000000000000000000000000000000000000000000000000000000000000000000000000000000000000000000000000000000000000000000000000000000000000000000000000000000000000000000000000000000000000000000000000000000000000000000000000000000000000000000000
#071320:0000000056000026
#071320:000000000000000000000000000000000000000000000000000000000000000000000000000000000000000000000000000000000000000000000000000000000000000000000000000000000000000000000000000000000000000000000000000000000000000000000000000000000000000000000000000000000000000000000000000000000000000000000000000000000000000000000000000000000000000000000000000000000000000000000000000000000000000000000000000000000000000000000000000000000000000000000000000000000000000000000000000000000000000000000000000000000000000000000000000000000000000000000000000000000000000000000000000000000000000000000000000000000000000000000000000000000000000000000000000000000000000000000000000000000000000000000000001600000000000000000000000000000000000000000000000000000000000000000000000000000000000000000000
#072380:0056000026000000
#075350:001900000000000000000000000000000000000000000000000000000000000000000000000000000000000000000000000000000000000000000000000000000000000000000000000000000000000000000000000000000000000000000000000000000000000000000000000000000000000000000000000000000000000000000000000000000000000000000000000000000000000000000000000000000000000000000000000000000000000000000000000000000000000000000000000000000000000000000000000000000000000000000000000000000000000000000000000000000000000000000000000000000000000000000000000000000000000000000000000000000000000000000000000000000000000000000000000000000000000000000000000000000000000000000000000000000000000000000000000000000000000000000000000000000000000000000000000000000000000000000000000000000000000000000000000000000000000000000000
#075320:000000000000000000000000000000000000000000000000000000000000000000000000000000000000000000000000000000000000000000000000000000000000000000000000000000000000000000000000000000000000000000000000000000000000000000000000000000000000000000000000000000000000000000000000000000000000000000000000000000000000000000000000000000000000000000000000000000000000000000000000000000000000000000000000000000000000000000000000000000000000000000000000000000000000000000000000000000000000000000000000000000000000000000000000000000000000000000000000000000000000000000000000000000000000000000000000000000000000000000000000000000000000000000000000000000000000000000000000000000000000000000000026000000000000000000000000000000000000000000000000000000000000000000000000000000000000000000000000
#075320:000000000000000000000000000000000000000000000000000000000000000000000000000000000000000000000000000000000000000000000000000000000000000000000000000000000000000000000000000000000000000000000000000000000000000000000000000000000000000000000000000000000000000000000000000000000000000000000000000000000000000000000000000000000000000000000000000000000000000000000000000000000000000000000000000000000000000000000000000000000000000000000000000000000000000000000000000000000000000000000000000000000000000000000000000000000000000000000000000000000000000000000000000000000000000000000000000000000000000000000000000000000000000000000000000000000000000000000000000000000000000000000000001c00000000000000000000000000000000000000000000000000000000000000000000000000000000000000000000
#076320:0026
#077320:001900000000000000000000000000000000000000000000000000000000000000000000000000000000000000000000000000000000000000000000000000000000000000000000000000000000000000000000000000000000000000000000000000000000000000000000000000000000000000000000000000000000000000000000000000000000000000000000000000000000000000000000000000000000000000000000000000000000000000000000000000000000000000000000000000000000000000000000000000000000000000000000000000000000000000000000000000000000000000000000000000000000000000000000000000000000000000000000000000000000000000000000000000000000000000000000000000000000000000000000000000000000000000000000000000000000000000000000000000000000000000000000000000000000000000000000000000000000000000000000000000000000000000000000000000000000000000000000
#077380:000000000000000000000000000000000000000000000000000000000000000000000000000000000000000000000000000000000000000000000000000000000000000000000000000000000000000000000000000000000000000000000000000000000000000000000000000000000000000000000000000000000000000000000000000000000000000000000000000000000000000000000000000000000000000000000000000000000000000000000000000000000000000000000000000000000000000000000000000000000000000000000000000000000000000000000000000000000000000000000000000000000000000000000000000000000000000000000000000000000000000000000000000000000000000000000000000000000000000000000000000000000000000000000000000000000000000000000000000000000000000000000026000000000000000000000000000000000000000000000000000000000000000000000000000000000000000000000000
#077320:000000000000000000000000000000000000000000000000000000000000000000000000000000000000000000000000000000000000000000000000000000000000000000000000000000000000000000000000000000000000000000000000000000000000000000000000000000000000000000000000000000000000000000000000000000000000000000000000000000000000000000000000000000000000000000000000000000000000000000000000000000000000000000000000000000000000000000000000000000000000000000000000000000000000000000000000000000000000000000000000000000000000000000000000000000000000000000000000000000000000000000000000000000000000000000000000000000000000000000000000000000000000000000000000000000000000000000000000000000000000000000000000001c00000000000000000000000000000000000000000000000000000000000000000000000000000000000000000000
#078380:0026
#079350:001900000000000000000000000000000000000000000000000000000000000000000000000000000000000000000000000000000000000000000000000000000000000000000000000000000000000000000000000000000000000000000000000000000000000000000000000000000000000000000000000000000000000000000000000000000000000000000000000000000000000000000000000000000000000000000000000000000000000000000000000000000000000000000000000000000000000000000000000000000000000000000000000000000000000000000000000000000000000000000000000000000000000000000000000000000000000000000000000000000000000000000000000000000000000000000000000000000000000000000000000000000000000000000000000000000000000000000000000000000000000000000000000000000000000000000000000000000000000000000000000000000000000000000000000000000000000000000000
#079320:000000000000000000000000000000000000000000000000000000000000000000000000000000000000000000000000000000000000000000000000000000000000000000000000000000000000000000000000000000000000000000000000000000000000000000000000000000000000000000000000000000000000000000000000000000000000000000000000000000000000000000000000000000000000000000000000000000000000000000000000000000000000000000000000000000000000000000000000000000000000000000000000000000000000000000000000000000000000000000000000000000000000000000000000000000000000000000000000000000000000000000000000000000000000000000000000000000000000000000000000000000000000000000000000000000000000000000000000000000000000000000000026000000000000000000000000000000000000000000000000000000000000000000000000000000000000000000000000
#079320:000000000000000000000000000000000000000000000000000000000000000000000000000000000000000000000000000000000000000000000000000000000000000000000000000000000000000000000000000000000000000000000000000000000000000000000000000000000000000000000000000000000000000000000000000000000000000000000000000000000000000000000000000000000000000000000000000000000000000000000000000000000000000000000000000000000000000000000000000000000000000000000000000000000000000000000000000000000000000000000000000000000000000000000000000000000000000000000000000000000000000000000000000000000000000000000000000000000000000000000000000000000000000000000000000000000000000000000000000000000000000000000000001c00000000000000000000000000000000000000000000000000000000000000000000000000000000000000000000
#080320:0026
#081320:1c
#082320:000000000000000000000000000000000000000000000000000000000000000000000000000000000000000000000000000000000000000000000000000000000000000000000000000000000000000000000000000000000000000000000000000000000000000000000000000000000000000000000000000000000000000000000000000000000000000000000000000000000000000000000000000000000000000000000000000000000000000000000000005600000000000000000000
#083380:005600000000000000000000000000000000000000000000000000000000000000000000000000000000000000000000000000000000000000000000000000000000000000000000000000000000000000000000000000000000000000000000
#083390:0000005500000000
#083320:0027
#081322:001c
#082322:0000000000000000000000000000000000000000000000000000000000000000000000000000000000000000000000000000000000000000000000000000000000000000000000000000000000000000000000000000000000000000000000000000000000000000000000000000000000000000000000000056000000000000
#083382:0056000000000000000000000000000000000000000000000000000000000000000000000000000000000000000000000000000000000000000000000000000000000000000000000000000000000000000000000000000000000000000000000000000000000000000000000000000000000000000000000000000000000000
#0843a2:0000005400000000
#084322:0024
#082321:1c0000000000000000000000000000000000000000000000000000000000000000000000000000000000000000000000000000000000000000000000000000000000000000000000000000000000000000000000000000000000005600000000
#083381:005600000000000000000000000000000000000000000000000000000000000000000000000000000000000000000000000000000000000000000000000000000000000000000000000000000000000000000000000000000000000000000000000000000000000000000000000000000000000000000000000000000000000000000000000000000000000000000000000000000000000000000000000000000000000000000000000000000000000000000000000000000000000000000000
#0843a1:000000000000000000000000000000000000000000000000000000000000000000000000000000000000000000000000000000000000000000000000000000000000000000000000005400000000000000000000000000000000000000000000000000000000000000000000000000000000000000000000000000000000000000000000000000000000000000000000000000000000000000000000000000000000000000000000000000000000000000000000000000000000000000000000
#084361:0024
#082323:0000000000000000000000000000000000000000000000000000000000000000000000000000000000000000000000000000000000000000000000000000000000000000000000000000000000000000000000000000000000000000000000000000000000000000000000000000000000000000000000000000000000000000000000000000000000000000000000000000000000000000000000000000000000000000000000000000000000000000000000000000000000000000000000001c0000000000000000000000000000000000000000000000000000000000000000000000000000000000000000000000000000000000000000000000000000000000000000000000000000000000000000000000000000000000000000000000000000000000000000000000000000000000000000000000000000000000000000000000000000000000000000000000000000000000000000000000000000000000000000000000000000000056000000000000000000000000000000000000
#083383:005600000000000000000000000000000000000000000000000000000000000000000000000000000000000000000000000000000000000000000000000000000000000000000000000000000000000000000000000000000000000000000000000000000000000000000000000000000000000000000000000000000000000000000000000000000000000000000000000000000000000000000000000000000000000000000000000000000000000000000000000000000000000000000000000000000000000000000000000000000000000000000000000000000000000000000000000000000000000000000000000000000000000000000000000000000000000000000000000000000000000000000000000000000000000000000000000000000000000000000000000000000000000000000000000000000000000000000000000000000000000000000000000000000000000000000000000000000000000000000000000000000000000000000000000000000000000000000000
#0853b3:23
#085321:1424
#085381:00340000
#085393:0014
#085333:00000024
#0853a1:00000014
#086321:00240000
#0873a1:1424
#087341:00340000
#087333:0014
#087393:00000024
#087321:00000014
#0883a1:00240000
#089321:1424
#089381:00340000
#089393:0014
#089333:00000024
#0893a1:00000014
#090321:00240000
#091321:1424
#091381:00340000
#0913a3:0014
#092323:54
#0923a3:0024
#0913a1:00000014
#092361:54
#0923a1:00240000
#0933a3:1424
#093343:00340000
#093321:0014
#0943a1:54
#094321:0024
#093323:00000014
#094363:54
#094323:00240000
#095321:1424
#095381:00340000
#0953a3:0014
#096323:54
#0963a3:0024
#0953a1:00000014
#096361:54
#0963a1:00240000
#0973a3:14
#098363:000000000000000000000000000000000000000000000000000000000000000000000000000000000000000000000000000000000000000000000000000000000000000000000000000000000000000000000024000000000000000000000000
#097321:14
#098361:000000000000000000000000000000000000000000000000000000000000000000000000000000000000000000000000000000000000000000000000000000000000000000000000000000000000000000000000000000000000000000000000000000000000000000000000000000000000000000000000000000000000000000000000000000000000000000000000000000000000000000000000000000000000000000000024000000000000000000000000000000000000000000000000
#097362:14
#098362:0000000000000024
#016920:001c
#0169a0:00000024
#024950:00001353
#024970:0000000000530053
#025950:23
#024921:00001353
#024941:0000000000530053
#025921:23
#090981:00001353
#090961:0000000000530053
#091981:23
#0909b0:00001353
#090990:0000000000530053
#0919b0:23
